osu file format v14

[General]
AudioFilename: Otomegokoro x kyokuchuuhatto -dandara shooting MIX-.mp3
AudioLeadIn: 0
PreviewTime: 104212
Countdown: 1
SampleSet: None
StackLeniency: 0.7
Mode: 0
LetterboxInBreaks: 1
WidescreenStoryboard: 1

[Editor]
Bookmarks: 145888,234104
DistanceSpacing: 0.5
BeatDivisor: 4
GridSize: 8
TimelineZoom: 1

[Metadata]
Title:Otomegokoro x Kyokuchuuhatto -dandara shooting MIX-
TitleUnicode:Otomegokoro x Kyokuchuuhatto -dandara shooting MIX-
Artist:BARAKO
ArtistUnicode:BARAKO
Creator:AgeSheRi
Version:AR9
Source:gakuen shinsengumi
Tags:
BeatmapID:1087850
BeatmapSetID:304965

[Difficulty]
HPDrainRate:0
CircleSize:4.5
OverallDifficulty:7
ApproachRate:9
SliderMultiplier:3
SliderTickRate:4

[Events]
//Background and Video events
0,0,"21115012.jpg",0,0
//Break Periods
2,42144,46533
2,83333,92587
2,130198,132155
//Storyboard Layer 0 (Background)
//Storyboard Layer 1 (Fail)
//Storyboard Layer 2 (Pass)
//Storyboard Layer 3 (Foreground)
//Storyboard Sound Samples

[TimingPoints]
431,324.324324324324,4,3,0,5,1,0
7077,-166.666666666667,4,3,0,5,0,0
10645,-100,4,3,0,30,0,0
12104,-200,4,3,0,30,0,0
12753,-125,4,3,0,30,0,0
13077,-66.6666666666667,4,3,0,30,0,0
13401,-125,4,3,0,30,0,0
15672,-66.6666666666667,4,3,0,30,0,0
15834,-125,4,3,0,30,0,0
20537,-142.857142857143,4,3,0,30,0,0
20861,-62.5,4,3,0,30,0,0
21185,-125,4,3,0,30,0,0
23456,-66.6666666666667,4,3,0,30,0,0
23780,-125,4,3,0,30,0,0
26050,-66.6666666666667,4,3,0,30,0,0
31564,-125,4,3,0,30,0,0
33834,-66.6666666666667,4,3,0,30,0,0
34158,-125,4,3,0,30,0,0
35780,-100,4,3,0,30,0,0
35932,-125,4,3,0,30,0,0
36428,-66.6666666666667,4,3,0,30,0,0
47131,-200,4,3,0,5,0,0
47780,-200,4,3,0,7,0,0
47780,-200,4,3,0,7,0,0
47861,-200,4,3,0,9,0,0
47861,-200,4,3,0,9,0,0
47942,-200,4,3,0,11,0,0
47942,-200,4,3,0,11,0,0
48023,-200,4,3,0,13,0,0
48023,-200,4,3,0,13,0,0
48104,-200,4,3,0,15,0,0
48104,-200,4,3,0,15,0,0
48185,-200,4,3,0,17,0,0
48185,-200,4,3,0,17,0,0
48266,-200,4,3,0,19,0,0
48266,-200,4,3,0,19,0,0
48347,-200,4,3,0,21,0,0
48347,-200,4,3,0,21,0,0
48428,-200,4,3,0,23,0,0
48428,-200,4,3,0,23,0,0
48510,-200,4,3,0,25,0,0
48510,-200,4,3,0,25,0,0
48591,-200,4,3,0,27,0,0
48591,-200,4,3,0,27,0,0
48672,-200,4,3,0,29,0,0
48672,-200,4,3,0,29,0,0
48753,-200,4,3,0,31,0,0
48753,-200,4,3,0,31,0,0
48834,-200,4,3,0,33,0,0
48834,-200,4,3,0,33,0,0
48915,-200,4,3,0,35,0,0
48915,-200,4,3,0,35,0,0
48996,-200,4,3,0,37,0,0
48996,-200,4,3,0,37,0,0
49077,-200,4,3,0,39,0,0
49077,-200,4,3,0,39,0,0
49158,-200,4,3,0,41,0,0
49158,-200,4,3,0,41,0,0
49239,-200,4,3,0,43,0,0
49239,-200,4,3,0,43,0,0
49320,-200,4,3,0,45,0,0
49320,-200,4,3,0,45,0,0
49401,-200,4,3,0,47,0,0
49401,-200,4,3,0,47,0,0
49483,-200,4,3,0,49,0,0
49483,-200,4,3,0,49,0,0
49564,-200,4,3,0,51,0,0
49564,-200,4,3,0,51,0,0
49645,-200,4,3,0,53,0,0
49645,-200,4,3,0,53,0,0
49726,-142.857142857143,4,3,0,30,0,0
51023,-125,4,3,0,30,0,0
51672,-76.9230769230769,4,3,0,30,0,0
56861,-100,4,3,0,30,0,0
57023,-166.666666666667,4,3,0,30,0,0
57510,-125,4,3,0,30,0,0
60104,-71.4285714285714,4,3,0,30,0,0
60753,-71.4285714285714,4,3,0,5,0,0
60834,-71.4285714285714,4,3,0,7,0,0
60915,-71.4285714285714,4,3,0,9,0,0
60996,-71.4285714285714,4,3,0,11,0,0
61077,-71.4285714285714,4,3,0,13,0,0
61158,-71.4285714285714,4,3,0,15,0,0
61239,-71.4285714285714,4,3,0,17,0,0
61320,-71.4285714285714,4,3,0,19,0,0
61401,-71.4285714285714,4,3,0,21,0,0
61483,-71.4285714285714,4,3,0,23,0,0
61564,-71.4285714285714,4,3,0,25,0,0
61645,-71.4285714285714,4,3,0,27,0,0
61726,-71.4285714285714,4,3,0,29,0,0
61807,-71.4285714285714,4,3,0,31,0,0
61888,-71.4285714285714,4,3,0,33,0,0
61969,-71.4285714285714,4,3,0,35,0,0
62050,-71.4285714285714,4,3,0,37,0,0
62131,-71.4285714285714,4,3,0,39,0,0
62212,-71.4285714285714,4,3,0,41,0,0
62293,-71.4285714285714,4,3,0,43,0,0
62374,-71.4285714285714,4,3,0,45,0,0
62456,-71.4285714285714,4,3,0,47,0,0
62537,-71.4285714285714,4,3,0,49,0,0
62618,-71.4285714285714,4,3,0,51,0,0
62699,-125,4,3,0,30,0,0
64320,-166.666666666667,4,3,0,30,0,0
65293,-166.666666666667,4,3,0,10,0,0
65618,-166.666666666667,4,3,0,20,0,0
65942,-166.666666666667,4,3,0,30,0,0
66266,-166.666666666667,4,3,0,40,0,0
66591,-166.666666666667,4,3,0,40,0,0
66915,-166.666666666667,4,3,0,30,0,0
67239,-166.666666666667,4,3,0,20,0,0
67564,-166.666666666667,4,3,0,10,0,0
67888,-125,4,3,0,30,0,0
72753,-83.3333333333333,4,3,0,30,0,0
73077,-125,4,3,0,30,0,0
73079,-125,4,3,0,50,0,0
74212,-200,4,3,0,50,0,0
74699,-125,4,3,0,50,0,0
75672,-100,4,3,0,50,0,0
77780,-66.6666666666667,4,3,0,50,0,0
77942,-100,4,3,0,50,0,0
82158,-125,4,3,0,50,0,0
93187,-125,4,3,0,30,0,0
93510,-66.6666666666667,4,3,0,30,0,0
93998,-66.6666666666667,4,3,0,20,0,0
96430,-66.6666666666667,4,3,0,40,0,0
99834,-125,4,3,0,30,0,0
99996,-125,4,3,0,30,0,0
100645,-142.857142857143,4,3,0,30,0,0
100969,-166.666666666667,4,3,0,30,0,0
101293,-200,4,3,0,30,0,0
101618,-66.6666666666667,4,3,0,30,0,0
102266,-66.6666666666667,4,3,0,5,0,0
102347,-66.6666666666667,4,3,0,7,0,0
102428,-66.6666666666667,4,3,0,9,0,0
102510,-66.6666666666667,4,3,0,11,0,0
102591,-66.6666666666667,4,3,0,13,0,0
102672,-66.6666666666667,4,3,0,15,0,0
102753,-66.6666666666667,4,3,0,17,0,0
102834,-66.6666666666667,4,3,0,19,0,0
102915,-66.6666666666667,4,3,0,21,0,0
102996,-66.6666666666667,4,3,0,23,0,0
103077,-66.6666666666667,4,3,0,25,0,0
103158,-66.6666666666667,4,3,0,27,0,0
103239,-66.6666666666667,4,3,0,29,0,0
103320,-66.6666666666667,4,3,0,31,0,0
103401,-66.6666666666667,4,3,0,33,0,0
103483,-66.6666666666667,4,3,0,35,0,0
103564,-66.6666666666667,4,3,0,37,0,0
103645,-66.6666666666667,4,3,0,39,0,0
103726,-66.6666666666667,4,3,0,41,0,0
103807,-66.6666666666667,4,3,0,43,0,0
103888,-200,4,3,0,50,0,0
104212,-66.6666666666667,4,3,0,5,0,0
106807,-125,4,3,0,30,0,0
109401,-125,4,3,0,50,0,0
114591,-125,4,3,0,30,0,0
117185,-125,4,3,0,10,0,0
117510,-125,4,3,0,20,0,0
117834,-125,4,3,0,30,0,0
118158,-125,4,3,0,40,0,0
118483,-125,4,3,0,40,0,0
118807,-125,4,3,0,30,0,0
119131,-125,4,3,0,20,0,0
119456,-125,4,3,0,10,0,0
119780,-125,4,3,0,30,0,0
123672,-166.666666666667,4,3,0,30,0,0
125293,-66.6666666666667,4,3,0,5,0,0
134050,-125,4,3,0,30,0,0
135672,-100,4,3,0,30,0,0
135915,-125,4,3,0,30,0,0
135996,-166.666666666667,4,3,0,30,0,0
136645,-166.666666666667,4,3,0,30,0,0
136969,-142.857142857143,4,3,0,30,0,0
137293,-125,4,3,0,30,0,0
137456,-50,4,3,0,30,0,0
137780,-125,4,3,0,30,0,0
139241,-125,4,3,0,50,0,0
140374,-166.666666666667,4,3,0,30,0,0
140861,-125,4,3,0,30,0,0
141834,-100,4,3,0,30,0,0
142645,-66.6666666666667,4,3,0,30,0,0
142969,-125,4,3,0,30,0,0
144266,-166.666666666667,4,3,0,30,0,0
144753,-125,4,3,0,30,0,0
145401,-166.666666666667,4,3,0,30,0,0
145888,-66.6666666666667,4,3,0,30,0,0
148322,-66.6666666666667,4,3,0,40,0,0
151079,-66.6666666666667,4,3,0,30,0,0
154158,-66.6666666666667,4,3,0,5,0,0
154239,-66.6666666666667,4,3,0,7,0,0
154320,-66.6666666666667,4,3,0,9,0,0
154401,-66.6666666666667,4,3,0,11,0,0
154483,-66.6666666666667,4,3,0,13,0,0
154564,-66.6666666666667,4,3,0,15,0,0
154645,-66.6666666666667,4,3,0,17,0,0
154726,-66.6666666666667,4,3,0,19,0,0
154807,-66.6666666666667,4,3,0,21,0,0
154888,-66.6666666666667,4,3,0,23,0,0
154969,-66.6666666666667,4,3,0,25,0,0
155050,-66.6666666666667,4,3,0,27,0,0
155131,-66.6666666666667,4,3,0,29,0,0
155212,-66.6666666666667,4,3,0,31,0,0
155293,-66.6666666666667,4,3,0,33,0,0
155374,-66.6666666666667,4,3,0,35,0,0
155456,-66.6666666666667,4,3,0,37,0,0
155537,-66.6666666666667,4,3,0,39,0,0
155618,-66.6666666666667,4,3,0,41,0,0
155699,-66.6666666666667,4,3,0,43,0,0
155780,-125,4,3,0,50,0,0
156104,-66.6666666666667,4,3,0,5,0,0
158699,-125,4,3,0,30,0,0
161293,-125,4,3,0,50,0,0
166483,-125,4,3,0,30,0,0
169077,-125,4,3,0,10,0,0
169401,-125,4,3,0,20,0,0
169726,-125,4,3,0,30,0,0
170050,-125,4,3,0,40,0,0
170374,-125,4,3,0,40,0,0
170699,-125,4,3,0,30,0,0
171023,-125,4,3,0,20,0,0
171347,-125,4,3,0,10,0,0
171672,-125,4,3,0,30,0,0
176699,-50,4,3,0,30,0,0
176861,-125,4,3,0,30,0,0
179131,-66.6666666666667,4,3,0,30,0,0
179456,-125,4,3,0,30,0,0
181726,-66.6666666666667,4,3,0,30,0,0
187239,-125,4,3,0,30,0,0
189510,-66.6666666666667,4,3,0,30,0,0
189834,-125,4,3,0,30,0,0
192104,-66.6666666666667,4,3,0,30,0,0
195023,-125,4,3,0,5,0,0
196320,-125,4,3,0,5,0,0
196401,-125,4,3,0,8,0,0
196483,-125,4,3,0,11,0,0
196564,-125,4,3,0,15,0,0
196645,-125,4,3,0,18,0,0
196726,-125,4,3,0,21,0,0
196807,-125,4,3,0,24,0,0
196888,-125,4,3,0,27,0,0
196969,-125,4,3,0,30,0,0
197050,-125,4,3,0,33,0,0
197131,-125,4,3,0,36,0,0
197212,-125,4,3,0,39,0,0
197293,-125,4,3,0,42,0,0
197374,-125,4,3,0,45,0,0
197456,-66.6666666666667,4,3,0,50,0,0
197942,-66.6666666666667,4,3,0,30,0,0
198753,-166.666666666667,4,3,0,30,0,0
199726,-83.3333333333333,4,3,0,30,0,0
200861,-100,4,3,0,30,0,0
202320,-66.6666666666667,4,3,0,30,0,0
202807,-125,4,3,0,30,0,0
207996,-100,4,3,0,50,0,0
210591,-142.857142857143,4,3,0,50,0,0
211564,-66.6666666666667,4,3,0,50,0,0
211726,-125,4,3,0,50,0,0
212699,-66.6666666666667,4,3,0,50,0,0
212861,-166.666666666667,4,3,0,50,0,0
213185,-125,4,3,0,50,0,0
218050,-76.9230769230769,4,3,0,50,0,0
218537,-66.6666666666667,4,3,0,40,0,0
220971,-66.6666666666667,4,3,0,20,0,0
226158,-200,4,3,0,5,0,0
226239,-200,4,3,0,7,0,0
226320,-200,4,3,0,9,0,0
226401,-200,4,3,0,11,0,0
226483,-200,4,3,0,13,0,0
226564,-200,4,3,0,15,0,0
226645,-200,4,3,0,17,0,0
226726,-200,4,3,0,19,0,0
226807,-200,4,3,0,21,0,0
226888,-200,4,3,0,23,0,0
226969,-200,4,3,0,25,0,0
227050,-200,4,3,0,27,0,0
227131,-200,4,3,0,29,0,0
227212,-200,4,3,0,31,0,0
227293,-200,4,3,0,33,0,0
227374,-200,4,3,0,35,0,0
227456,-200,4,3,0,37,0,0
227537,-200,4,3,0,39,0,0
227618,-200,4,3,0,41,0,0
227699,-200,4,3,0,43,0,0
227780,-200,4,3,0,45,0,0
227861,-200,4,3,0,47,0,0
227942,-200,4,3,0,49,0,0
228023,-200,4,3,0,51,0,0
228104,-200,4,3,0,53,0,0
228185,-200,4,3,0,55,0,0
228266,-200,4,3,0,57,0,0
228347,-200,4,3,0,59,0,0
228428,-50,4,3,0,100,0,0
231023,-66.6666666666667,4,3,0,5,0,0
233942,-125,4,3,0,30,0,0
236537,-125,4,3,0,50,0,0
249510,-125,4,3,0,10,0,0
249591,-125,4,3,0,12,0,0
249672,-125,4,3,0,14,0,0
249753,-125,4,3,0,16,0,0
249834,-125,4,3,0,18,0,0
249915,-125,4,3,0,20,0,0
249996,-125,4,3,0,22,0,0
250077,-125,4,3,0,24,0,0
250158,-125,4,3,0,26,0,0
250239,-125,4,3,0,28,0,0
250320,-125,4,3,0,30,0,0
250401,-125,4,3,0,32,0,0
250483,-125,4,3,0,34,0,0
250564,-125,4,3,0,36,0,0
250645,-125,4,3,0,38,0,0
250726,-125,4,3,0,40,0,0
250807,-125,4,3,0,42,0,0
250888,-125,4,3,0,44,0,0
250969,-125,4,3,0,46,0,0
251050,-125,4,3,0,48,0,0
251131,-125,4,3,0,50,0,0
251214,-125,4,3,0,52,0,0
251295,-125,4,3,0,54,0,0
251376,-125,4,3,0,56,0,0
251458,-125,4,3,0,58,0,0
251539,-125,4,3,0,60,0,0
251620,-125,4,3,0,62,0,0
251701,-125,4,3,0,64,0,0
251782,-125,4,3,0,66,0,0
251863,-125,4,3,0,68,0,0
251944,-125,4,3,0,70,0,0
252025,-125,4,3,0,72,0,0
252106,-125,4,3,0,30,0,0
254701,-125,4,3,0,10,0,0
255025,-125,4,3,0,20,0,0
255349,-125,4,3,0,30,0,0
255674,-125,4,3,0,40,0,0
255998,-125,4,3,0,40,0,0
256322,-125,4,3,0,30,0,0
256647,-125,4,3,0,20,0,0
256971,-125,4,3,0,10,0,0
257295,-125,4,3,0,30,0,0
262320,-66.6666666666667,4,3,0,30,0,0
283564,-166.666666666667,4,3,0,30,0,0
283888,-100,4,3,0,30,0,0
284376,-100,4,3,0,50,0,0
284861,-142.857142857143,4,3,0,30,0,0
286485,-142.857142857143,4,3,0,50,0,0
287456,-125,4,3,0,30,0,0

[HitObjects]
80,104,431,5,0,0:0:0:0:
168,136,593,1,0,0:0:0:0:
136,224,755,1,0,0:0:0:0:
48,192,917,1,0,0:0:0:0:
168,136,1079,1,0,0:0:0:0:
224,256,1241,1,0,0:0:0:0:
104,312,1403,1,0,0:0:0:0:
48,192,1566,1,0,0:0:0:0:
48,192,1647,1,0,0:0:0:0:
48,192,1728,1,0,0:0:0:0:
73,104,1890,5,0,0:0:0:0:
89,192,2052,1,0,0:0:0:0:
105,280,2214,1,0,0:0:0:0:
121,192,2376,1,0,0:0:0:0:
137,104,2539,1,0,0:0:0:0:
281,192,2701,1,0,0:0:0:0:
281,192,2782,1,0,0:0:0:0:
281,192,2863,1,0,0:0:0:0:
281,192,2944,1,0,0:0:0:0:
281,192,3025,1,0,0:0:0:0:
361,144,3187,5,0,0:0:0:0:
281,104,3349,1,0,0:0:0:0:
361,56,3512,1,0,0:0:0:0:
281,104,3674,1,0,0:0:0:0:
281,16,3836,1,0,0:0:0:0:
281,104,3998,1,0,0:0:0:0:
177,104,4160,1,0,0:0:0:0:
201,104,4241,1,0,0:0:0:0:
225,104,4322,1,0,0:0:0:0:
225,16,4485,5,0,0:0:0:0:
137,16,4647,1,0,0:0:0:0:
137,104,4809,1,0,0:0:0:0:
225,104,4971,1,0,0:0:0:0:
249,104,5052,1,0,0:0:0:0:
273,104,5133,1,0,0:0:0:0:
297,104,5214,1,0,0:0:0:0:
321,104,5295,1,0,0:0:0:0:
256,192,5458,12,0,6917,0:0:0:0:
285,102,7079,6,0,B|351:46|351:46|327:132|327:132|412:121|412:121|348:180|348:180|427:216|427:216|340:232|340:232|386:305|386:305|305:271|305:271|305:358|305:358|255:285|255:285|205:358|205:358|204:270|204:270|124:305|124:305|169:230|169:230|83:217|83:217|163:177|163:177|99:120|99:120|186:130|186:130|162:47|162:47|229:102|229:102|256:19|256:19|284:102|284:102|284:102,1,1889.99994232178
285,102,10647,6,0,B|294:141|294:141|287:176,1,75
264,272,10809,2,0,P|296:208|376:232,1,150
447,296,11133,1,0,0:0:0:0:
447,296,11295,1,0,0:0:0:0:
264,272,11458,2,0,P|296:208|376:232,1,150
447,296,11782,1,0,0:0:0:0:
475,202,11944,1,0,0:0:0:0:
264,272,12106,6,0,B|256:312|256:312|272:344|272:344|264:384,1,112.5
328,208,12430,2,0,B|336:168|336:168|320:136|320:136|328:96,1,112.5
263,271,12755,2,0,P|317:296|376:288,1,120
263,271,13079,6,0,P|212:252|256:287,1,112.500004291535
376,288,13403,6,0,B|448:264|448:264|392:256,1,120
232,232,13728,1,0,0:0:0:0:
162,293,13890,1,0,0:0:0:0:
424,312,14052,2,0,B|496:288|496:288|440:280,1,120
232,232,14376,1,0,0:0:0:0:
98,351,14539,1,0,0:0:0:0:
232,232,14701,5,0,0:0:0:0:
162,293,14863,1,0,0:0:0:0:
79,238,15025,2,0,B|71:206|71:206|79:174|63:150|63:150|71:94,1,120
176,120,15349,1,0,0:0:0:0:
174,127,15430,1,0,0:0:0:0:
172,135,15512,1,0,0:0:0:0:
171,143,15593,1,0,0:0:0:0:
165,180,15674,6,0,B|133:228|133:228|197:204,1,112.500004291535
251,106,15836,6,0,B|307:82|307:82|275:154,1,120
181,294,16160,5,0,0:0:0:0:
178,301,16241,1,0,0:0:0:0:
176,309,16322,1,0,0:0:0:0:
253,222,16485,1,0,0:0:0:0:
245,236,16566,1,0,0:0:0:0:
239,250,16647,1,0,0:0:0:0:
349,166,16809,1,0,0:0:0:0:
335,185,16890,1,0,0:0:0:0:
322,205,16971,1,0,0:0:0:0:
469,126,17133,1,0,0:0:0:0:
445,147,17214,1,0,0:0:0:0:
423,170,17295,1,0,0:0:0:0:
434,49,17458,5,0,0:0:0:0:
410,70,17539,1,0,0:0:0:0:
388,93,17620,1,0,0:0:0:0:
314,89,17782,1,0,0:0:0:0:
300,108,17863,1,0,0:0:0:0:
287,128,17944,1,0,0:0:0:0:
218,145,18106,1,0,0:0:0:0:
210,159,18187,1,0,0:0:0:0:
204,173,18268,1,0,0:0:0:0:
146,217,18430,1,0,0:0:0:0:
143,224,18511,1,0,0:0:0:0:
141,232,18592,1,0,0:0:0:0:
66,349,18755,5,0,0:0:0:0:
26,334,18917,2,0,P|64:300|113:340,1,120
208,368,19241,1,0,0:0:0:0:
295,236,19403,1,0,0:0:0:0:
337,250,19566,2,0,P|289:287|249:247,1,120
208,176,19809,5,0,0:0:0:0:
208,176,19890,2,0,B|232:160|232:160|199:131|103:160,1,120
0,145,20214,2,0,P|64:137|96:73,1,120
111,4,20458,1,0,0:0:0:0:
111,4,20539,2,0,B|103:60|103:60|135:124,1,104.999996795654
232,80,20782,1,0,0:0:0:0:
256,72,20863,2,0,B|288:96|288:96|272:128|272:128|304:152|304:152|280:184|280:184|376:152|432:280|288:320,1,360
336,298,21187,6,0,P|281:274|225:306,1,120
156,328,21430,1,0,0:0:0:0:
156,328,21512,2,0,L|20:312,1,120
36,313,21755,1,0,0:0:0:0:
36,313,21836,1,0,0:0:0:0:
200,144,21998,1,0,0:0:0:0:
200,144,22079,1,0,0:0:0:0:
200,144,22160,2,0,B|184:191|184:191|200:272,1,120
312,288,22403,1,0,0:0:0:0:
312,288,22485,2,0,P|368:256|304:176,1,180
319,174,22809,2,0,B|256:184|256:184|208:168|208:168|144:176,1,180
58,171,23133,2,0,B|70:255|70:255|84:223,1,120
67,71,23458,6,0,P|55:35|48:81,1,112.500004291535
233,315,23782,5,0,0:0:0:0:
472,193,23944,1,0,0:0:0:0:
480,161,24025,1,0,0:0:0:0:
488,129,24106,2,0,B|424:145|424:145|352:121,1,120
313,204,24349,1,0,0:0:0:0:
313,204,24430,2,0,P|273:236|185:220,1,120
128,192,24674,1,0,0:0:0:0:
128,192,24755,2,0,B|72:176|72:176|-16:208,1,120
128,192,25079,6,0,P|160:200|208:184,1,60
64,136,25241,2,0,P|32:127|-15:143,1,60
64,264,25403,2,0,B|80:216|64:184|64:184|104:136|104:136|112:80|64:40,1,240
383,46,26052,6,0,P|401:83|399:37,1,112.500004291535
96,256,26539,6,0,P|120:288|112:240,1,112.500004291535
96,128,26863,6,0,P|72:96|80:144,1,112.500004291535
160,192,27187,5,0,0:0:0:0:
184,192,27268,5,0,0:0:0:0:
208,192,27349,5,0,0:0:0:0:
232,192,27430,5,0,0:0:0:0:
256,192,27512,6,0,B|312:192|312:192|208:192,1,112.500004291535
448,192,27836,5,0,0:0:0:0:
416,192,27917,5,0,0:0:0:0:
384,192,27998,5,0,0:0:0:0:
256,192,28160,5,0,0:0:0:0:
128,192,28322,5,0,0:0:0:0:
96,192,28403,5,0,0:0:0:0:
64,192,28484,5,0,0:0:0:0:
256,192,28647,6,0,B|312:192|312:192|208:192,1,112.500004291535
96,64,28971,5,0,0:0:0:0:
96,320,29133,5,0,0:0:0:0:
160,192,29458,5,0,0:0:0:0:
184,192,29539,5,0,0:0:0:0:
208,192,29620,5,0,0:0:0:0:
232,192,29701,5,0,0:0:0:0:
256,192,29782,5,0,0:0:0:0:
288,192,29863,5,0,0:0:0:0:
352,192,29944,5,0,0:0:0:0:
456,192,30106,6,0,B|512:192|512:192|408:192,1,112.500004291535
176,192,30430,5,0,0:0:0:0:
144,192,30512,5,0,0:0:0:0:
112,192,30593,5,0,0:0:0:0:
256,192,30755,5,0,0:0:0:0:
176,192,30917,5,0,0:0:0:0:
144,192,30999,5,0,0:0:0:0:
112,192,31080,5,0,0:0:0:0:
320,192,31241,6,0,B|376:192|376:192|272:192,1,112.500004291535
256,192,31403,2,0,L|136:192,1,112.500004291535
104,232,31566,5,0,0:0:0:0:
128,248,31647,1,0,0:0:0:0:
160,256,31728,1,0,0:0:0:0:
192,248,31809,1,0,0:0:0:0:
216,232,31890,1,0,0:0:0:0:
256,64,32052,5,0,0:0:0:0:
296,232,32214,5,0,0:0:0:0:
320,248,32295,1,0,0:0:0:0:
352,256,32376,1,0,0:0:0:0:
384,248,32458,1,0,0:0:0:0:
408,232,32539,1,0,0:0:0:0:
256,64,32701,5,0,0:0:0:0:
256,208,32863,2,0,L|256:272,3,60
312,328,33187,6,0,P|376:344|448:312,1,120
208,328,33512,6,0,P|144:344|72:312,1,120
256,64,33836,6,0,L|256:224,1,112.500004291535
368,272,34160,5,0,0:0:0:0:
376,240,34241,1,0,0:0:0:0:
384,208,34322,1,0,0:0:0:0:
392,176,34403,1,0,0:0:0:0:
400,144,34485,1,0,0:0:0:0:
397,0,34647,2,0,L|373:96,2,60
311,157,34971,1,0,0:0:0:0:
303,189,35052,1,0,0:0:0:0:
295,221,35133,1,0,0:0:0:0:
297,371,35295,1,0,0:0:0:0:
104,288,35458,6,0,L|96:216,1,60
168,176,35620,2,0,L|176:96,1,60
80,72,35782,2,0,P|152:104|225:62,1,150
176,16,36106,2,0,L|192:152,1,120
436,328,36430,6,0,P|482:329|453:300,1,112.500004291535
160,256,36917,6,0,P|127:280|175:272,1,112.500004291535
352,256,37241,6,0,P|384:232|337:240,1,112.500004291535
255,224,37565,5,0,0:0:0:0:
256,248,37646,5,0,0:0:0:0:
256,272,37727,5,0,0:0:0:0:
255,296,37808,5,0,0:0:0:0:
256,320,37890,6,0,B|256:376|256:376|256:272,1,112.500004291535
256,112,38214,5,0,0:0:0:0:
256,80,38295,5,0,0:0:0:0:
255,47,38376,5,0,0:0:0:0:
256,192,38538,5,0,0:0:0:0:
256,272,38700,5,0,0:0:0:0:
256,304,38781,5,0,0:0:0:0:
256,336,38862,5,0,0:0:0:0:
256,192,39025,6,0,B|255:248|255:248|255:144,1,112.500004291535
96,192,39349,5,0,0:0:0:0:
416,192,39511,5,0,0:0:0:0:
256,32,39836,5,0,0:0:0:0:
256,56,39917,5,0,0:0:0:0:
256,80,39998,5,0,0:0:0:0:
256,104,40079,5,0,0:0:0:0:
256,128,40160,5,0,0:0:0:0:
256,153,40241,5,0,0:0:0:0:
256,224,40322,5,0,0:0:0:0:
256,320,40484,6,0,B|255:376|255:376|256:288,1,112.500004291535
256,192,40808,5,0,0:0:0:0:
256,160,40890,5,0,0:0:0:0:
255,127,40971,5,0,0:0:0:0:
256,64,41133,5,0,0:0:0:0:
255,127,41295,5,0,0:0:0:0:
256,160,41376,5,0,0:0:0:0:
256,192,41458,5,0,0:0:0:0:
256,288,41620,2,0,B|240:248|240:248|272:216|272:216|240:184|240:184|272:152|272:152|192:128|160:16|288:-48|360:72,1,450.000017166138
98,254,47133,6,0,P|72:135|4:208,1,262.5
67,200,47782,5,0,0:0:0:0:
74,200,47863,1,0,0:0:0:0:
84,202,47944,1,0,0:0:0:0:
90,202,48025,1,0,0:0:0:0:
104,202,48106,5,0,0:0:0:0:
111,201,48187,1,0,0:0:0:0:
119,200,48268,1,0,0:0:0:0:
127,199,48349,1,0,0:0:0:0:
147,198,48430,5,0,0:0:0:0:
162,199,48512,1,0,0:0:0:0:
178,200,48593,1,0,0:0:0:0:
194,202,48674,1,0,0:0:0:0:
225,204,48755,5,0,0:0:0:0:
240,202,48836,1,0,0:0:0:0:
256,201,48917,1,0,0:0:0:0:
272,199,48998,1,0,0:0:0:0:
310,199,49079,5,0,0:0:0:0:
333,201,49160,1,0,0:0:0:0:
357,203,49241,1,0,0:0:0:0:
381,205,49322,1,0,0:0:0:0:
428,202,49403,5,0,0:0:0:0:
451,199,49485,1,0,0:0:0:0:
475,197,49566,1,0,0:0:0:0:
499,195,49647,1,0,0:0:0:0:
499,195,49728,5,0,0:0:0:0:
176,128,51025,2,0,B|240:112|240:112|176:248,1,180
191,215,51349,2,0,B|127:231|127:231|191:95,1,180
256,56,51674,6,0,L|256:120,4,48.7499977684022
256,192,51998,2,0,B|256:240|256:240|256:184,1,97.4999955368044
64,192,52322,5,0,3:0:0:0:
96,200,52403,1,0,3:0:0:0:
128,200,52485,1,0,3:0:0:0:
152,192,52566,1,0,3:0:0:0:
168,160,52647,5,0,3:0:0:0:
152,136,52728,1,0,3:0:0:0:
152,104,52809,1,0,3:0:0:0:
168,80,52890,1,0,3:0:0:0:
184,120,52971,5,0,3:0:0:0:
224,136,53052,1,0,3:0:0:0:
264,136,53133,1,0,3:0:0:0:
304,128,53214,1,0,3:0:0:0:
328,112,53295,5,0,3:0:0:0:
352,144,53376,1,0,3:0:0:0:
360,184,53458,1,0,3:0:0:0:
352,224,53539,1,0,3:0:0:0:
323,228,53620,5,0,3:0:0:0:
302,255,53701,1,0,3:0:0:0:
272,271,53782,1,0,3:0:0:0:
237,276,53863,1,0,3:0:0:0:
208,248,53944,5,0,3:0:0:0:
200,288,54025,1,0,3:0:0:0:
208,328,54106,1,0,3:0:0:0:
232,360,54187,1,0,3:0:0:0:
280,352,54268,5,0,3:0:0:0:
248,328,54349,1,0,3:0:0:0:
208,312,54430,1,0,3:0:0:0:
168,312,54512,1,0,3:0:0:0:
128,320,54593,5,0,3:0:0:0:
88,320,54674,1,0,3:0:0:0:
48,304,54755,1,0,3:0:0:0:
24,272,54836,1,0,3:0:0:0:
16,232,54917,5,0,3:0:0:0:
24,192,54998,1,0,3:0:0:0:
48,160,55079,1,0,3:0:0:0:
80,144,55160,1,0,3:0:0:0:
118,151,55241,5,0,3:0:0:0:
158,167,55322,1,0,3:0:0:0:
198,159,55403,1,0,3:0:0:0:
222,127,55485,1,0,3:0:0:0:
217,90,55566,5,0,3:0:0:0:
196,123,55647,1,0,3:0:0:0:
184,163,55728,1,0,3:0:0:0:
181,198,55809,1,0,3:0:0:0:
194,235,55890,5,0,3:0:0:0:
178,275,55971,1,0,3:0:0:0:
146,299,56052,1,0,3:0:0:0:
106,307,56133,1,0,3:0:0:0:
61,304,56214,5,0,3:0:0:0:
93,328,56295,1,0,3:0:0:0:
133,328,56376,1,0,3:0:0:0:
165,304,56458,1,0,3:0:0:0:
152,272,56539,5,0,3:0:0:0:
184,248,56620,1,0,3:0:0:0:
224,248,56701,1,0,3:0:0:0:
256,272,56782,1,0,3:0:0:0:
256,248,56863,5,0,3:0:0:0:
256,216,56944,1,0,3:0:0:0:
256,184,57025,2,0,L|256:136,4,44.999998626709,0|0|0|0|0,3:0|3:0|3:0|3:0|3:0,3:0:0:0:
368,192,57512,6,0,L|448:192,3,60,0|0|0|0,3:0|3:0|3:0|3:0,3:0:0:0:
144,192,57836,2,0,L|64:192,3,60,0|0|0|0,3:0|3:0|3:0|3:0,3:0:0:0:
368,192,58160,2,0,L|272:192,3,60,0|0|0|0,3:0|3:0|3:0|3:0,3:0:0:0:
144,192,58485,2,0,L|240:192,3,60,0|0|0|0,3:0|3:0|3:0|3:0,3:0:0:0:
256,304,58809,6,0,L|255:384,3,60,0|0|0|0,3:0|3:0|3:0|3:0,3:0:0:0:
256,79,59133,2,0,L|256:0,3,60,0|0|0|0,3:0|3:0|3:0|3:0,3:0:0:0:
256,304,59457,2,0,L|256:208,3,60,0|0|0|0,3:0|3:0|3:0|3:0,3:0:0:0:
256,79,59782,2,0,L|256:175,3,60,0|0|0|0,3:0|3:0|3:0|3:0,3:0:0:0:
256,205,60106,6,0,B|216:256|216:256|296:256|296:256|210:148,1,209.999993591309,0|0,3:0|3:0,3:0:0:0:
256,80,60755,5,0,0:0:0:0:
256,104,60836,1,0,0:0:0:0:
256,128,60917,1,0,0:0:0:0:
256,152,60998,1,0,0:0:0:0:
256,176,61079,1,0,0:0:0:0:
256,200,61160,1,0,0:0:0:0:
256,224,61241,1,0,0:0:0:0:
256,248,61322,1,0,0:0:0:0:
256,272,61403,5,0,0:0:0:0:
214,263,61485,5,0,0:0:0:0:
180,239,61566,5,0,0:0:0:0:
157,204,61647,5,0,0:0:0:0:
149,163,61728,5,0,0:0:0:0:
157,122,61809,5,0,0:0:0:0:
181,87,61890,5,0,0:0:0:0:
216,64,61971,5,0,0:0:0:0:
257,56,62052,5,0,0:0:0:0:
298,65,62133,5,0,0:0:0:0:
333,88,62214,5,0,0:0:0:0:
356,124,62295,5,0,0:0:0:0:
364,165,62376,5,0,0:0:0:0:
356,206,62458,5,0,0:0:0:0:
332,241,62539,5,0,0:0:0:0:
297,264,62620,5,0,0:0:0:0:
256,272,62701,6,0,P|215:221|232:168,1,120
270,349,62944,1,0,0:0:0:0:
270,349,63025,2,0,B|123:368,1,120
15,149,63268,1,0,0:0:0:0:
15,149,63349,6,0,L|31:309,1,120
71,353,63593,1,0,0:0:0:0:
71,353,63674,2,0,P|118:318|119:261,1,120
15,149,63998,2,0,L|20:208,3,60
106,143,64322,6,0,L|106:15,1,89.9999972534181
198,167,64566,1,0,0:0:0:0:
198,167,64647,2,0,L|206:39,1,89.9999972534181
300,164,64890,1,0,0:0:0:0:
300,164,64971,2,0,L|296:67,1,89.9999972534181
120,248,65295,5,0,0:0:0:0:
168,336,65458,1,0,0:0:0:0:
198,167,65620,1,0,0:0:0:0:
216,320,65782,1,0,0:0:0:0:
272,96,65944,1,0,0:0:0:0:
264,312,66106,1,0,0:0:0:0:
368,32,66268,1,0,0:0:0:0:
312,312,66430,1,0,0:0:0:0:
480,8,66593,5,0,0:0:0:0:
198,167,66755,1,0,0:0:0:0:
488,120,66917,1,0,0:0:0:0:
272,96,67079,1,0,0:0:0:0:
488,120,67241,1,0,0:0:0:0:
368,32,67403,1,0,0:0:0:0:
488,120,67566,1,0,0:0:0:0:
480,8,67728,1,0,0:0:0:0:
355,322,67890,6,0,P|296:294|218:311,1,120
128,340,68133,1,0,0:0:0:0:
137,352,68214,2,0,B|149:296|149:296|125:224,1,120
25,95,68458,1,0,0:0:0:0:
13,86,68539,6,0,B|1:142|1:142|25:214,1,120
32,200,68782,1,0,0:0:0:0:
43,197,68863,2,0,P|59:205|59:301,1,120
0,260,69187,6,0,B|80:212|80:212|184:252,1,180
235,283,69512,2,0,P|339:252|307:180,1,180
253,193,69836,2,0,P|284:89|356:121,1,180
417,125,70160,2,0,B|441:167|441:167|425:263,1,120
336,304,70485,6,0,L|264:312,1,60
244,310,70647,6,0,L|304:320,1,60
269,328,70809,6,0,L|202:299,1,60
185,289,70971,6,0,L|233:327,1,60
199,317,71133,6,0,L|156:258,1,60
146,241,71295,6,0,L|168:298,1,60
144,271,71458,6,0,L|136:199,1,60
136,180,71620,6,0,L|127:240,1,60
43,194,71782,5,0,0:0:0:0:
80,111,71944,1,0,0:0:0:0:
169,37,72106,1,0,0:0:0:0:
296,19,72268,1,0,0:0:0:0:
408,96,72430,5,0,0:0:0:0:
438,173,72511,5,0,0:0:0:0:
374,227,72592,5,0,0:0:0:0:
303,183,72673,5,0,0:0:0:0:
320,104,72755,6,0,B|293:80|266:80|241:88|224:111|205:126|177:133|148:118|141:104|143:86,1,179.999994506836
32,49,73079,6,0,B|48:79|54:101|35:132|11:150|11:150|7:197|58:209,1,180
131,178,73403,2,0,L|286:172,1,120
385,116,73728,6,0,L|289:120,1,60
399,197,73890,2,0,L|495:193,1,60
297,246,74052,2,0,L|201:250,1,60
366,315,74214,2,0,B|395:315|411:320|442:333|442:333|423:310|414:289|406:259|409:245,1,150
410,269,74701,6,0,B|389:235|403:197|436:182|436:182|417:149|421:116|439:74,1,180
442,78,75025,1,0,0:0:0:0:
299,176,75187,1,0,0:0:0:0:
136,238,75349,1,0,0:0:0:0:
279,140,75511,1,0,0:0:0:0:
136,238,75674,6,0,P|106:196|144:83,1,150
433,161,75998,2,0,P|363:140|299:176,1,150
38,23,76322,2,0,P|79:71|173:51,1,150
160,64,76809,5,0,0:0:0:0:
384,192,76971,1,0,0:0:0:0:
160,320,77133,1,0,0:0:0:0:
192,64,77295,1,0,0:0:0:0:
448,96,77458,1,0,0:0:0:0:
416,352,77620,1,0,0:0:0:0:
426,24,77782,6,0,P|464:41|441:97,1,112.500004291535
426,144,77944,2,0,L|434:246,3,75
440,269,78268,6,0,P|378:238|294:257,1,150
245,329,78512,1,0,0:0:0:0:
224,350,78593,2,0,P|156:366|79:328,1,150
58,200,78917,2,0,L|52:107,1,75
191,113,79079,2,0,L|197:206,1,75
127,193,79241,2,0,L|121:100,1,75
258,103,79403,2,0,L|264:196,1,75
268,244,79566,6,0,L|274:345,3,75
374,258,79890,1,0,0:0:0:0:
395,218,79971,1,0,0:0:0:0:
387,173,80052,1,0,0:0:0:0:
353,142,80133,1,0,0:0:0:0:
308,133,80214,6,0,P|323:174|311:227,1,75
176,226,80376,2,0,P|168:269|131:308,1,75
250,190,80539,2,0,P|253:233|228:281,1,75
102,241,80701,2,0,P|81:279|34:306,1,75
21,211,80863,6,0,P|88:157|157:178,1,150
250,190,81106,1,0,0:0:0:0:
270,163,81187,2,0,L|458:156,1,150
316,38,81430,1,0,0:0:0:0:
299,61,81512,2,0,L|219:64,3,75
144,144,82160,5,0,0:0:0:0:
160,176,82241,1,0,0:0:0:0:
196,181,82322,5,0,0:0:0:0:
206,215,82403,1,0,0:0:0:0:
235,219,82485,5,0,0:0:0:0:
238,254,82566,1,0,0:0:0:0:
265,265,82647,5,0,0:0:0:0:
261,299,82728,1,0,0:0:0:0:
248,325,82809,5,0,0:0:0:0:
192,373,82890,5,0,0:0:0:0:
120,365,82971,5,0,0:0:0:0:
80,301,83052,5,0,0:0:0:0:
104,229,83133,5,0,0:0:0:0:
218,83,93187,5,0,0:0:0:0:
128,160,93349,1,0,0:0:0:0:
128,160,93430,1,0,0:0:0:0:
128,160,93512,2,0,B|176:152|288:120|299:71|277:23|216:-2|156:27|141:74|147:115|251:152|329:166,1,450.000017166138
392,232,93998,5,0,0:0:0:0:
384,264,94079,1,0,0:0:0:0:
376,296,94160,1,0,0:0:0:0:
264,264,94322,1,0,0:0:0:0:
256,296,94403,1,0,0:0:0:0:
248,328,94484,1,0,0:0:0:0:
344,184,94647,5,0,0:0:0:0:
424,352,94809,1,0,0:0:0:0:
432,320,94890,1,0,0:0:0:0:
440,288,94971,1,0,0:0:0:0:
448,256,95052,1,0,0:0:0:0:
456,224,95133,1,0,0:0:0:0:
424,232,95214,1,0,0:0:0:0:
392,240,95295,5,0,0:0:0:0:
400,208,95376,1,0,0:0:0:0:
408,176,95458,1,0,0:0:0:0:
376,184,95539,1,0,0:0:0:0:
344,192,95620,1,0,0:0:0:0:
312,200,95701,1,0,0:0:0:0:
280,208,95782,1,0,0:0:0:0:
248,216,95863,1,0,0:0:0:0:
216,224,95944,1,0,0:0:0:0:
184,232,96025,1,0,0:0:0:0:
200,200,96106,5,0,0:0:0:0:
256,64,96430,5,0,0:0:0:0:
424,304,96755,1,0,0:0:0:0:
88,304,97079,5,0,0:0:0:0:
176,184,97241,1,0,0:0:0:0:
256,304,97403,1,0,0:0:0:0:
424,304,97728,5,0,0:0:0:0:
336,184,97890,1,0,0:0:0:0:
88,304,98052,1,0,0:0:0:0:
176,184,98214,1,0,0:0:0:0:
256,304,98539,5,0,0:0:0:0:
256,64,98701,1,0,0:0:0:0:
256,64,99025,5,0,0:0:0:0:
176,184,99187,1,0,0:0:0:0:
144,192,99268,1,0,0:0:0:0:
112,184,99349,1,0,0:0:0:0:
336,184,99512,1,0,0:0:0:0:
368,192,99593,1,0,0:0:0:0:
400,184,99674,1,0,0:0:0:0:
272,112,99836,5,0,0:0:0:0:
232,120,99917,1,0,0:0:0:0:
192,112,99998,2,0,P|144:112|96:128,3,60
0,212,100322,6,0,P|58:204|102:220,3,60
211,246,100647,2,0,P|220:281|196:332,3,52.4999983978272
53,352,100971,2,0,P|30:356|8:354,3,44.999998626709
97,284,101295,2,0,P|127:281|166:292,3,37.5
217,296,101620,6,0,L|329:293,1,112.500004291535
80,184,102268,5,0,0:0:0:0:
88,176,102349,1,0,0:0:0:0:
96,168,102430,1,0,0:0:0:0:
104,160,102512,1,0,0:0:0:0:
112,152,102593,1,0,0:0:0:0:
120,144,102674,1,0,0:0:0:0:
128,136,102755,1,0,0:0:0:0:
136,128,102836,1,0,0:0:0:0:
176,128,102917,5,0,0:0:0:0:
160,144,102998,1,0,0:0:0:0:
144,160,103079,1,0,0:0:0:0:
128,176,103160,1,0,0:0:0:0:
112,192,103241,5,0,0:0:0:0:
128,192,103322,1,0,0:0:0:0:
144,192,103403,1,0,0:0:0:0:
160,192,103485,1,0,0:0:0:0:
176,192,103566,1,0,0:0:0:0:
192,192,103647,1,0,0:0:0:0:
208,192,103728,1,0,0:0:0:0:
224,192,103809,1,0,0:0:0:0:
240,192,103890,2,0,L|272:192,7,18.75
280,192,104214,6,0,P|336:296|376:104,1,450.000017166138
232,192,104863,6,0,P|176:296|136:104,1,450.000017166138
237,55,105512,6,0,B|237:119|237:191|237:191|237:231|221:255|197:271|173:279|141:271|117:255|101:239|93:207|93:207|93:167|93:63,1,450.000017166138
275,55,106160,6,0,B|275:119|275:191|275:191|275:231|291:255|315:271|339:279|371:271|395:255|411:239|419:207|419:207|419:167|419:63,1,450.000017166138
8,192,106809,6,0,P|64:168|117:193,1,120
120,208,107052,1,0,0:0:0:0:
125,222,107133,6,0,P|181:246|233:221,1,120
256,200,107376,1,0,0:0:0:0:
280,176,107458,6,0,P|336:151|389:176,1,120
392,192,107701,1,0,0:0:0:0:
397,206,107782,6,0,P|453:229|505:204,1,120
328,112,108106,6,0,L|264:120,1,60
160,136,108268,2,0,L|176:72,1,60
340,125,108430,6,0,L|276:122,1,60
171,120,108592,2,0,L|198:59,1,60
351,141,108755,6,0,L|288:127,1,60
184,106,108917,2,0,L|221:51,1,60
358,158,109079,6,0,L|298:133,1,60
200,95,109241,2,0,L|246:48,1,60
424,80,109403,6,0,L|416:160,3,60
432,336,109728,2,0,L|424:248,3,60
320,48,110052,6,0,L|312:128,3,60
320,368,110377,2,0,L|312:280,3,60
320,200,110701,5,0,0:0:0:0:
288,192,110782,1,0,0:0:0:0:
256,192,110863,1,0,0:0:0:0:
224,200,110944,1,0,0:0:0:0:
200,224,111025,5,0,0:0:0:0:
176,240,111106,1,0,0:0:0:0:
144,248,111187,1,0,0:0:0:0:
112,240,111268,1,0,0:0:0:0:
88,216,111349,5,0,0:0:0:0:
80,184,111430,1,0,0:0:0:0:
88,152,111512,1,0,0:0:0:0:
112,128,111593,1,0,0:0:0:0:
144,120,111674,5,0,0:0:0:0:
168,136,111755,1,0,0:0:0:0:
200,136,111836,1,0,0:0:0:0:
224,120,111917,1,0,0:0:0:0:
240,96,111998,6,0,L|304:80,1,60
392,152,112160,2,0,L|320:152,1,60
200,190,112322,6,0,L|265:185,1,60
443,80,112484,2,0,L|356:64,1,60
169,38,112647,6,0,L|234:44,1,60
426,212,112809,2,0,L|343:181,1,60
140,217,112971,6,0,L|203:235,1,60
451,56,113133,2,0,L|374:12,1,60
208,96,113295,6,0,L|296:112,3,60
384,176,113620,2,0,L|288:184,3,60
288,256,113944,6,0,L|376:248,1,60
232,208,114106,2,0,L|144:216,1,60
80,336,114268,6,0,L|72:248,1,60
72,72,114430,2,0,L|80:144,1,60
16,216,114593,6,0,L|184:200,1,120
135,204,114836,1,0,0:0:0:0:
135,204,114917,2,0,L|303:188,1,120
488,160,115241,6,0,L|320:176,1,120
368,171,115484,1,0,0:0:0:0:
368,171,115565,2,0,L|200:187,1,120
47,119,115890,6,0,P|103:79|183:119,1,120
124,271,116133,1,0,0:0:0:0:
124,271,116214,2,0,B|108:199|108:199|124:127,1,120
465,265,116539,6,0,P|409:305|329:265,1,120
388,113,116782,1,0,0:0:0:0:
388,113,116863,2,0,B|404:185|404:185|388:257,1,120
184,312,117187,5,0,0:0:0:0:
104,224,117349,1,0,0:0:0:0:
184,312,117512,1,0,0:0:0:0:
200,168,117674,1,0,0:0:0:0:
184,312,117836,1,0,0:0:0:0:
296,128,117998,1,0,0:0:0:0:
184,312,118160,1,0,0:0:0:0:
408,96,118322,1,0,0:0:0:0:
328,312,118485,5,0,0:0:0:0:
104,96,118647,1,0,0:0:0:0:
328,312,118809,1,0,0:0:0:0:
216,128,118971,1,0,0:0:0:0:
328,312,119133,1,0,0:0:0:0:
312,168,119295,1,0,0:0:0:0:
328,312,119458,1,0,0:0:0:0:
408,224,119620,1,0,0:0:0:0:
432,32,119782,6,0,P|464:88|424:128,1,120
333,84,120025,1,0,0:0:0:0:
333,84,120106,2,0,L|325:220,1,120
408,320,120430,6,0,P|352:296|280:320,1,120
224,352,120674,1,0,0:0:0:0:
224,352,120755,2,0,P|248:288|200:232,1,120
152,272,121079,6,0,L|72:272,3,60
48,272,121403,6,0,P|0:216|24:136,1,120
96,192,121647,1,0,0:0:0:0:
96,192,121728,2,0,P|168:178|225:239,1,120
136,264,121971,1,0,0:0:0:0:
136,264,122052,2,0,P|111:333|30:352,1,120
48,272,122376,6,0,L|128:256,1,60
96,232,122539,6,0,L|37:234,1,60
33,196,122701,6,0,L|113:208,1,60
91,175,122863,6,0,L|35:157,1,60
40,128,123025,6,0,L|111:167,1,60
101,129,123187,6,0,L|55:92,1,60
77,60,123349,6,0,L|130:121,1,60
135,83,123512,6,0,L|104:32,1,60,0|0,2:0|2:0,2:0:0:0:
106,260,123674,6,0,L|176:248,1,44.999998626709
140,232,123836,6,0,L|96:232,1,44.999998626709
91,204,123998,6,0,L|161:217,1,44.999998626709
134,190,124160,6,0,L|92:175,1,44.999998626709
97,147,124322,6,0,L|158:183,1,44.999998626709
141,149,124485,6,0,L|107:120,1,44.999998626709
122,96,124647,6,0,L|167:150,1,44.999998626709
162,112,124809,6,0,L|140:74,1,44.999998626709
163,57,124971,5,0,0:0:0:0:
144,200,125295,6,0,L|400:184,1,225.000008583069
368,200,125944,6,0,L|112:184,1,225.000008583069
248,304,126593,6,0,L|264:72,1,225.000008583069
248,80,127241,6,0,L|272:320,1,225.000008583069
328,176,127890,6,0,P|248:136|256:280,1,225.000008583069
195,235,128539,6,0,P|275:275|267:131,1,225.000008583069
328,176,129187,6,0,P|248:136|256:280,1,225.000008583069
195,235,129836,6,0,P|275:275|267:131,1,225.000008583069
256,192,132755,12,0,133728,0:0:0:0:
119,117,134052,5,0,0:0:0:0:
111,149,134133,1,0,0:0:0:0:
130,176,134214,5,0,0:0:0:0:
122,208,134295,1,0,0:0:0:0:
144,232,134376,5,0,0:0:0:0:
136,264,134457,1,0,0:0:0:0:
160,312,134539,5,0,0:0:0:0:
152,344,134620,1,0,0:0:0:0:
64,368,134701,5,0,0:0:0:0:
16,304,134782,5,0,0:0:0:0:
64,240,134863,5,0,0:0:0:0:
136,264,134944,5,0,0:0:0:0:
136,344,135025,5,0,0:0:0:0:
64,368,135187,6,0,P|40:272|160:304,1,240
97,313,135593,1,0,0:0:0:0:
97,313,135674,2,0,L|87:130,1,150
8,121,135917,5,0,0:0:0:0:
8,121,135998,2,0,P|-8:166|25:205,1,89.9999972534181
171,189,136241,5,0,0:0:0:0:
171,189,136322,2,0,P|183:141|145:105,1,89.9999972534181
40,48,136647,6,0,L|152:40,1,89.9999972534181
249,121,136971,2,0,L|144:121,1,104.999996795654
264,34,137295,2,0,L|368:42,1,60
438,10,137458,6,0,B|358:18|430:98|430:98|326:170|430:266|566:146,1,300
460,201,137782,6,0,P|380:185|396:305,1,240
391,303,138187,1,0,0:0:0:0:
391,303,138268,2,0,B|335:311|335:311|263:295,1,120
273,297,138512,1,0,0:0:0:0:
273,297,138593,6,0,P|220:272|167:297,1,120
167,297,138836,1,0,0:0:0:0:
167,297,138917,2,0,B|159:241|159:241|175:169,1,120
329,100,139241,5,0,0:0:0:0:
373,19,139403,1,0,0:0:0:0:
136,136,139566,5,0,0:0:0:0:
107,55,139728,1,0,0:0:0:0:
338,200,139890,5,0,0:0:0:0:
391,303,140052,1,0,0:0:0:0:
132,234,140215,5,0,0:0:0:0:
95,346,140376,2,0,P|103:290|215:290,1,179.999994506836
265,327,140782,1,0,0:0:0:0:
265,327,140863,2,0,B|345:335|345:335|329:287,1,120
132,234,141187,2,0,B|52:226|52:226|68:274,1,120
192,328,141430,1,0,0:0:0:0:
192,328,141512,2,0,P|232:280|176:240,1,120
145,152,141755,1,0,0:0:0:0:
145,152,141836,6,0,P|209:152|257:56,1,150
258,88,142079,1,0,0:0:0:0:
258,88,142160,2,0,P|280:143|320:31,1,300
327,31,142647,6,0,B|269:34|269:34|238:64|238:64|363:62,2,225.000008583069
136,208,143133,1,0,0:0:0:0:
168,200,143214,1,0,0:0:0:0:
200,208,143295,1,0,0:0:0:0:
232,232,143376,1,0,0:0:0:0:
248,264,143458,2,0,B|395:256,1,120
367,257,143782,5,0,0:0:0:0:
392,226,143863,1,0,0:0:0:0:
400,194,143944,1,0,0:0:0:0:
392,162,144025,1,0,0:0:0:0:
368,130,144106,1,0,0:0:0:0:
368,130,144268,6,0,P|258:171|154:99,1,224.999993133545
251,33,144755,6,0,P|259:97|235:129,1,60
103,163,144917,2,0,P|95:99|119:67,1,60
115,21,145079,2,0,P|179:12|210:36,1,60
242,177,145241,2,0,P|186:185|154:161,1,60
161,81,145403,2,0,P|224:105|150:112,1,179.999994506836
144,241,145890,5,0,0:0:0:0:
132,277,145971,1,0,0:0:0:0:
118,313,146052,1,0,0:0:0:0:
18,229,146214,5,0,0:0:0:0:
35,184,146295,1,0,0:0:0:0:
50,138,146376,1,0,0:0:0:0:
122,41,146539,5,0,0:0:0:0:
188,51,146620,1,0,0:0:0:0:
254,62,146701,1,0,0:0:0:0:
320,71,146782,1,0,0:0:0:0:
386,81,146863,5,0,0:0:0:0:
390,96,146944,1,0,0:0:0:0:
389,109,147025,1,0,0:0:0:0:
387,122,147106,1,0,0:0:0:0:
360,147,147187,5,0,0:0:0:0:
363,216,147268,1,0,0:0:0:0:
379,290,147349,5,0,0:0:0:0:
398,308,147430,1,0,0:0:0:0:
398,308,147511,1,0,0:0:0:0:
401,318,147593,1,0,0:0:0:0:
333,350,147674,5,0,0:0:0:0:
254,350,147755,1,0,0:0:0:0:
175,350,147836,1,0,0:0:0:0:
256,192,147998,6,0,B|311:192|311:192|242:191,1,112.500004291535
144,192,148322,5,0,0:0:0:0:
368,192,148647,1,0,0:0:0:0:
120,192,148971,5,0,0:0:0:0:
392,192,149133,1,0,0:0:0:0:
120,192,149295,1,0,0:0:0:0:
424,192,149620,5,0,0:0:0:0:
88,192,149782,1,0,0:0:0:0:
424,192,149944,1,0,0:0:0:0:
88,192,150106,1,0,0:0:0:0:
456,192,150430,5,0,0:0:0:0:
56,192,150593,1,0,0:0:0:0:
256,320,151079,6,0,B|256:376|256:376|256:312,1,112.500004291535
256,64,151403,6,0,B|256:8|256:8|256:72,1,112.500004291535
256,216,151728,5,0,0:0:0:0:
256,240,151809,5,0,0:0:0:0:
256,264,151890,5,0,0:0:0:0:
256,288,151971,5,0,0:0:0:0:
256,312,152052,6,0,B|256:368|256:368|256:304,1,112.500004291535
256,80,152376,5,0,0:0:0:0:
256,56,152457,5,0,0:0:0:0:
256,32,152538,5,0,0:0:0:0:
256,192,152701,5,0,0:0:0:0:
256,304,152863,5,0,0:0:0:0:
256,328,152944,5,0,0:0:0:0:
256,352,153025,5,0,0:0:0:0:
256,192,153187,6,0,B|256:136|256:136|256:200,1,112.500004291535
256,192,153512,5,0,0:0:0:0:
424,200,154160,5,0,0:0:0:0:
416,200,154241,1,0,0:0:0:0:
406,201,154322,1,0,0:0:0:0:
400,200,154403,1,0,0:0:0:0:
390,185,154484,5,0,0:0:0:0:
382,185,154565,1,0,0:0:0:0:
374,185,154646,1,0,0:0:0:0:
366,185,154727,1,0,0:0:0:0:
342,201,154808,5,0,0:0:0:0:
326,201,154890,1,0,0:0:0:0:
310,201,154971,1,0,0:0:0:0:
294,201,155052,1,0,0:0:0:0:
262,185,155133,5,0,0:0:0:0:
246,185,155214,1,0,0:0:0:0:
230,185,155295,1,0,0:0:0:0:
214,185,155376,1,0,0:0:0:0:
190,201,155457,5,0,0:0:0:0:
166,201,155538,1,0,0:0:0:0:
142,201,155619,1,0,0:0:0:0:
118,201,155700,1,0,0:0:0:0:
83,185,155782,6,0,L|51:185,7,30
0,192,156106,6,0,B|34:227|70:245|113:254|156:241|191:216|221:181|250:156|285:137|340:138|386:158|412:193|435:210,1,450.000017166138
411,190,156755,6,0,B|377:225|341:243|298:252|255:239|220:214|190:179|161:154|126:135|71:136|25:156|-16:218|0:188,1,450.000017166138
128,288,157403,6,0,B|96:128|128:32|128:32|192:64|224:128|224:128|160:160,1,450.000017166138
384,288,158052,6,0,B|416:128|384:32|384:32|320:64|288:128|288:128|352:160,1,450.000017166138
120,152,158701,5,0,0:0:0:0:
128,136,158782,1,0,0:0:0:0:
136,120,158863,1,0,0:0:0:0:
144,104,158944,1,0,0:0:0:0:
152,88,159025,6,0,L|248:112,3,60
272,32,159349,6,0,L|343:100,3,60
408,56,159674,6,0,L|435:151,3,60
440,200,159998,6,0,L|352:208,1,60
288,200,160160,2,0,L|376:192,1,60
435,231,160322,6,0,L|347:224,1,60
286,205,160484,2,0,L|374:212,1,60
426,262,160647,6,0,L|340:239,1,60
283,210,160809,2,0,L|368:233,1,60
411,290,160971,6,0,L|331:253,1,60
279,214,161133,2,0,L|359:252,1,60
389,316,161295,5,0,0:0:0:0:
412,290,161376,1,0,0:0:0:0:
426,264,161458,1,0,0:0:0:0:
436,232,161539,1,0,0:0:0:0:
440,200,161620,1,0,0:0:0:0:
434,165,161701,1,0,0:0:0:0:
423,138,161783,1,0,0:0:0:0:
405,110,161864,1,0,0:0:0:0:
375,130,161944,5,0,0:0:0:0:
340,141,162025,1,0,0:0:0:0:
304,142,162106,1,0,0:0:0:0:
269,133,162187,1,0,0:0:0:0:
235,119,162268,1,0,0:0:0:0:
199,111,162349,1,0,0:0:0:0:
163,113,162430,1,0,0:0:0:0:
128,124,162512,1,0,0:0:0:0:
96,144,162593,6,0,L|88:72,3,60
112,256,162917,2,0,L|104:328,3,60
224,88,163241,6,0,L|232:16,3,60
240,296,163566,2,0,L|248:376,3,60
184,192,163890,5,0,0:0:0:0:
216,184,163971,1,0,0:0:0:0:
248,184,164052,1,0,0:0:0:0:
280,192,164133,1,0,0:0:0:0:
312,208,164214,5,0,0:0:0:0:
344,216,164295,1,0,0:0:0:0:
376,216,164376,1,0,0:0:0:0:
408,208,164458,1,0,0:0:0:0:
442,183,164539,5,0,0:0:0:0:
426,221,164620,1,0,0:0:0:0:
425,262,164701,1,0,0:0:0:0:
431,303,164782,1,0,0:0:0:0:
421,343,164863,5,0,0:0:0:0:
389,370,164944,1,0,0:0:0:0:
347,375,165025,1,0,0:0:0:0:
305,367,165106,1,0,0:0:0:0:
274,343,165187,5,0,0:0:0:0:
277,322,165268,1,0,0:0:0:0:
279,298,165349,1,0,0:0:0:0:
282,274,165430,1,0,0:0:0:0:
285,244,165512,5,0,0:0:0:0:
288,223,165593,1,0,0:0:0:0:
290,199,165674,1,0,0:0:0:0:
293,175,165755,1,0,0:0:0:0:
250,199,165836,5,0,0:0:0:0:
202,207,165917,1,0,0:0:0:0:
154,199,165998,1,0,0:0:0:0:
114,167,166079,1,0,0:0:0:0:
159,156,166160,5,0,0:0:0:0:
191,116,166241,1,0,0:0:0:0:
183,68,166322,1,0,0:0:0:0:
143,36,166403,1,0,0:0:0:0:
92,30,166485,6,0,B|34:44|23:89|23:89|34:133|79:149,1,180
111,162,166809,2,0,L|119:250,3,60
288,144,167133,6,0,B|325:185|381:162|381:162|421:135|468:169,1,180
477,145,167458,2,0,L|487:76,3,60
92,206,167782,6,0,P|148:262|196:254,1,120
264,216,168025,1,0,0:0:0:0:
264,216,168106,2,0,L|272:347,1,120
436,226,168430,6,0,P|380:170|332:178,1,120
264,216,168673,1,0,0:0:0:0:
264,216,168754,2,0,L|256:85,1,120
216,312,169079,5,0,0:0:0:0:
312,280,169241,1,0,0:0:0:0:
326,298,169403,1,0,0:0:0:0:
171,228,169566,1,0,0:0:0:0:
128,286,169728,1,0,0:0:0:0:
377,196,169890,1,0,0:0:0:0:
425,280,170052,1,0,0:0:0:0:
193,62,170214,1,0,0:0:0:0:
319,62,170376,5,0,0:0:0:0:
87,280,170538,1,0,0:0:0:0:
135,196,170700,1,0,0:0:0:0:
384,286,170862,1,0,0:0:0:0:
341,228,171024,1,0,0:0:0:0:
186,298,171187,1,0,0:0:0:0:
200,280,171349,1,0,0:0:0:0:
296,312,171511,1,0,0:0:0:0:
160,144,171674,6,0,B|240:136|264:72|264:72|224:64|184:88,1,180
160,144,171998,2,0,B|126:217|170:270|170:270|197:239|196:192,1,180
160,144,172323,2,0,B|113:78|45:89|45:89|58:128|99:151,1,180
69,128,172647,6,0,P|120:168|88:216,1,120
102,207,172971,6,0,B|182:199|206:135|206:135|166:127|126:151,1,180
128,50,173295,2,0,B|94:123|138:176|138:176|165:145|164:98,1,180
250,151,173620,2,0,B|203:85|135:96|135:96|148:135|189:158,1,180
157,134,173944,6,0,P|200:192|160:256,1,120
176,304,174268,6,0,L|248:312,1,60
267,310,174430,6,0,L|208:320,1,60
243,328,174592,6,0,L|310:299,1,60
326,289,174754,6,0,L|279:327,1,60
313,317,174916,6,0,L|356:258,1,60
365,241,175078,6,0,L|344:298,1,60
368,271,175241,6,0,L|376:199,1,60
375,180,175403,6,0,L|385:240,1,60
432,144,175565,5,0,0:0:0:0:
392,72,175727,1,0,0:0:0:0:
312,24,175889,1,0,0:0:0:0:
208,32,176051,1,0,0:0:0:0:
115,99,176214,5,0,0:0:0:0:
105,106,176295,1,0,0:0:0:0:
96,114,176376,1,0,0:0:0:0:
87,122,176458,1,0,0:0:0:0:
79,131,176539,1,0,0:0:0:0:
72,140,176620,1,0,0:0:0:0:
64,152,176701,6,0,B|118:187|126:243|14:267,1,150
46,258,176863,6,0,P|94:226|158:242,1,120
144,336,177106,1,0,0:0:0:0:
144,336,177188,2,0,L|280:328,1,120
432,272,177512,6,0,B|448:312|440:344|440:344|392:296,1,120
320,240,177755,1,0,0:0:0:0:
320,240,177836,2,0,B|304:200|312:167|312:167|360:216,1,120
328,320,178160,6,0,B|262:311|262:311|214:327|214:327|151:317,1,180
151,317,178485,2,0,P|127:229|223:221,1,180
269,228,178809,2,0,B|306:238|306:238|306:126,1,120
417,46,179134,6,0,P|421:10|449:55,1,112.500004291535
96,304,179458,5,0,0:0:0:0:
64,176,179620,1,0,0:0:0:0:
56,144,179701,1,0,0:0:0:0:
48,112,179782,2,0,P|112:136|160:96,1,120
104,47,180025,1,0,0:0:0:0:
104,47,180106,2,0,P|168:23|216:63,1,120
280,88,180350,1,0,0:0:0:0:
280,88,180431,2,0,B|336:72|336:72|424:104,1,120
416,224,180755,6,0,P|384:232|336:216,1,60
296,128,180917,2,0,P|328:119|375:135,1,60
224,224,181079,2,0,B|160:240|112:208|112:208|24:264|-24:184,1,240
44,44,181728,6,0,P|52:-4|76:44,1,112.500004291535
256,320,182214,6,0,B|256:376|256:376|256:272,1,112.500004291535
256,64,182539,6,0,B|256:8|256:8|256:112,1,112.500004291535
255,224,182863,5,0,0:0:0:0:
256,248,182944,5,0,0:0:0:0:
256,272,183025,5,0,0:0:0:0:
255,296,183106,5,0,0:0:0:0:
256,320,183188,6,0,B|256:376|256:376|256:272,1,112.500004291535
256,112,183512,5,0,0:0:0:0:
256,80,183593,5,0,0:0:0:0:
255,47,183674,5,0,0:0:0:0:
256,192,183836,5,0,0:0:0:0:
256,272,183998,5,0,0:0:0:0:
256,304,184079,5,0,0:0:0:0:
256,336,184160,5,0,0:0:0:0:
256,192,184323,6,0,B|255:248|255:248|255:144,1,112.500004291535
256,112,184647,5,0,0:0:0:0:
256,192,184809,5,0,0:0:0:0:
256,112,185134,5,0,0:0:0:0:
255,135,185215,5,0,0:0:0:0:
256,160,185296,5,0,0:0:0:0:
255,183,185377,5,0,0:0:0:0:
256,208,185458,5,0,0:0:0:0:
256,240,185539,5,0,0:0:0:0:
256,312,185620,5,0,0:0:0:0:
256,192,185782,6,0,B|255:248|255:248|255:144,1,112.500004291535
256,112,186106,5,0,0:0:0:0:
256,80,186188,5,0,0:0:0:0:
255,47,186269,5,0,0:0:0:0:
255,183,186431,5,0,0:0:0:0:
256,272,186593,5,0,0:0:0:0:
256,304,186675,5,0,0:0:0:0:
257,337,186756,5,0,0:0:0:0:
256,192,186917,6,0,B|255:248|255:248|255:144,1,112.500004291535
256,80,187079,6,0,L|256:216,1,112.500004291535
200,280,187241,5,0,0:0:0:0:
224,296,187322,1,0,0:0:0:0:
256,304,187403,1,0,0:0:0:0:
288,296,187484,1,0,0:0:0:0:
312,280,187565,1,0,0:0:0:0:
256,192,187727,5,0,0:0:0:0:
312,104,187890,5,0,0:0:0:0:
288,88,187971,1,0,0:0:0:0:
256,80,188052,1,0,0:0:0:0:
224,88,188133,1,0,0:0:0:0:
200,104,188214,1,0,0:0:0:0:
128,192,188376,5,0,0:0:0:0:
384,192,188538,2,0,L|448:192,3,60
312,280,188862,6,0,P|248:296|176:264,1,120
200,104,189187,6,0,P|257:88|314:104,1,120
432,192,189512,6,0,L|304:192,1,112.500004291535
67,25,189836,5,0,0:0:0:0:
98,8,189917,1,0,0:0:0:0:
133,1,189998,1,0,0:0:0:0:
168,8,190079,1,0,0:0:0:0:
195,25,190160,1,0,0:0:0:0:
90,227,190322,2,0,L|66:323,2,60
129,92,190646,1,0,0:0:0:0:
121,124,190727,1,0,0:0:0:0:
113,156,190808,1,0,0:0:0:0:
53,358,190970,1,0,0:0:0:0:
380,307,191133,6,0,L|439:314,1,60
403,226,191295,2,0,L|462:233,1,60
376,144,191457,2,0,P|308:170|242:138,1,150
200,64,191781,2,0,L|216:200,1,120
61,338,192106,6,0,P|46:380|23:341,1,112.500004291535
112,192,192593,6,0,P|120:168|80:192,1,112.500004291535
112,192,192917,6,0,P|135:230|148:187,1,112.500004291535
288,192,193241,5,0,0:0:0:0:
312,192,193322,5,0,0:0:0:0:
336,192,193403,5,0,0:0:0:0:
360,192,193484,5,0,0:0:0:0:
384,192,193566,6,0,B|440:192|440:192|336:192,1,112.500004291535
176,192,193890,5,0,0:0:0:0:
144,192,193971,5,0,0:0:0:0:
112,192,194052,5,0,0:0:0:0:
256,192,194214,5,0,0:0:0:0:
336,192,194376,5,0,0:0:0:0:
368,192,194457,5,0,0:0:0:0:
400,192,194538,5,0,0:0:0:0:
472,192,194701,6,0,B|528:192|528:192|424:192,1,112.500004291535
368,192,195025,5,0,0:0:0:0:
368,192,195187,1,0,0:0:0:0:
248,192,195349,1,0,0:0:0:0:
248,192,195511,1,0,0:0:0:0:
128,192,195674,1,0,0:0:0:0:
128,192,195836,1,0,0:0:0:0:
8,192,195998,1,0,0:0:0:0:
8,192,196160,1,0,0:0:0:0:
80,192,196322,5,0,0:0:0:0:
96,192,196403,1,0,0:0:0:0:
112,192,196485,1,0,0:0:0:0:
128,192,196566,1,0,0:0:0:0:
144,192,196647,1,0,0:0:0:0:
160,192,196728,1,0,0:0:0:0:
176,192,196809,1,0,0:0:0:0:
192,192,196890,1,0,0:0:0:0:
208,192,196971,1,0,0:0:0:0:
224,192,197052,1,0,0:0:0:0:
240,192,197133,1,0,0:0:0:0:
256,192,197214,1,0,0:0:0:0:
272,192,197295,1,0,0:0:0:0:
288,192,197376,1,0,0:0:0:0:
352,192,197458,6,0,L|64:192,1,225.000008583069
160,48,197944,5,0,0:0:0:0:
272,192,198268,1,0,0:0:0:0:
339,127,198430,1,0,0:0:0:0:
272,64,198593,1,0,0:0:0:0:
272,192,198755,2,0,P|344:240|408:184,1,179.999994506836
339,127,199241,1,0,0:0:0:0:
72,320,199566,5,0,0:0:0:0:
208,320,199728,2,0,P|227:253|120:272,2,179.999994506836
72,320,200214,1,0,0:0:0:0:
120,56,200539,1,0,0:0:0:0:
176,320,200863,2,0,P|208:248|160:184,1,150
174,191,201349,5,0,0:0:0:0:
338,191,201512,1,0,0:0:0:0:
215,120,201674,1,0,0:0:0:0:
297,262,201837,1,0,0:0:0:0:
297,121,201998,1,0,0:0:0:0:
215,263,202161,1,0,0:0:0:0:
338,191,202322,6,0,B|392:192|392:192|280:192,1,112.500004291535
174,191,202485,2,0,B|120:192|120:192|232:192,1,112.500004291535
112,64,202809,5,0,0:0:0:0:
48,296,203133,1,0,0:0:0:0:
48,296,203458,1,0,0:0:0:0:
128,208,203620,1,0,0:0:0:0:
168,320,203782,1,0,0:0:0:0:
48,296,203944,1,0,0:0:0:0:
312,56,204430,5,0,0:0:0:0:
432,264,204755,1,0,0:0:0:0:
328,320,204917,1,0,0:0:0:0:
432,264,205079,1,0,0:0:0:0:
328,200,205241,1,0,0:0:0:0:
80,264,205403,5,0,0:0:0:0:
152,32,205728,1,0,0:0:0:0:
328,200,206052,1,0,0:0:0:0:
80,264,206214,1,0,0:0:0:0:
152,32,206539,5,0,0:0:0:0:
168,104,206701,1,0,0:0:0:0:
170,112,206782,1,0,0:0:0:0:
171,120,206863,1,0,0:0:0:0:
172,128,206944,1,0,0:0:0:0:
174,136,207025,1,0,0:0:0:0:
175,144,207106,1,0,0:0:0:0:
177,152,207187,1,0,0:0:0:0:
178,159,207268,1,0,0:0:0:0:
179,167,207349,1,0,0:0:0:0:
181,175,207430,1,0,0:0:0:0:
182,183,207512,1,0,0:0:0:0:
184,191,207593,1,0,0:0:0:0:
185,199,207674,1,0,0:0:0:0:
186,207,207755,1,0,0:0:0:0:
188,215,207836,1,0,0:0:0:0:
189,222,207917,1,0,0:0:0:0:
253,245,207998,6,0,P|192:295|126:225,1,150
254,165,208241,1,0,0:0:0:0:
254,165,208322,6,0,P|327:192|300:284,1,150
207,324,208566,1,0,0:0:0:0:
212,354,208647,2,0,P|252:362|300:338,1,75
379,347,208809,2,0,P|405:316|409:262,1,75,0|0,0:0|0:0,3:0:0:0:
452,191,208971,2,0,P|438:152|394:122,1,75,0|0,0:0|0:0,3:0:0:0:
289,107,209133,6,0,P|260:187|308:259,1,150
308,267,209376,1,0,0:0:0:0:
340,291,209458,2,0,L|164:267,1,150
154,265,209701,1,0,0:0:0:0:
117,258,209782,1,0,0:0:0:0:
23,330,209944,5,0,0:0:0:0:
4,297,210025,1,0,0:0:0:0:
0,259,210106,1,0,0:0:0:0:
6,222,210187,1,0,0:0:0:0:
19,186,210268,2,0,L|93:179,1,75
114,201,210430,2,0,L|188:194,1,75
210,214,210593,6,0,L|333:202,1,104.999996795654
452,191,210836,1,0,0:0:0:0:
452,191,210917,2,0,L|329:203,1,104.999996795654
366,328,211241,5,0,0:0:0:0:
366,320,211322,1,0,0:0:0:0:
367,312,211403,2,0,L|383:217,1,52.4999983978272
375,260,211728,2,0,L|281:279,1,60
249,267,211890,6,0,L|265:179,1,60
224,261,212052,2,0,L|262:180,1,60
202,250,212214,2,0,L|259:181,1,60
183,233,212376,2,0,L|257:182,1,60
172,213,212539,2,0,L|256:182,1,60
178,128,212701,6,0,P|238:106|320:149,1,112.500004291535
359,151,212863,2,0,L|469:141,1,89.9999972534181
178,128,213187,6,0,B|165:155|129:164|129:164|94:166|42:140,1,120
5,93,213430,1,0,0:0:0:0:
42,73,213512,2,0,P|50:137|18:193,1,120
129,315,213836,2,0,L|233:307,1,60
196,262,213998,2,0,L|137:267,1,60
145,227,214160,2,0,L|249:219,1,60
322,124,214322,6,0,P|258:108|203:157,1,120
190,151,214566,1,0,0:0:0:0:
161,154,214647,1,0,0:0:0:0:
132,151,214728,1,0,0:0:0:0:
104,140,214809,2,0,P|81:201|106:259,1,120
183,309,215052,5,0,0:0:0:0:
183,309,215133,2,0,L|107:346,1,60
239,328,215295,2,0,L|273:279,1,60
350,231,215458,2,0,L|338:305,1,60
424,212,215620,2,0,L|403:157,1,60
502,273,215782,6,0,P|433:313|378:270,1,120
258,293,216025,1,0,0:0:0:0:
239,328,216106,2,0,L|108:339,1,120
6,274,216349,1,0,0:0:0:0:
25,245,216430,2,0,L|118:240,3,60
280,178,217079,5,0,0:0:0:0:
242,168,217160,1,0,0:0:0:0:
232,205,217241,1,0,0:0:0:0:
270,215,217322,1,0,0:0:0:0:
284,191,217403,5,0,0:0:0:0:
256,164,217485,1,0,0:0:0:0:
228,192,217566,1,0,0:0:0:0:
256,219,217647,1,0,0:0:0:0:
256,192,217728,5,0,0:0:0:0:
256,192,217809,1,0,0:0:0:0:
256,192,217890,1,0,0:0:0:0:
256,192,217971,1,0,0:0:0:0:
256,192,218052,6,0,P|378:121|295:249,1,389.999982147218
146,205,218539,5,0,0:0:0:0:
152,240,218620,1,0,0:0:0:0:
145,275,218701,1,0,0:0:0:0:
30,319,218863,1,0,0:0:0:0:
24,284,218944,1,0,0:0:0:0:
31,249,219025,1,0,0:0:0:0:
128,360,219188,5,0,0:0:0:0:
249,332,219350,1,0,0:0:0:0:
273,305,219431,1,0,0:0:0:0:
283,270,219512,1,0,0:0:0:0:
287,234,219593,1,0,0:0:0:0:
281,198,219674,1,0,0:0:0:0:
266,164,219755,1,0,0:0:0:0:
237,186,219836,5,0,0:0:0:0:
203,211,219917,1,0,0:0:0:0:
161,211,219998,1,0,0:0:0:0:
127,186,220079,1,0,0:0:0:0:
114,147,220160,1,0,0:0:0:0:
127,107,220241,1,0,0:0:0:0:
161,82,220322,1,0,0:0:0:0:
203,82,220403,1,0,0:0:0:0:
237,107,220485,1,0,0:0:0:0:
250,147,220566,1,0,0:0:0:0:
183,145,220647,5,0,0:0:0:0:
256,64,220971,5,0,0:0:0:0:
424,304,221296,1,0,0:0:0:0:
424,304,221620,5,0,0:0:0:0:
279,253,221782,1,0,0:0:0:0:
395,161,221944,1,0,0:0:0:0:
395,161,222269,5,0,0:0:0:0:
279,253,222431,1,0,0:0:0:0:
48,340,222593,1,0,0:0:0:0:
164,248,222755,1,0,0:0:0:0:
164,248,223080,5,0,0:0:0:0:
48,44,223241,1,0,0:0:0:0:
90,260,223566,5,0,0:0:0:0:
83,281,223647,1,0,0:0:0:0:
75,302,223728,1,0,0:0:0:0:
69,149,223890,5,0,0:0:0:0:
62,170,223971,1,0,0:0:0:0:
54,191,224052,1,0,0:0:0:0:
160,67,224214,5,0,0:0:0:0:
153,88,224295,1,0,0:0:0:0:
145,109,224376,1,0,0:0:0:0:
137,130,224458,1,0,0:0:0:0:
126,162,224539,5,0,0:0:0:0:
157,149,224620,1,0,0:0:0:0:
190,152,224701,1,0,0:0:0:0:
220,165,224782,1,0,0:0:0:0:
240,192,224863,5,0,0:0:0:0:
214,229,224944,1,0,0:0:0:0:
219,273,225025,1,0,0:0:0:0:
246,308,225106,1,0,0:0:0:0:
289,320,225187,5,0,0:0:0:0:
294,298,225268,1,0,0:0:0:0:
299,276,225349,1,0,0:0:0:0:
304,254,225430,1,0,0:0:0:0:
315,254,225512,5,0,0:0:0:0:
326,254,225593,1,0,0:0:0:0:
337,254,225674,1,0,0:0:0:0:
348,254,225755,1,0,0:0:0:0:
359,254,225836,5,0,0:0:0:0:
370,254,225917,1,0,0:0:0:0:
381,254,225998,1,0,0:0:0:0:
392,254,226079,1,0,0:0:0:0:
414,254,226160,6,0,P|440:135|508:208,1,262.5
445,199,226809,5,0,0:0:0:0:
437,199,226890,1,0,0:0:0:0:
427,200,226971,1,0,0:0:0:0:
421,199,227052,1,0,0:0:0:0:
411,184,227133,5,0,0:0:0:0:
403,184,227214,1,0,0:0:0:0:
395,184,227295,1,0,0:0:0:0:
387,184,227376,1,0,0:0:0:0:
363,200,227457,5,0,0:0:0:0:
347,200,227539,1,0,0:0:0:0:
331,200,227620,1,0,0:0:0:0:
315,200,227701,1,0,0:0:0:0:
283,184,227782,5,0,0:0:0:0:
267,184,227863,1,0,0:0:0:0:
251,184,227944,1,0,0:0:0:0:
235,184,228025,1,0,0:0:0:0:
211,200,228106,5,0,0:0:0:0:
187,200,228187,1,0,0:0:0:0:
163,200,228268,1,0,0:0:0:0:
139,200,228349,1,0,0:0:0:0:
104,184,228430,6,0,L|24:184,39,75
160,78,231025,6,0,B|208:46|208:46|256:78|256:78|304:46|304:46|359:86|359:86|416:134,1,225.000008583069
224,136,231349,6,0,B|215:71|140:54|84:97|61:160|84:218|127:244|224:200|224:200|232:232|200:280|160:296|116:335,1,450.000017166138
288,136,231998,6,0,B|297:71|372:54|428:97|451:160|428:218|385:244|288:200|288:200|280:232|312:280|352:296|396:335,1,450.000017166138
96,192,232647,6,0,B|159:283|159:283|255:219|255:219|351:283|351:283|416:181,1,450.000017166138
409,191,233295,6,0,B|346:100|346:100|250:164|250:164|154:100|154:100|89:202,1,450.000017166138
200,40,233944,6,0,P|232:96|200:168,1,120
288,200,234187,1,0,0:0:0:0:
288,200,234268,2,0,P|232:232|160:200,1,120
128,280,234512,1,0,0:0:0:0:
128,280,234593,2,0,P|96:224|128:152,1,120
40,120,234836,1,0,0:0:0:0:
40,120,234917,2,0,P|96:88|168:120,1,120
276,45,235241,6,0,L|288:104,1,60
320,176,235403,2,0,L|308:117,1,60
340,189,235566,2,0,L|352:248,1,60
384,320,235728,2,0,L|368:240,1,60
245,287,235890,6,0,L|330:321,1,60
230,305,236052,2,0,L|174:286,1,60
96,278,236215,2,0,L|173:304,1,60
73,289,236377,2,0,L|17:270,1,60
56,152,236539,6,0,P|52:106|65:65,3,60
176,136,236863,2,0,P|221:132|262:145,3,60
192,256,237187,2,0,P|195:301|182:342,3,60
72,272,237511,2,0,P|26:275|-14:262,3,60
56,152,237836,5,0,0:0:0:0:
80,136,237917,1,0,0:0:0:0:
112,128,237998,1,0,0:0:0:0:
144,128,238079,1,0,0:0:0:0:
169,143,238160,5,0,0:0:0:0:
197,151,238241,1,0,0:0:0:0:
226,151,238322,1,0,0:0:0:0:
255,145,238403,1,0,0:0:0:0:
276,115,238485,5,0,0:0:0:0:
308,100,238566,1,0,0:0:0:0:
343,103,238647,1,0,0:0:0:0:
372,123,238728,1,0,0:0:0:0:
383,157,238809,5,0,0:0:0:0:
378,192,238890,1,0,0:0:0:0:
355,220,238971,1,0,0:0:0:0:
321,233,239052,1,0,0:0:0:0:
279,221,239133,6,0,L|304:294,1,60
223,309,239295,2,0,L|165:321,1,60
278,160,239458,6,0,L|321:224,1,60
246,258,239620,2,0,L|193:286,1,60
253,99,239782,6,0,L|311:149,1,60
247,203,239944,2,0,L|203:243,1,60
208,44,240106,6,0,L|277:77,1,60
229,145,240268,2,0,L|196:196,1,60
42,196,240430,6,0,P|75:218|143:204,3,60
108,81,240755,2,0,P|70:64|7:89,3,60
94,221,241079,6,0,L|105:279,1,60
175,239,241241,2,0,L|186:297,1,60
262,267,241403,6,0,L|280:365,3,60
9,300,241728,6,0,L|93:291,1,60
160,312,241890,1,0,0:0:0:0:
160,312,241971,1,0,0:0:0:0:
160,312,242052,2,0,L|147:231,1,60
103,167,242214,1,0,0:0:0:0:
103,167,242295,1,0,0:0:0:0:
103,167,242376,2,0,L|184:154,1,60
252,168,242539,1,0,0:0:0:0:
252,168,242620,1,0,0:0:0:0:
252,168,242701,2,0,L|239:87,3,60
240,64,243025,6,0,P|296:88|368:72,1,120
472,144,243268,1,0,0:0:0:0:
472,144,243349,2,0,P|418:169|359:163,1,120
248,232,243593,1,0,0:0:0:0:
248,232,243674,2,0,P|304:256|376:240,1,120
480,312,243917,1,0,0:0:0:0:
480,312,243998,2,0,P|426:337|367:331,1,120
296,311,244241,5,0,0:0:0:0:
296,311,244322,2,0,L|208:295,3,60
42,276,244647,2,0,L|130:260,3,60
252,153,244971,2,0,L|164:137,3,60
40,47,245296,2,0,L|128:31,3,60
208,88,245620,5,0,0:0:0:0:
248,100,245701,1,0,0:0:0:0:
289,102,245782,1,0,0:0:0:0:
330,94,245863,1,0,0:0:0:0:
346,55,245944,5,0,0:0:0:0:
309,76,246025,1,0,0:0:0:0:
289,113,246106,1,0,0:0:0:0:
283,154,246187,1,0,0:0:0:0:
318,195,246268,5,0,0:0:0:0:
339,237,246349,1,0,0:0:0:0:
333,284,246430,1,0,0:0:0:0:
304,323,246512,1,0,0:0:0:0:
258,336,246593,2,0,P|230:338|188:319,3,60
48,192,246917,5,0,0:0:0:0:
64,192,247566,1,0,0:0:0:0:
112,192,248214,1,0,0:0:0:0:
160,192,248539,1,0,0:0:0:0:
208,192,248863,1,0,0:0:0:0:
256,192,249187,1,0,0:0:0:0:
256,192,249512,5,0,0:0:0:0:
267,196,249593,1,0,0:0:0:0:
278,199,249674,1,0,0:0:0:0:
289,200,249755,1,0,0:0:0:0:
306,199,249836,5,0,0:0:0:0:
298,182,249917,1,0,0:0:0:0:
298,164,249998,1,0,0:0:0:0:
305,147,250079,1,0,0:0:0:0:
318,166,250160,5,0,0:0:0:0:
329,187,250241,1,0,0:0:0:0:
340,207,250322,1,0,0:0:0:0:
350,228,250403,1,0,0:0:0:0:
364,254,250485,5,0,0:0:0:0:
352,281,250566,1,0,0:0:0:0:
327,297,250647,1,0,0:0:0:0:
297,300,250728,1,0,0:0:0:0:
262,289,250809,5,0,0:0:0:0:
226,281,250890,1,0,0:0:0:0:
190,282,250971,1,0,0:0:0:0:
155,293,251052,1,0,0:0:0:0:
191,340,251133,5,0,0:0:0:0:
212,295,251214,1,0,0:0:0:0:
214,253,251295,1,0,0:0:0:0:
197,214,251376,1,0,0:0:0:0:
153,192,251458,5,0,0:0:0:0:
122,154,251539,1,0,0:0:0:0:
114,106,251620,1,0,0:0:0:0:
130,60,251701,1,0,0:0:0:0:
157,27,251782,5,0,0:0:0:0:
216,12,251863,1,0,0:0:0:0:
294,20,251944,1,0,0:0:0:0:
369,62,252025,1,0,0:0:0:0:
418,144,252106,6,0,B|417:187|417:187|440:224|440:224|440:280,1,120
385,368,252349,1,0,0:0:0:0:
385,368,252430,2,0,B|385:324|385:324|362:287|362:287|362:231,1,120
110,269,252755,6,0,P|166:245|230:301,1,120
158,348,252998,1,0,0:0:0:0:
158,348,253079,2,0,L|168:207,1,120
177,60,253403,6,0,L|118:62,3,60
272,40,253728,5,0,0:0:0:0:
302,50,253809,1,0,0:0:0:0:
332,61,253890,1,0,0:0:0:0:
362,72,253971,1,0,0:0:0:0:
389,84,254052,2,0,B|413:140|413:140|381:220,1,120
292,178,254295,1,0,0:0:0:0:
292,178,254376,2,0,P|228:162|148:202,1,120
304,304,254701,5,0,0:0:0:0:
320,200,254863,1,0,0:0:0:0:
448,144,255025,1,0,0:0:0:0:
312,120,255187,1,0,0:0:0:0:
192,32,255349,1,0,0:0:0:0:
213,182,255511,1,0,0:0:0:0:
32,248,255674,1,0,0:0:0:0:
320,200,255836,1,0,0:0:0:0:
192,200,255998,5,0,0:0:0:0:
480,248,256160,1,0,0:0:0:0:
299,182,256323,1,0,0:0:0:0:
320,32,256485,1,0,0:0:0:0:
200,120,256647,1,0,0:0:0:0:
64,144,256809,1,0,0:0:0:0:
192,200,256971,1,0,0:0:0:0:
208,304,257133,1,0,0:0:0:0:
64,128,257295,6,0,P|152:128|192:96,1,120
280,104,257539,1,0,0:0:0:0:
280,104,257620,2,0,L|440:128,1,120
448,256,257944,6,0,P|360:256|320:288,1,120
232,280,258188,1,0,0:0:0:0:
232,280,258269,2,0,L|72:256,1,120
56,64,258593,6,0,P|128:32|184:128,1,180
176,136,258917,2,0,L|192:336,1,180
216,352,259241,2,0,L|200:152,1,180
224,208,259566,2,0,P|152:232|104:184,1,120
144,48,259890,6,0,L|152:144,1,60
141,117,260052,6,0,L|131:58,1,60
120,69,260214,6,0,L|145:162,1,60
130,137,260376,6,0,L|110:81,1,60
101,94,260539,6,0,L|141:182,1,60
122,160,260701,6,0,L|93:108,1,60
87,123,260863,6,0,L|141:202,1,60
119,183,261025,6,0,L|81:138,1,60
15,211,261187,5,0,0:0:0:0:
21,227,261268,5,0,0:0:0:0:
30,242,261349,5,0,0:0:0:0:
41,255,261430,5,0,0:0:0:0:
54,267,261512,5,0,0:0:0:0:
69,276,261593,5,0,0:0:0:0:
85,283,261674,5,0,0:0:0:0:
102,287,261755,5,0,0:0:0:0:
119,287,261836,5,0,0:0:0:0:
136,283,261917,5,0,0:0:0:0:
153,277,261998,5,0,0:0:0:0:
169,268,262079,5,0,0:0:0:0:
184,258,262160,5,0,0:0:0:0:
197,246,262241,5,0,0:0:0:0:
211,227,262322,6,0,B|231:190|228:150|228:150|274:201|345:194|365:118,1,225.000008583069
256,192,264755,12,0,267349,0:0:0:0:
384,192,267836,6,0,P|408:224|400:176,1,112.500004291535
128,192,268160,6,0,P|104:160|112:208,1,112.500004291535
288,192,268484,5,0,0:0:0:0:
312,192,268565,5,0,0:0:0:0:
336,192,268646,5,0,0:0:0:0:
360,192,268727,5,0,0:0:0:0:
384,192,268809,6,0,B|440:192|440:192|336:192,1,112.500004291535
176,192,269133,5,0,0:0:0:0:
144,192,269214,5,0,0:0:0:0:
112,192,269295,5,0,0:0:0:0:
256,192,269457,5,0,0:0:0:0:
256,112,269619,5,0,0:0:0:0:
256,80,269700,5,0,0:0:0:0:
256,48,269781,5,0,0:0:0:0:
256,192,269944,6,0,B|255:136|255:136|255:240,1,112.500004291535
128,192,270268,5,0,0:0:0:0:
384,192,270430,5,0,0:0:0:0:
256,144,270755,5,0,0:0:0:0:
256,168,270836,5,0,0:0:0:0:
256,192,270917,5,0,0:0:0:0:
256,216,270998,5,0,0:0:0:0:
256,240,271079,5,0,0:0:0:0:
256,272,271160,5,0,0:0:0:0:
256,352,271241,5,0,0:0:0:0:
256,192,271403,6,0,B|256:248|256:248|256:144,1,112.500004291535
256,191,271727,5,0,0:0:0:0:
224,191,271809,5,0,0:0:0:0:
192,191,271890,5,0,0:0:0:0:
96,192,272052,5,0,0:0:0:0:
192,191,272214,5,0,0:0:0:0:
224,191,272295,5,0,0:0:0:0:
256,191,272377,5,0,0:0:0:0:
384,192,272538,6,0,B|440:192|440:192|336:192,1,112.500004291535
304,192,272701,6,0,L|32:192,1,225.000008583069
256,192,275133,12,0,277728,0:0:0:0:
64,320,278214,6,0,P|31:344|79:336,1,112.500004291535
64,64,278538,6,0,P|96:40|49:48,1,112.500004291535
128,192,278862,5,0,0:0:0:0:
129,216,278943,5,0,0:0:0:0:
129,240,279024,5,0,0:0:0:0:
128,264,279105,5,0,0:0:0:0:
129,288,279187,6,0,B|129:344|129:344|129:240,1,112.500004291535
192,96,279511,5,0,0:0:0:0:
192,64,279592,5,0,0:0:0:0:
191,31,279673,5,0,0:0:0:0:
192,192,279835,5,0,0:0:0:0:
192,288,279997,5,0,0:0:0:0:
192,320,280078,5,0,0:0:0:0:
192,352,280159,5,0,0:0:0:0:
256,192,280322,6,0,B|255:248|255:248|255:144,1,112.500004291535
320,96,280646,5,0,0:0:0:0:
320,288,280808,5,0,0:0:0:0:
384,96,281133,5,0,0:0:0:0:
383,119,281214,5,0,0:0:0:0:
384,144,281295,5,0,0:0:0:0:
383,167,281376,5,0,0:0:0:0:
384,192,281457,5,0,0:0:0:0:
384,224,281538,5,0,0:0:0:0:
384,288,281619,5,0,0:0:0:0:
448,192,281781,6,0,B|447:248|447:248|447:144,1,112.500004291535
256,112,282105,5,0,0:0:0:0:
256,80,282187,5,0,0:0:0:0:
255,47,282268,5,0,0:0:0:0:
256,192,282430,5,0,0:0:0:0:
256,272,282592,5,0,0:0:0:0:
257,305,282674,5,0,0:0:0:0:
257,337,282755,5,0,0:0:0:0:
256,192,282917,6,0,B|255:248|255:248|255:144,1,112.500004291535
104,192,283241,5,0,0:0:0:0:
408,192,283403,1,0,0:0:0:0:
256,80,283566,2,0,L|256:192,1,89.9999972534181
194,302,283890,6,0,P|270:336|326:272,1,150
256,87,284376,6,0,L|256:47,10,37.5
256,160,284863,5,0,0:0:0:0:
256,64,285187,1,0,0:0:0:0:
256,256,285349,2,0,L|256:384,1,104.999996795654
306,137,285674,6,0,P|252:124|196:148,1,104.999996795654
408,192,285998,1,0,0:0:0:0:
104,192,286160,2,0,P|157:208|206:191,1,104.999996795654
256,56,286485,6,0,L|256:96,1,26.2499991989136
256,72,286566,2,0,L|256:118,1,26.2499991989136
256,89,286647,2,0,L|256:123,1,26.2499991989136
256,106,286728,2,0,L|256:146,1,26.2499991989136
256,122,286809,2,0,L|256:168,1,26.2499991989136
256,139,286890,2,0,L|256:173,1,26.2499991989136
256,161,286971,6,0,L|256:265,1,104.999996795654
256,360,287295,5,0,0:0:0:0:
158,315,287458,6,0,P|174:235|347:332,1,360
