osu file format v7

[General]
AudioFilename: Otomegokoro x kyokuchuuhatto -dandara shooting MIX-.mp3
AudioLeadIn: 1004
PreviewTime: 52280
Countdown: 0
SampleSet: Normal
StackLeniency: 0.2
Mode: 0
LetterboxInBreaks: 1

[Editor]
Bookmarks: 429,10807,21185,26537,31564,47131,57510,62699,73077,93510,104212,111996,119780,135185,140374,148320,158699,169077,176861,187239,197618,207996,220969,231347,241726,252104,257293,267672,283239,286483
DistanceSpacing: 2
BeatDivisor: 4
GridSize: 8

[Metadata]
Title:Otomegokoro x Kyokuchuuhatto -dandara shooting MIX-
Artist:BARAKO
Creator:100pa-
Version:Kyokuchuuhatto
Source:gakuen shinsengumi
Tags:

[Difficulty]
HPDrainRate:0
CircleSize:5
OverallDifficulty:8
SliderMultiplier:1.4
SliderTickRate:0.5

[Events]
//Background and Video events
0,0,"shinsengumi.jpg"
//Break Periods
2,42142,46381
2,73277,77841
2,83331,92435
2,125169,129733
//Storyboard Layer 0 (Background)
//Storyboard Layer 1 (Fail)
//Storyboard Layer 2 (Pass)
//Storyboard Layer 3 (Foreground)
//Storyboard Sound Samples
//Background Colour Transformations
3,100,163,162,255

[TimingPoints]
429,162.162162162162,4,1,1,0,1,0
429,-200,4,1,1,0,0,0
10766,-100,4,1,1,0,0,0
13037,-50,4,1,1,0,0,0
13361,-100,4,1,1,0,0,0
15631,-50,4,1,1,0,0,0
15956,-100,4,1,1,0,0,0
20820,-50,4,1,1,0,0,0
21104,-100,4,1,1,0,0,0
24347,-200,4,1,1,0,0,0
24996,-100,4,1,1,0,0,0
25320,-200,4,1,1,0,0,0
25969,-100,4,1,1,0,0,0
33266,-200,4,1,1,0,0,0
33753,-100,4,1,1,0,0,0
34077,-200,4,1,1,0,0,0
34564,-100,4,1,1,0,0,0
35374,-50,4,1,1,0,0,0
35699,-100,4,1,1,0,0,0
41537,-50,4,1,1,0,0,0
47050,-1600,4,1,1,0,0,0
51591,-50,4,1,1,0,0,0
56942,-200,4,1,1,0,0,0
60023,-1600,4,1,1,0,0,0
62618,-200,4,1,1,0,0,0
70401,-100,4,1,1,0,0,0
78510,-50,4,1,1,0,0,0
93266,-100,4,1,1,0,0,0
98618,-400,4,1,1,0,0,0
98780,-100,4,1,1,0,0,0
101537,-1600,4,1,1,0,0,0
101699,-200,4,1,1,0,0,0
104131,-50,4,1,1,0,0,0
105428,-100,4,1,1,0,0,0
108064,-200,4,1,1,0,0,0
119699,-100,4,1,1,0,0,0
120996,-200,4,1,1,0,0,0
130401,-50,4,1,1,0,0,0
135104,-200,4,1,1,0,0,0
153428,-1600,4,1,1,0,0,0
153591,-100,4,1,1,0,0,0
155739,-200,4,1,1,0,0,0
156064,-50,4,1,1,0,0,0
157320,-100,4,1,1,0,0,0
158618,-200,4,1,1,0,0,0
176942,-100,4,1,1,0,0,0
180023,-200,4,1,1,0,0,0
180185,-100,4,1,1,0,0,0
180996,-200,4,1,1,0,0,0
181158,-100,4,1,1,0,0,0
188293,-200,4,1,1,0,0,0
189428,-100,4,1,1,0,0,0
190239,-50,4,1,1,0,0,0
190726,-100,4,1,1,0,0,0
191374,-200,4,1,1,0,0,0
192023,-100,4,1,1,0,0,0
196077,-200,4,1,1,0,0,0
197374,-50,4,1,1,0,0,0
197537,-200,4,1,1,0,0,0
207915,-100,4,1,1,0,0,0
209050,-200,4,1,1,0,0,0
209212,-100,4,1,1,0,0,0
211158,-200,4,1,1,0,0,0
211483,-100,4,1,1,0,0,0
211847,-200,4,1,1,0,0,0
213145,-100,4,1,1,0,0,0
214239,-200,4,1,1,0,0,0
217969,-100,4,1,1,0,0,0
218131,-200,4,1,1,0,0,0
226077,-1600,4,1,1,0,0,0
226239,-200,4,1,1,0,0,0
231266,-50,4,1,1,0,0,0
232564,-100,4,1,1,0,0,0
233861,-200,4,1,1,0,0,0
241645,-100,4,1,1,0,0,0
244239,-200,4,1,1,0,0,0
249428,-800,4,1,1,0,0,0
249591,-200,4,1,1,0,0,0
259807,-100,4,1,1,0,0,0
272618,-50,4,1,1,0,0,0
272780,-100,4,1,1,0,0,0
284293,-200,4,1,1,0,0,0
286928,-400,4,1,1,0,0,0
287010,-100,4,1,1,0,0,0

[Colours]
Combo1 : 0,0,0
Combo2 : 96,0,0

[HitObjects]
160,160,429,1,2
160,96,591,1,2
224,96,753,1,2
224,160,915,1,2
288,160,1077,1,2
288,96,1239,1,2
352,96,1401,1,2
352,160,1564,1,2
352,192,1645,1,2
352,224,1726,1,2
352,288,1888,1,2
288,288,2050,1,2
288,224,2212,1,6
224,224,2374,1,2
224,288,2537,1,2
160,288,2699,1,2
160,256,2780,1,2
160,224,2861,1,2
160,192,2942,1,2
160,160,3023,5,6
160,104,3185,1,2
224,104,3347,1,2
224,160,3510,1,2
288,160,3672,1,2
288,104,3834,1,2
352,104,3996,1,2
352,160,4158,1,2
352,192,4239,1,2
352,224,4320,1,6
352,288,4483,1,0
288,288,4645,1,0
288,224,4807,1,0
224,224,4969,1,0
224,256,5050,1,0
224,288,5131,1,0
192,288,5212,1,0
160,288,5293,1,0
160,224,5456,6,0,C|80:296|16:280|72:208|400:56|456:16|448:96|480:48|488:80|512:40|520:88|400:312|0:48|120:40|128:88|160:40|192:80|232:48|312:40,1,2170
312,40,10564,1,0
336,40,10645,1,0
360,40,10726,1,0
384,40,10807,6,0,C|360:104|336:32,1,140
280,40,11131,1,0
224,40,11293,1,0
168,40,11456,2,0,C|144:104|120:32,1,140
64,40,11780,1,0
8,40,11942,1,0
40,88,12104,2,0,C|62:153|86:89,1,140
136,88,12429,1,0
192,88,12591,1,0
248,88,12753,2,0,C|270:153|294:89,1,140
24,344,13077,6,0,B|0:384|48:424|88:376|64:312|8:352,1,140
248,88,13401,6,0,C|270:153|294:89,1,140
344,88,13726,1,0
400,88,13888,1,0
432,136,14050,2,0,C|408:200|384:128,1,140
328,136,14374,1,0
272,136,14537,1,0
216,136,14699,2,0,C|192:200|168:128,1,140
112,136,15023,1,0
56,136,15185,1,0
24,184,15347,2,0,C|46:249|70:185,1,140
488,344,15672,6,0,B|512:384|464:424|424:376|448:312|504:352,1,140
304,352,15996,5,0
232,352,16158,1,0
200,352,16239,1,0
200,320,16320,1,0
280,320,16483,1,0
312,320,16564,1,0
312,288,16645,1,0
232,288,16807,1,0
200,288,16888,1,0
200,256,16969,1,0
280,256,17131,1,0
312,256,17212,1,0
312,224,17293,1,0
232,224,17456,1,0
200,224,17537,1,0
200,192,17618,1,0
280,192,17780,1,0
312,192,17861,1,0
312,160,17942,1,0
232,160,18104,1,0
200,160,18185,1,0
200,128,18266,1,0
280,128,18429,1,0
312,128,18510,1,0
312,96,18591,5,0
240,96,18753,1,0
192,48,18915,2,0,B|72:168,1,140
192,48,19239,1,0
240,96,19401,1,0
312,96,19564,2,0,C|432:216,1,140
312,96,19888,1,0
264,152,20050,1,0
192,152,20212,2,0,B|80:264,1,140
120,224,20456,1,0
144,200,20537,1,0
264,152,20699,1,0
280,184,20780,1,0
304,216,20861,2,0,C|416:312|520:48,1,420
488,48,21185,6,0,C|464:112|440:40,1,140
384,48,21510,1,0
328,48,21672,1,0
272,48,21834,2,0,C|248:112|224:40,3,140
176,48,22483,2,0,C|152:112|128:40,1,140
80,48,22807,2,0,C|56:112|32:40,1,140
0,96,23131,1,0
56,96,23293,1,0
88,96,23374,1,0
112,120,23456,6,0,B|136:160|88:200|48:152|72:88|128:128,1,140
168,96,23780,6,0,C|192:160|216:88,3,140
272,96,24428,2,0,C|296:160|320:88,1,140
368,96,24915,1,0
424,96,25077,2,0,C|446:161|470:97,1,140
512,136,25401,2,0,C|487:200|465:134,1,140
408,136,25888,1,0
376,136,25969,1,0
352,160,26050,6,0,B|328:200|376:240|416:192|392:128|336:168,1,140
336,224,26537,5,0
176,224,26861,5,0
272,128,27185,5,0
272,128,27266,1,0
272,128,27347,1,0
272,128,27428,1,0
240,128,27510,5,0
336,24,27834,5,0
336,24,27915,1,0
336,24,27996,1,0
176,24,28158,5,0
336,24,28320,5,0
336,24,28401,1,0
336,24,28483,1,0
176,24,28645,5,0
336,24,28969,5,0
336,80,29131,1,0
240,136,29456,5,0
240,168,29537,1,0
240,200,29618,1,0
240,232,29699,1,0
240,264,29780,1,0
240,296,29861,1,0
272,296,29942,5,0
176,352,30104,5,0
336,352,30428,5,0
336,320,30510,1,0
336,288,30591,1,0
176,288,30753,5,0
336,288,30915,5,0
336,256,30996,1,0
336,224,31077,1,0
176,224,31239,5,0
256,216,31401,6,0,C|312:80,1,140
288,72,31645,1,0
256,64,31726,1,0
224,72,31807,1,0
200,88,31888,1,0
256,128,32050,5,0
312,168,32212,5,0
288,184,32293,1,0
256,192,32374,1,0
224,184,32456,1,0
200,168,32537,1,0
256,128,32699,5,0
288,72,32861,5,0
256,64,32942,1,0
224,72,33023,1,0
256,128,33185,5,0
256,192,33347,6,0,C|256:248,1,35
256,248,33510,2,0,C|256:328,1,70
24,344,33834,6,0,B|0:384|48:424|88:376|64:312|8:352,1,140
200,328,34158,5,0
224,344,34239,1,0
256,352,34320,1,0
288,344,34401,1,0
312,328,34483,1,0
256,288,34645,2,0,B|256:88,1,140
200,112,34969,5,0
184,144,35050,1,0
200,176,35131,1,0
312,112,35293,1,0
328,144,35374,1,0
312,176,35456,2,0,B|312:336|200:336|200:152,1,280
136,104,35780,6,0,B|224:8|288:8|376:112,1,280
488,344,36428,6,0,B|512:384|464:424|424:376|448:312|504:352,1,140
336,160,36915,5,0
176,160,37239,5,0
272,256,37564,5,0
272,256,37645,1,0
272,256,37726,1,0
272,256,37807,1,0
240,256,37888,5,0
336,360,38212,5,0
336,360,38293,1,0
336,360,38374,1,0
176,360,38537,5,0
336,360,38699,5,0
336,360,38780,1,0
336,360,38861,1,0
176,360,39023,5,0
336,360,39347,5,0
336,304,39510,1,0
240,248,39834,5,0
240,216,39915,1,0
240,184,39996,1,0
240,152,40077,1,0
240,120,40158,1,0
240,88,40239,1,0
272,88,40320,5,0
176,32,40483,5,0
336,32,40807,5,0
336,64,40888,1,0
336,96,40969,1,0
176,96,41131,5,0
336,96,41293,5,0
336,128,41374,1,0
336,160,41456,1,0
176,160,41618,6,0,B|232:368|368:376|520:-24,1,560
256,264,47131,6,0,B|256:176,1,70
256,184,48510,1,0
256,176,48591,1,0
256,168,48672,1,0
256,160,48753,1,0
256,152,48834,1,0
256,144,48915,1,0
256,136,48996,1,0
256,128,49077,1,0
256,120,49158,1,0
256,112,49239,1,0
256,104,49320,1,0
256,96,49401,1,0
256,88,49483,1,0
256,80,49564,1,0
256,72,49645,1,0
256,72,49726,6,0,C|328:72,1,70
326,72,51347,1,0
326,72,51672,2,0,C|288:96|352:120|288:144|352:168|288:192|352:216|288:240|352:264|288:288|352:320,1,630
24,168,52320,5,0
40,192,52401,1,0
64,184,52483,1,0
88,168,52564,1,0
104,144,52645,5,0
128,152,52726,1,0
136,176,52807,1,0
160,168,52888,1,0
184,152,52969,5,0
200,176,53050,1,0
224,168,53131,1,0
248,152,53212,1,0
264,128,53293,5,0
288,136,53374,1,0
304,160,53456,1,0
328,152,53537,1,0
344,128,53618,5,0
360,152,53699,1,0
384,144,53780,1,0
408,128,53861,1,0
424,104,53942,5,0
448,112,54023,1,0
464,136,54104,1,0
488,128,54185,1,0
496,152,54266,5,0
480,176,54347,1,0
456,192,54428,1,0
432,200,54510,1,0
408,192,54591,5,0
384,208,54672,1,0
368,232,54753,1,0
344,224,54834,1,0
320,216,54915,5,0
304,240,54996,1,0
280,248,55077,1,0
256,232,55158,1,0
232,216,55239,5,0
208,232,55320,1,0
192,256,55401,1,0
168,264,55483,1,0
144,248,55564,5,0
128,272,55645,1,0
104,272,55726,1,0
80,256,55807,1,0
56,264,55888,5,0
40,288,55969,1,0
48,312,56050,1,0
72,328,56131,1,0
96,320,56212,5,0
120,328,56293,1,0
144,320,56374,1,0
160,296,56456,1,0
176,280,56537,5,0
200,288,56618,1,0
224,304,56699,1,0
248,288,56780,1,0
256,264,56861,5,0
256,240,56942,1,0
256,216,57023,2,0,C|259:158,5,35
208,144,57510,6,0,C|144:144,3,35,0|0|0|0
256,184,57834,2,0,C|256:248,3,35
304,144,58158,2,0,C|368:144,3,35,0|0|0|0
256,104,58483,2,0,C|256:56,3,35
144,160,58807,6,0,C|80:160,3,35,0|0|0|0
256,48,59131,2,0,C|256:0,3,35
368,160,59456,2,0,C|432:160,3,35,0|0|0|0
256,272,59780,2,0,C|256:320,3,35
256,160,60104,6,0,C|328:224,1,70
312,208,61483,1,0
320,216,61564,1,0
328,224,61645,1,0
336,232,61726,1,0
344,240,61807,1,0
352,248,61888,1,0
360,256,61969,1,0
368,264,62050,1,0
376,272,62131,1,0
384,280,62212,1,0
392,288,62293,1,0
400,296,62374,1,0
408,304,62456,1,0
416,312,62537,1,0
424,320,62618,1,0
432,328,62699,6,0,B|400:352|328:328,1,70
344,312,62942,1,0
312,328,63023,2,0,B|264:328|248:272,1,70
80,328,63347,2,0,B|112:352|184:328,1,70
168,312,63591,1,0
200,328,63672,2,0,B|248:328|264:272,1,70
256,192,63996,6,0,B|256:128,3,35
232,144,64320,2,0,B|192:112|240:80,1,70
256,72,64564,1,0
280,86,64645,2,0,B|320:112|280:144,1,70
256,160,64888,1,0
256,192,64969,2,0,B|256:256,2,35
256,72,65293,5,0
144,0,65456,5,0
160,136,65618,5,0
32,112,65780,5,0
160,248,65942,5,0
32,272,66104,5,0
256,312,66266,5,0
144,384,66428,5,0
256,312,66591,5,0
368,384,66753,5,0
352,248,66915,5,0
480,272,67077,5,0
352,136,67239,5,0
480,112,67401,5,0
256,72,67564,5,0
368,0,67726,5,0
80,96,67888,6,0,B|112:72|184:96,1,70
168,112,68131,1,0
200,96,68212,2,0,B|248:96|264:152,1,70
432,96,68537,2,0,B|400:72|328:96,1,70
344,112,68780,1,0
312,96,68861,2,0,B|264:96|248:152,1,70
256,256,69185,6,0,B|264:292|312:292,1,70
344,276,69428,1,0
364,301,69510,2,0,B|400:316|432:292,1,70
255,256,69834,2,0,B|248:292|200:292,1,70
168,276,70077,1,0
147,301,70158,2,0,B|112:316|80:292,1,70
40,32,70483,6,0,B|-16:101,1,70
66,75,70645,2,0,B|25:156,1,70
99,119,70807,2,0,B|78:191,1,70
142,159,70969,2,0,B|127:242,1,70
189,195,71131,2,0,B|185:273,1,70
238,229,71293,2,0,B|243:338,1,70
292,259,71456,2,0,B|307:344,1,70
347,286,71618,2,0,B|375:368,1,70
409,291,71780,5,0
387,224,71942,1,0
341,170,72104,1,0
287,124,72266,1,0
231,81,72428,1,0
212,70,72510,1,0
192,63,72591,1,0
172,55,72672,1,0
151,49,72753,1,0
130,45,72834,1,0
109,44,72915,1,0
88,44,72996,1,0
64,48,73077,5,0
85,40,78591,6,0,B|43:-1|-14:25|-12:115|24:172|84:187|128:157|106:71,1,280
406,233,79239,6,0,B|383:300|356:361|415:368|476:390|478:334|498:239,1,280
393,25,79888,6,0,B|363:-26|301:-14|279:72|300:136|354:167|404:149|405:61,1,280
90,247,80537,6,0,B|117:312|137:376|186:343|246:319|211:275|164:191,1,280
467,253,81185,6,0,B|473:194|416:166|346:224|326:289|351:345|403:360|455:289,1,280
184,30,81834,6,0,B|162:97|136:159|196:165|257:186|258:129|276:35,1,280
256,192,82077,12,0,82645
256,192,82807,5,0
256,192,82888,1,0
256,192,82969,1,0
256,192,83050,1,0
256,192,83131,1,0
256,88,93185,5,0
256,152,93347,1,0
256,192,93428,1,0
256,224,93510,6,0,C|256:328|256:144,1,280
152,48,93996,1,0
112,24,94077,1,0
72,32,94158,1,0
80,136,94320,1,0
40,128,94401,1,0
8,160,94483,1,0
56,256,94645,1,0
80,288,94726,1,0
120,312,94807,1,0
160,312,94888,1,0
200,304,94969,1,0
232,280,95050,1,0
256,248,95131,5,0
360,336,95293,1,0
400,360,95374,1,0
440,352,95456,1,0
432,248,95618,1,0
472,256,95699,1,0
504,224,95780,1,0
456,128,95942,1,0
432,96,96023,1,0
392,72,96104,1,0
352,72,96185,1,0
312,80,96266,1,0
280,104,96347,1,0
256,136,96428,5,0
256,248,96753,1,0
256,104,97077,5,0
160,272,97239,1,0
352,272,97401,1,0
256,72,97726,5,0
112,192,97888,1,0
256,312,98050,1,0
400,192,98212,1,0
256,40,98537,5,0
256,344,98699,2,0,C|256:240,1,70
184,232,99185,5,0
144,208,99266,1,0
104,224,99347,1,0
328,232,99510,1,0
368,208,99591,1,0
408,224,99672,1,0
256,256,99834,5,0
256,216,99915,1,0
256,176,99996,1,0
256,136,100077,1,0
256,96,100158,1,0
256,56,100239,1,0
256,16,100320,5,0
176,104,100483,5,0
336,104,100645,1,0
104,192,100807,5,0
408,192,100969,1,0
176,280,101131,5,0
336,280,101293,1,0
256,368,101456,5,0
256,240,101618,2,0,C|256:200,1,35
256,200,102347,1,0
256,192,102428,1,0
256,184,102510,1,0
256,176,102591,1,0
256,168,102672,1,0
256,160,102753,1,0
256,152,102834,1,0
256,144,102915,1,0
256,136,102996,1,0
256,128,103077,1,0
256,120,103158,1,0
256,112,103239,1,0
256,104,103320,1,0
256,96,103401,1,0
256,88,103483,1,0
256,80,103564,1,0
256,72,103645,1,0
256,64,103726,1,0
256,56,103807,1,0
256,48,103888,2,0,C|256:16,6,17.5
160,64,104212,6,0,B|112:80|128:128|168:144|208:120|224:80|232:56|216:24|176:0|144:0|112:16|88:48|88:64|72:112|64:168|56:224|48:296|48:368,1,560
352,64,104861,2,0,B|400:80|384:128|344:144|304:120|288:80|280:56|296:24|336:0|368:0|400:16|424:48|424:64|440:112|448:168|456:224|464:296|464:368,1,560
256,216,105510,6,0,B|240:176|192:168|160:200|152:240|168:280|184:312|224:344|264:360,1,280
256,216,106158,2,0,B|272:176|320:168|352:200|360:240|344:280|328:312|288:344|248:360,1,280
256,352,106807,6,0,B|168:336|184:224,1,140
224,264,107050,1,0
256,288,107131,2,0,B|344:272|328:160,1,140
288,200,107374,1,0
256,224,107455,2,0,B|168:208|184:96,1,140
224,136,107699,1,0
256,160,107780,2,0,B|344:144|328:32,1,140
296,32,108023,1,0
256,16,108104,6,0,B|208:16,1,35
256,56,108266,2,0,B|296:56,1,35
256,96,108428,2,0,B|208:96,1,35
256,136,108590,2,0,B|296:136,1,35
256,168,108753,5,0
256,192,108834,1,0
256,216,108915,1,0
256,240,108996,1,0
256,264,109077,1,0
256,288,109158,1,0
256,312,109239,1,0
256,336,109320,1,0
256,360,109401,6,0,B|176:368|136:304,1,105
120,312,109726,2,0,B|120:255,3,35
160,280,110050,2,0,B|240:283|276:217,1,105
256,216,110374,2,0,B|256:159,3,35
256,152,110699,2,0,B|336:160|376:96,1,105
392,112,111023,2,0,B|392:55,3,35
392,32,111347,6,0,B|248:-16|96:40,1,280
112,72,112077,1,0
112,104,112158,1,0
112,136,112239,1,0
112,168,112320,1,0
112,200,112401,1,0
112,232,112483,1,0
112,264,112564,1,0
144,288,112645,6,0,B|192:288,1,35
208,320,112807,2,0,B|256:320,1,35
280,320,112969,2,0,B|315:320,1,35
336,288,113131,2,0,B|371:288,1,35
400,264,113293,5,0
400,232,113374,1,0
400,200,113456,1,0
400,168,113537,1,0
400,136,113618,1,0
400,104,113699,1,0
400,72,113780,1,0
400,32,113861,1,0
368,8,113942,6,0,B|320:8,1,35
304,40,114104,2,0,B|256:40,1,35
232,40,114266,2,0,B|197:40,1,35
176,8,114428,2,0,B|141:8,1,35
104,16,114591,6,0,B|109:53|144:72,1,70
152,104,114834,1,0
192,104,114915,2,0,B|226:132|258:116,1,70
408,16,115239,2,0,B|403:53|368:72,1,70
360,104,115482,1,0
320,104,115563,2,0,B|286:132|254:116,1,70
256,192,115888,6,0,B|256:256,3,35
224,248,116212,2,0,B|184:280|232:312,1,70
256,328,116456,1,0
288,304,116537,2,0,B|328:278|288:246,1,70
256,224,116780,1,0
256,184,116861,2,0,B|256:120,2,35
168,152,117185,5,0
224,112,117347,1,0
288,112,117510,1,0
344,152,117672,1,0
384,216,117834,5,0
304,264,117996,1,0
208,264,118158,1,0
128,216,118320,1,0
64,128,118483,5,0
184,48,118645,1,0
328,48,118807,1,0
448,128,118969,1,0
504,240,119131,5,0
360,360,119293,1,0
152,360,119456,1,0
8,240,119618,1,0
144,152,119780,6,0,B|168:104|192:88|216:104|240:160,1,140
256,192,120023,1,0
275,230,120104,2,0,B|296:280|320:296|344:280|368:232,1,140
368,152,120428,2,0,B|344:104|320:88|296:104|272:160,1,140
256,192,120671,1,0
236,230,120752,2,0,B|216:280|192:296|168:280|144:232,1,140
144,152,121077,6,0,B|144:96,3,35
168,88,121401,2,0,B|208:64|240:96,1,70
256,128,121645,1,0
280,168,121726,2,0,B|312:192|352:160,1,70
360,128,121969,2,0,B|360:80,2,35
448,80,122374,6,0,B|455:39,1,35
457,136,122537,2,0,B|497:118,1,35
402,145,122699,2,0,B|417:103,1,35
396,202,122861,2,0,B|444:184,1,35
340,211,123023,2,0,B|355:169,1,35
342,267,123185,2,0,B|390:249,1,35
287,278,123347,2,0,B|301:228,1,35
288,334,123510,2,0,B|336:323,1,35
232,360,123672,5,0
200,312,123834,1,0
168,264,123996,1,0
136,216,124158,1,0
104,168,124320,1,0
88,144,124401,1,0
72,120,124483,1,0
56,96,124564,1,0
40,72,124645,2,0,B|16:32,3,35
21,41,124969,5,0
304,48,130483,6,0,B|262:7|205:33|207:123|243:180|303:195|347:165|325:79,1,280
80,232,131131,6,0,B|57:299|30:360|89:367|150:389|152:333|172:238,1,280
448,288,131780,6,0,B|481:239|444:188|357:204|308:250|302:312|340:350|420:314,1,280
96,80,132428,6,0,B|123:145|143:209|192:176|252:152|217:108|170:24,1,280
152,256,133077,6,0,B|120:205|58:218|38:307|63:371|117:399|167:379|164:291,1,280
328,104,133726,6,0,B|351:170|369:235|420:202|481:181|447:136|403:51,1,280
256,192,134050,12,0,134537
256,192,134699,5,0
256,192,134780,1,0
256,192,134861,1,0
256,192,134942,1,0
256,192,135023,1,0
256,192,135185,6,0,B|256:80|256:272,1,140
256,288,135591,1,0
256,320,135672,1,0
256,249,135834,1,0
224,232,135915,1,0
192,216,135996,1,0
256,249,136158,1,0
288,232,136239,1,0
320,216,136320,1,0
320,88,136483,6,0,B|248:40|176:96,1,140
224,160,136969,2,0,B|256:128|288:168,1,70
256,240,137293,2,0,B|256:312,2,70
256,208,137699,1,0
256,176,137780,6,0,B|296:120|384:144,1,140
368,184,138185,1,0
328,208,138266,1,0
288,200,138347,1,0
256,176,138428,2,0,B|216:120|128:144,1,140
144,184,138833,1,0
184,208,138914,1,0
224,200,138995,1,0
256,176,139077,1,0
400,112,139239,6,0,B|448:80,1,35
256,80,139564,2,0,B|256:40,1,35
112,112,139888,2,0,B|64:80,1,35
256,200,140212,1,0
256,344,140374,6,0,B|256:192,1,140
256,160,140780,1,0
256,120,140861,1,0
256,200,141023,1,0
224,224,141104,1,0
192,248,141185,1,0
256,200,141347,1,0
288,224,141428,1,0
328,248,141510,1,0
256,344,141672,6,0,B|208:352|160:320,1,70
152,320,141915,2,0,B|128:312|112:288,2,35
187,335,142158,2,0,B|224:352|264:344,1,70
296,344,142401,1,0
336,328,142483,1,0
256,240,142645,6,0,B|256:320,2,70
256,200,143050,1,0
232,160,143131,5,0
272,144,143212,1,0
232,120,143293,1,0
272,104,143374,1,0
232,80,143456,2,0,B|232:8,2,70
272,104,143861,1,0
232,120,143942,1,0
272,144,144023,1,0
232,160,144104,1,0
256,240,144266,6,0,B|256:24,1,210
288,56,144834,1,0
224,72,144915,1,0
288,88,144996,1,0
224,104,145077,1,0
288,120,145158,1,0
224,136,145239,2,0,B|224:352,1,210
336,288,145888,5,0
176,288,146212,5,0
272,192,146536,5,0
272,192,146617,1,0
272,192,146698,1,0
272,192,146779,1,0
240,192,146861,5,0
336,88,147185,5,0
336,88,147266,1,0
336,88,147347,1,0
176,88,147509,5,0
336,88,147671,5,0
336,88,147752,1,0
336,88,147834,1,0
176,88,147996,5,0
256,32,148320,5,0
256,352,148645,1,0
256,352,148969,5,0
256,192,149131,1,0
256,32,149293,1,0
256,192,149618,5,0
256,352,149780,1,0
256,192,149942,1,0
256,32,150104,1,0
256,352,150428,5,0
256,32,150591,1,0
336,96,151077,5,0
176,96,151401,5,0
272,192,151725,5,0
272,192,151806,1,0
272,192,151887,1,0
272,192,151968,1,0
240,192,152050,5,0
336,296,152374,5,0
336,296,152455,1,0
336,296,152536,1,0
176,296,152698,5,0
336,296,152860,5,0
336,296,152941,1,0
336,296,153023,1,0
176,296,153185,5,0
256,336,153510,6,0,B|256:264,1,35
232,288,154239,1,0
280,280,154320,1,0
232,264,154401,1,0
280,256,154483,1,0
232,240,154564,1,0
280,232,154645,1,0
232,216,154726,1,0
280,208,154807,1,0
232,192,154888,1,0
280,184,154970,1,0
232,168,155051,1,0
280,160,155132,1,0
232,144,155212,1,0
280,136,155293,1,0
232,120,155374,1,0
280,112,155456,1,0
232,96,155537,1,0
280,88,155618,1,0
232,72,155699,1,0
256,48,155780,2,0,B|256:16,7,17.5
256,48,156104,6,0,B|200:112|176:128|136:128|104:112|80:72|104:16|152:8|192:8|224:24|232:88|192:192|128:224|0:248,1,560
256,48,156753,2,0,B|312:112|336:128|376:128|408:112|432:72|408:16|360:8|320:8|288:24|280:88|320:192|384:224|512:248,1,560
256,200,157401,6,0,B|232:160|192:144|144:176|144:208|144:224|192:240|200:256|232:240|256:224|264:240|208:280|208:320,1,280
256,200,158050,2,0,B|280:160|320:144|368:176|368:208|368:224|320:240|312:256|280:240|256:224|248:240|304:280|304:320,1,280
136,264,158699,5,0
104,288,158780,1,0
136,312,158861,1,0
168,288,158942,1,0
200,264,159023,2,0,L|272:208,1,70
376,264,159347,1,0
408,288,159428,1,0
376,312,159509,1,0
344,288,159590,1,0
312,264,159671,2,0,L|240:208,1,70
256,152,159996,5,0
224,120,160077,1,0
256,88,160158,1,0
288,56,160239,1,0
256,24,160320,1,0
224,56,160401,1,0
256,88,160483,1,0
288,120,160564,1,0
256,152,160645,1,0
224,184,160726,1,0
256,216,160807,1,0
288,248,160888,1,0
256,280,160969,1,0
224,248,161050,1,0
256,216,161131,1,0
288,192,161212,1,0
320,168,161293,6,0,L|360:128,3,35
320,216,161618,1,0
320,256,161699,1,0
288,280,161780,1,0
256,304,161861,1,0
256,344,161942,2,0,L|256:384,3,35
256,304,162266,1,0
224,280,162347,1,0
192,256,162428,1,0
192,216,162509,1,0
192,168,162591,2,0,L|152:128,3,35
167,143,162915,5,0
256,16,163239,1,0
344,143,163564,1,0
256,288,163888,6,0,B|176:288|120:224,1,140
136,192,164293,1,0
176,216,164374,1,0
216,232,164456,1,0
256,240,164537,2,0,B|336:240|392:176,1,140
376,144,164942,1,0
336,168,165023,1,0
296,184,165105,1,0
256,192,165185,2,0,B|176:192|120:128,1,140
136,96,165590,1,0
176,120,165671,1,0
216,136,165753,1,0
256,144,165834,2,0,B|336:144|392:80,1,140
376,48,166239,1,0
336,72,166320,1,0
296,88,166402,1,0
256,72,166483,6,0,B|224:48|176:64,1,70
152,72,166726,1,0
189,60,166807,2,0,B|224:48|256:72,1,70
256,72,167131,2,0,B|288:48|336:64,1,70
360,72,167374,1,0
322,60,167455,2,0,B|288:48|256:72,1,70
256,152,167780,6,0,B|208:152,1,35
256,152,167942,2,0,B|312:152,1,35
256,152,168104,2,0,B|256:240,1,70
256,264,168347,1,0
256,222,168428,2,0,B|256:136,1,70
256,112,168672,1,0
256,72,168753,2,0,B|256:32,2,35
224,160,169077,5,0
48,48,169239,1,0
224,160,169401,5,0
336,232,169564,1,0
224,224,169726,5,0
48,336,169888,1,0
224,224,170050,5,0
336,152,170213,1,0
288,224,170374,5,0
464,336,170536,1,0
288,224,170698,5,0
176,152,170861,1,0
288,160,171023,5,0
464,48,171185,1,0
288,160,171347,5,0
176,232,171510,1,0
256,80,171672,6,0,B|200:72|184:40,1,70
160,80,171915,2,0,B|120:104,2,35
192,52,172158,1,0
256,80,172320,2,0,B|312:72|328:40,1,70
352,80,172563,2,0,B|392:104,2,35
320,52,172806,1,0
256,112,172969,5,0
256,152,173050,1,0
256,192,173131,1,0
256,232,173212,1,0
224,256,173293,2,0,B|200:296|240:336,1,70
256,344,173537,1,0
284,321,173618,2,0,B|312:296|288:256,1,70
256,232,173861,1,0
256,192,173942,2,0,B|256:144,2,35
256,344,174266,6,0,B|216:368,1,35
192,272,174428,2,0,B|184:232,1,35
288,256,174591,2,0,B|328:280,1,35
192,272,174753,2,0,B|136:272,1,35
224,184,174915,2,0,B|240:152,1,35
288,256,175077,2,0,B|240:288,1,35
224,184,175239,2,0,B|192:152,1,35
320,168,175401,2,0,B|352:144,1,35
288,16,175564,5,0
184,64,175726,1,0
232,168,175888,1,0
336,120,176050,1,0
248,64,176212,5,0
232,104,176293,1,0
272,120,176374,1,0
288,80,176456,1,0
256,96,176537,1,0
256,96,176618,1,0
256,96,176699,1,0
256,96,176780,1,0
256,96,176861,6,0,C|278:161|302:97,1,140,0|0
360,96,177347,1,0
416,96,177510,2,0,C|438:161|462:97,3,140
504,136,178158,2,0,C|482:201|458:137,1,140,0|0
400,136,178483,2,0,C|378:201|354:137,1,140,0|0
296,136,178807,1,0
240,136,178969,1,0
216,136,179050,1,0
192,136,179131,6,0,B|216:176|168:216|128:168|152:104|208:144,1,140
104,136,179456,6,0,C|80:200|56:128,3,140
24,176,180104,2,0,C|48:240|72:168,1,140
128,176,180591,1,0
184,176,180753,2,0,C|206:241|230:177,1,140
288,176,181077,2,0,C|313:240|335:174,1,140
392,176,181564,1,0
424,176,181645,1,0
448,200,181726,6,0,B|472:240|424:280|384:232|408:168|464:208,1,140
336,160,182212,5,0
176,160,182536,5,0
272,256,182860,5,0
272,288,182941,1,0
272,320,183022,1,0
272,352,183103,1,0
240,352,183185,5,0
336,256,183509,5,0
336,256,183590,1,0
336,256,183671,1,0
176,256,183833,5,0
336,256,183995,5,0
336,256,184076,1,0
336,256,184158,1,0
176,256,184320,5,0
336,32,184644,5,0
336,104,184806,1,0
240,152,185131,5,0
240,184,185212,1,0
240,216,185293,1,0
240,248,185374,1,0
240,280,185455,1,0
240,312,185536,1,0
272,312,185617,5,0
176,352,185779,5,0
336,352,186103,5,0
336,320,186185,1,0
336,288,186266,1,0
176,288,186428,5,0
336,288,186590,5,0
336,256,186671,1,0
336,224,186752,1,0
176,224,186915,5,0
256,136,187077,6,0,B|336:8,1,140
344,56,187320,1,0
352,96,187401,1,0
344,136,187483,1,0
336,176,187564,1,0
256,136,187726,5,0
176,176,187888,5,0
168,136,187969,1,0
160,96,188051,1,0
168,56,188132,1,0
176,16,188212,1,0
256,64,188374,6,0,B|256:104,1,35
256,136,188537,2,0,B|256:248,1,105
256,272,188861,1,0
240,360,189023,6,0,B|240:320,1,35
272,360,189185,2,0,B|272:320,1,35
21,352,189510,6,0,B|0:384|48:424|88:376|64:312|24:343,1,140
192,112,189834,5,0
224,96,189915,1,0
256,88,189996,1,0
288,96,190077,1,0
320,112,190158,1,0
312,200,190320,6,0,B|312:360|200:360|200:176,1,280
256,168,190645,1,0
256,136,190726,1,0
256,104,190807,6,0,B|192:144|104:176,1,140
256,104,191131,2,0,B|320:144|408:176,1,140
256,104,191456,2,0,B|256:264,1,140
491,352,192104,6,0,B|512:384|464:424|424:376|448:312|488:343,1,140
176,288,192591,5,0
336,288,192915,5,0
240,192,193240,5,0
240,192,193321,1,0
240,192,193402,1,0
240,192,193483,1,0
272,192,193564,5,0
176,88,193888,5,0
176,56,193969,1,0
176,24,194050,1,0
336,24,194213,5,0
176,24,194375,5,0
176,56,194456,1,0
176,88,194537,1,0
336,88,194699,5,0
256,24,195023,5,0
256,80,195185,1,0
256,136,195347,1,0
256,192,195510,1,0
256,248,195672,1,0
256,304,195834,1,0
256,360,195996,1,0
256,360,196158,5,0
256,344,196239,1,0
256,328,196320,2,0,B|256:224,1,70
256,240,196564,1,0
256,224,196645,1,0
256,208,196726,1,0
256,192,196807,1,0
256,176,196888,1,0
256,160,196969,1,0
256,144,197050,1,0
256,128,197131,1,0
256,112,197212,1,0
256,96,197293,1,0
256,80,197374,1,0
256,64,197456,6,0,B|376:48|408:112|440:176|440:240,1,280
488,32,197942,1,0
416,320,198266,1,0
440,224,198428,1,0
464,128,198591,1,0
488,32,198753,6,0,B|320:32,1,140
280,96,199239,2,0,B|350:96,1,70
280,32,199564,1,0
200,32,199726,1,0
120,32,199888,1,0
40,32,200050,1,0
136,120,200212,5,0
376,120,200537,1,0
320,336,200861,1,0
184,336,201023,1,0
256,136,201347,1,0
304,208,201509,5,0
256,280,201671,1,0
208,208,201833,1,0
304,208,201995,1,0
344,280,202157,1,0
256,280,202320,1,0
208,208,202483,1,0
168,280,202645,1,0
96,320,202807,5,0
24,32,203131,1,0
96,320,203455,1,0
72,224,203617,1,0
48,128,203780,1,0
24,32,203942,6,0,B|192:32,1,140
232,96,204428,2,0,B|162:96,1,70
232,32,204753,1,0
312,32,204915,1,0
392,32,205077,1,0
472,32,205239,1,0
376,120,205401,5,0
136,120,205726,1,0
192,336,206050,1,0
328,336,206212,1,0
256,160,206536,1,0
256,72,206699,5,0
256,88,206780,1,0
256,104,206861,1,0
256,120,206942,1,0
256,136,207023,1,0
256,152,207104,1,0
256,168,207185,1,0
256,184,207266,1,0
256,200,207347,1,0
256,216,207428,1,0
256,232,207510,1,0
256,248,207591,1,0
256,264,207672,1,0
256,280,207753,1,0
256,296,207834,1,0
256,312,207915,1,0
256,328,207996,6,0,B|176:328|120:272,1,140
88,288,208239,1,0
104,248,208320,2,0,B|56:184|56:96,1,140
24,96,208564,1,0
64,80,208645,2,0,B|128:24,1,70
136,72,208807,2,0,B|208:40,1,70
200,88,208969,2,0,B|272:88,1,70
280,48,209131,2,0,B|448:96,1,140
448,72,209537,1,0
480,56,209618,1,0
480,176,209780,1,0
480,56,209942,5,0
480,96,210023,1,0
480,136,210104,1,0
480,176,210185,1,0
480,216,210266,1,0
480,256,210347,1,0
480,296,210428,1,0
480,336,210510,1,0
440,336,210591,6,0,B|368:336|288:336,1,140
280,368,210834,1,0
300,336,210915,2,0,B|176:240,1,140
152,272,211158,1,0
112,256,211239,2,0,B|112:208,1,35
80,280,211401,2,0,B|80:368,1,70
40,264,211726,6,0,B|40:176,1,70
72,168,211888,2,0,B|72:120,1,35
112,152,212050,2,0,B|112:200,1,35
152,168,212212,2,0,B|152:208,1,35
192,152,212374,2,0,B|192:112,1,35
232,136,212537,2,0,B|232:176,1,35
272,152,212699,2,0,B|272:192,1,35
312,168,212861,1,0
312,128,212942,1,0
352,144,213023,1,0
352,104,213104,1,0
392,120,213185,6,0,B|392:264,1,140
392,296,213428,1,0
432,280,213510,2,0,B|432:96,1,140
472,160,213753,1,0
472,200,213834,2,0,B|472:344,1,140
432,352,214077,1,0
392,352,214158,1,0
352,352,214239,1,0
312,344,214320,2,0,B|160:344,1,140
152,312,214726,1,0
136,280,214807,2,0,B|80:280,3,35
152,248,215131,2,0,B|200:248,3,35
128,216,215456,1,0
152,184,215537,1,0
120,152,215618,1,0
144,120,215699,1,0
104,88,215780,6,0,B|72:8,1,70
136,48,216023,1,0
184,64,216104,2,0,B|216:0,1,70
240,40,216347,1,0
256,88,216428,2,0,B|304:88,3,35
256,128,216753,2,0,B|256:200,1,70
256,296,217077,5,0
232,328,217158,1,0
280,328,217239,1,0
256,296,217320,1,0
232,328,217402,1,0
280,328,217483,1,0
256,296,217564,1,0
232,328,217645,1,0
280,328,217726,5,0
296,280,217807,1,0
256,248,217888,1,0
216,280,217970,1,0
232,328,218050,2,0,B|304:336|360:336|424:280|464:192,1,280
456,120,218537,1,0
416,128,218618,1,0
376,136,218699,1,0
352,72,218861,1,0
312,96,218942,1,0
272,112,219023,1,0
248,40,219185,1,0
216,64,219266,1,0
184,88,219347,1,0
152,112,219428,1,0
120,136,219510,1,0
88,160,219591,1,0
56,184,219672,5,0
56,264,219834,1,0
96,256,219915,1,0
136,248,219996,1,0
160,312,220158,1,0
200,288,220239,1,0
240,272,220320,1,0
264,344,220482,1,0
296,320,220563,1,0
328,296,220644,1,0
360,272,220725,1,0
392,248,220807,1,0
424,224,220888,1,0
456,200,220969,5,0
56,200,221293,1,0
56,200,221618,5,0
256,96,221780,1,0
456,200,221942,1,0
456,200,222266,5,0
288,296,222428,1,0
224,80,222591,1,0
56,200,222753,1,0
56,200,223077,5,0
456,200,223239,1,0
336,224,223726,5,0
176,224,224050,5,0
272,128,224374,5,0
272,96,224455,1,0
272,64,224536,1,0
272,32,224617,1,0
240,32,224699,5,0
336,256,225023,5,0
336,288,225104,1,0
336,320,225185,1,0
176,320,225347,5,0
336,256,225510,5,0
336,224,225590,1,0
336,192,225672,1,0
176,192,225834,5,0
256,376,226158,6,0,B|256:304,1,35
256,328,226888,1,0
256,315,226969,1,0
256,299,227050,1,0
256,283,227131,1,0
256,267,227212,1,0
256,251,227293,1,0
256,235,227374,1,0
256,219,227456,1,0
256,203,227537,1,0
256,187,227618,1,0
256,171,227699,1,0
256,155,227780,1,0
256,139,227861,1,0
256,123,227942,1,0
256,107,228023,1,0
256,91,228104,1,0
256,75,228185,1,0
256,59,228266,1,0
256,43,228347,1,0
256,27,228428,6,0,B|256:3,39,17.5
256,192,230172,12,0,231023
256,96,231347,6,0,B|184:32|128:32|72:56|32:112|24:168|48:224|120:272|160:288|200:328|256:352|264:376,1,560
256,96,231996,2,0,B|328:32|384:32|440:56|480:112|488:168|464:224|392:272|352:288|312:328|256:352|248:376,1,560
32,352,232645,6,0,B|272:176,1,280
424,72,233293,2,0,L|520:-8|448:16|488:64|512:32,1,280
416,216,233942,5,0
376,216,234023,1,0
336,216,234104,1,0
296,216,234185,1,0
256,216,234266,2,0,B|184:232,1,70
96,168,234591,1,0
136,168,234672,1,0
176,168,234753,1,0
216,168,234834,1,0
256,168,234915,2,0,B|328:152,1,70
376,80,235239,6,0,B|376:24,1,35
328,88,235401,2,0,B|328:128,1,35
280,72,235564,2,0,B|280:32,3,35
232,96,235888,2,0,B|232:144,3,35
184,72,236212,2,0,B|184:32,1,35
136,96,236374,2,0,B|136:152,1,35
104,160,236537,5,0
136,192,236618,1,0
168,224,236699,1,0
200,256,236780,1,0
232,288,236861,2,0,B|232:328,3,35
280,288,237185,2,0,B|280:328,3,35
312,256,237510,1,0
344,224,237591,1,0
376,192,237672,1,0
408,160,237753,1,0
376,128,237834,5,0
256,56,237996,1,0
136,128,238158,1,0
256,304,238483,1,0
256,320,238807,1,0
208,248,239131,5,0
184,232,239212,1,0
160,216,239293,1,0
136,200,239374,1,0
160,184,239456,1,0
184,168,239537,1,0
208,152,239618,1,0
184,136,239699,1,0
160,120,239780,1,0
184,104,239861,1,0
208,88,239942,1,0
184,72,240023,1,0
200,48,240104,5,0
200,48,240266,1,0
304,248,240428,5,0
328,232,240509,1,0
352,216,240590,1,0
376,200,240671,1,0
352,184,240753,1,0
328,168,240834,1,0
304,152,240915,1,0
328,136,240996,1,0
352,120,241077,1,0
328,104,241158,1,0
304,88,241239,1,0
328,72,241320,1,0
312,48,241401,5,0
312,48,241563,1,0
256,24,241726,6,0,B|184:-8|88:32,1,140
120,64,241969,1,0
120,104,242050,2,0,B|184:75|256:107,1,140
256,152,242293,1,0
256,192,242374,2,0,B|184:160|88:200,1,140
120,232,242617,1,0
120,272,242698,2,0,B|184:243|256:275,1,140
256,320,242941,1,0
256,368,243023,6,0,B|328:400|424:360,1,140
392,328,243266,1,0
392,288,243347,2,0,B|327:316|255:284,1,140
256,240,243590,1,0
256,200,243671,2,0,B|328:232|424:192,1,140
392,160,243914,1,0
392,120,243995,2,0,B|327:148|255:116,1,140
256,72,244238,1,0
256,32,244320,6,0,B|216:32,3,35
192,64,244645,2,0,B|152:64,3,35
128,96,244969,2,0,B|80:96,3,35
192,184,245293,5,0
192,280,245456,1,0
256,352,245618,6,0,B|296:352,3,35
320,320,245943,2,0,B|360:320,3,35
384,288,246267,2,0,B|432:288,3,35
320,200,246591,5,0
320,104,246754,1,0
256,40,246915,5,0
256,72,247564,1,0
256,128,248212,1,0
256,208,248537,1,0
256,296,248861,1,0
256,376,249185,1,0
256,336,249347,1,0
256,296,249510,6,0,B|256:192,1,70
272,208,250239,1,0
240,200,250320,1,0
272,192,250401,1,0
240,184,250482,1,0
272,176,250564,1,0
240,168,250645,1,0
272,160,250726,1,0
240,152,250807,1,0
272,144,250888,1,0
240,136,250969,1,0
272,128,251050,1,0
240,120,251131,1,0
272,112,251213,1,0
240,104,251294,1,0
272,96,251375,1,0
240,88,251456,1,0
272,80,251537,1,0
240,72,251618,1,0
272,64,251699,1,0
240,56,251780,1,0
272,48,251862,1,0
240,40,251943,1,0
272,32,252024,1,0
240,24,252104,6,0,B|184:24|160:56,1,70
144,64,252347,1,0
120,88,252428,2,0,B|88:120|88:152,1,70
272,24,252753,2,0,B|328:24|352:56,1,70
368,64,252996,1,0
392,88,253077,2,0,B|424:120|424:152,1,70
240,160,253401,6,0,B|208:128,3,35
272,160,253726,2,0,B|304:128,3,35
256,192,254050,2,0,B|256:264,1,70
256,296,254293,1,0
256,328,254374,2,0,B|256:368,2,35
256,363,254699,5,0
328,328,254861,1,0
256,288,255023,1,0
184,328,255185,1,0
256,360,255347,5,0
120,288,255510,1,0
256,208,255672,1,0
392,288,255834,1,0
256,363,255996,5,0
456,240,256158,1,0
256,112,256320,1,0
56,240,256483,1,0
256,363,256645,5,0
0,192,256807,1,0
256,21,256969,1,0
512,192,257131,1,0
416,224,257293,6,0,B|368:232|336:272,1,70
376,280,257537,1,0
384,320,257618,2,0,B|368:344|312:344,1,70
191,343,257942,2,0,B|144:344|128:320,1,70
136,280,258185,1,0
158,253,258266,2,0,B|144:232|96:224,1,70
80,128,258591,5,0
104,96,258672,1,0
136,112,258753,1,0
160,80,258834,1,0
192,96,258915,2,0,B|232:112|264:72,1,70
256,40,259158,5,0
256,81,259239,6,0,B|280:112|320:96,1,70
352,80,259483,1,0
376,112,259564,1,0
408,96,259645,1,0
432,128,259726,1,0
461,199,259888,5,0
484,230,259969,1,0
451,237,260050,1,0
475,271,260131,1,0
442,264,260212,1,0
455,308,260293,1,0
420,293,260374,1,0
421,333,260456,1,0
391,314,260537,1,0
381,348,260618,1,0
357,328,260699,1,0
340,358,260780,1,0
315,332,260861,1,0
298,360,260942,1,0
278,335,261023,1,0
256,360,261104,1,0
234,335,261185,5,0
214,360,261266,1,0
197,332,261347,1,0
172,358,261428,1,0
155,328,261509,1,0
131,348,261590,1,0
121,314,261671,1,0
91,333,261752,1,0
92,293,261834,1,0
57,308,261915,1,0
70,264,261996,1,0
37,271,262077,1,0
61,237,262158,1,0
28,230,262239,1,0
57,205,262320,1,0
24,187,262401,1,0
58,165,262483,5,0
24,344,264753,2,0,B|0:384|48:424|88:376|64:312|8:352,1,140
488,344,267347,2,0,B|512:384|464:424|424:376|448:312|504:352,1,140
336,224,267834,5,0
176,224,268158,5,0
272,128,268482,5,0
272,128,268563,1,0
272,128,268644,1,0
272,128,268725,1,0
240,128,268807,5,0
336,24,269131,5,0
336,24,269212,1,0
336,24,269293,1,0
176,24,269455,5,0
336,24,269617,5,0
336,24,269698,1,0
336,24,269780,1,0
176,24,269942,5,0
336,24,270266,5,0
336,80,270428,1,0
240,136,270753,5,0
240,168,270834,1,0
240,200,270915,1,0
240,232,270996,1,0
240,264,271077,1,0
240,296,271158,1,0
272,296,271239,5,0
176,352,271401,5,0
336,352,271725,5,0
336,320,271807,1,0
336,288,271888,1,0
176,288,272050,5,0
336,288,272212,5,0
336,256,272293,1,0
336,224,272374,1,0
176,224,272536,5,0
256,136,272699,6,0,B|256:256|256:312|256:24,1,280
24,344,275131,6,0,B|0:384|48:424|88:376|64:312|8:352,1,140
488,344,277725,2,0,B|512:384|464:424|424:376|448:312|504:352,1,140
336,344,278212,5,0
176,344,278536,5,0
272,160,278860,5,0
272,120,278940,1,0
272,80,279022,1,0
272,40,279103,1,0
240,40,279185,5,0
336,160,279509,5,0
336,200,279590,1,0
336,240,279671,1,0
176,240,279833,5,0
336,160,279995,5,0
336,120,280076,1,0
336,80,280158,1,0
176,80,280320,5,0
336,304,280644,5,0
336,360,280806,1,0
240,296,281131,5,0
240,264,281212,1,0
240,232,281293,1,0
240,200,281374,1,0
240,168,281455,1,0
240,136,281536,1,0
272,136,281617,5,0
176,192,281779,5,0
336,192,282103,5,0
336,152,282185,1,0
336,112,282266,1,0
176,112,282428,5,0
336,112,282590,5,0
336,72,282671,1,0
336,32,282752,1,0
176,32,282915,6,0,B|96:24|112:296,1,280
256,304,283401,1,0
400,281,283564,1,0
328,56,283888,1,0
184,56,284050,1,0
256,229,284374,2,0,B|256:256,10,17.5
256,192,284861,1,0
184,56,285185,1,0
328,56,285347,1,0
256,192,285672,2,0,B|256:336,1,140
256,332,286158,1,0
248,184,286483,6,0,B|216:184,1,17.5
264,184,286564,2,0,B|296:184,1,17.5
248,152,286645,2,0,B|216:152,1,17.5
264,152,286726,2,0,B|288:152,1,17.5
248,120,286807,2,0,B|224:120,1,17.5
264,120,286888,2,0,B|296:120,1,17.5
256,104,286969,6,0,B|240:88|272:48|240:16,1,70
252,35,287456,1,0
256,192,287658,12,0,288428
