osu file format v12

[General]
AudioFilename: Dark Prison OG ver..mp3
AudioLeadIn: 0
PreviewTime: 52650
Countdown: 0
SampleSet: Soft
StackLeniency: 0.7
Mode: 0
LetterboxInBreaks: 0
WidescreenStoryboard: 0

[Editor]
Bookmarks: 81391
DistanceSpacing: 1
BeatDivisor: 4
GridSize: 4
TimelineZoom: 1

[Metadata]
Title:Dark Prison
TitleUnicode:ダークプリズン
Artist:BANPRESTO
ArtistUnicode:BANPRESTO
Creator:smallboat
Version:Normal
Source:Super Robot Wars OG
Tags:BGM granzon Neo Granzon shirakawa shu sjoy Kawaiwkyik
BeatmapID:397816
BeatmapSetID:162284

[Difficulty]
HPDrainRate:4
CircleSize:3
OverallDifficulty:4
ApproachRate:5
SliderMultiplier:1.1
SliderTickRate:2

[Events]
//Background and Video events
0,0,"bg1.jpg",0,0
//Break Periods
//Storyboard Layer 0 (Background)
//Storyboard Layer 1 (Fail)
//Storyboard Layer 2 (Pass)
//Storyboard Layer 3 (Foreground)
//Storyboard Sound Samples
//Background Colour Transformations
3,100,163,162,255

[TimingPoints]
1051,451.467268623025,4,2,2,55,1,0
1051,-100,4,2,2,55,0,0
10098,480,4,2,1,65,1,0
10578,545.454545454546,4,2,1,60,1,0
11143,600,4,2,1,65,1,0
11143,-100,4,2,1,65,0,0
11743,666.666666666667,4,2,1,20,1,0
12411,359.281437125748,4,2,2,80,1,0
12411,-100,4,2,2,80,0,0
29656,-125,4,1,1,50,0,0
30015,-125,4,2,2,50,0,0
35405,-125,4,2,2,75,0,0
39716,-125,4,2,2,75,0,0
41153,-100,4,2,2,75,0,0
52650,359.281437125748,3,2,1,85,1,1
52650,-100,3,2,1,85,0,1
61272,359.281437125748,4,2,1,60,1,0
61272,-111.111111111111,4,2,1,60,0,0
71331,-111.111111111111,4,2,1,75,0,0
72769,-100,4,2,1,85,0,1
84266,-100,4,2,1,40,0,0

[Colours]
Combo1 : 240,240,240
Combo2 : 0,114,168
Combo3 : 151,0,75
Combo4 : 210,210,0

[HitObjects]
48,80,1051,5,4,0:0:0:0:
28,176,1502,1,0,0:0:0:0:
80,260,1953,2,0,P|136:244|180:188,1,110
220,120,2856,2,0,P|267:88|327:84,1,110
416,108,3759,1,0,0:0:0:0:
488,176,4211,2,0,L|480:236,1,55
456,276,4662,5,4,0:0:0:0:
372,324,5114,1,0,0:0:0:0:
283,280,5565,2,0,P|320:239|372:223,1,110
388,124,6468,6,0,L|316:16,1,110
256,100,7371,2,0,L|256:192,2,82.5
220,64,8274,6,0,L|104:64,1,110
36,128,9177,1,0,0:0:0:0:
16,224,9628,2,0,L|32:292,1,55
52,316,10098,6,0,P|105:323|172:280,1,110,0|0,0:0|0:0,0:0:0:0:
224,345,11143,6,0,P|238:291|209:237,1,110
150,164,12409,5,4,0:0:0:0:
184,83,12770,2,0,P|234:64|288:72,1,110,8|0,0:0|0:0,0:0:0:0:
372,128,13488,1,8,0:0:0:0:
434,206,13848,1,0,0:0:0:0:
424,304,14207,2,0,P|373:323|319:315,1,110,8|0,0:0|0:0,0:0:0:0:
224,288,14925,1,8,0:0:0:0:
132,324,15285,5,0,0:0:0:0:
36,292,15644,2,0,L|44:164,1,110,8|0,0:0|0:0,0:0:0:0:
84,92,16363,1,8,0:0:0:0:
176,124,16722,1,0,0:0:0:0:
256,64,17081,2,0,L|368:52,1,110,8|0,0:0|0:0,0:0:0:0:
448,104,17800,1,8,0:0:0:0:
388,184,18159,5,4,0:0:0:0:
428,276,18518,2,0,L|316:288,1,110,8|0,0:0|0:0,0:0:0:0:
240,344,19237,1,8,0:0:0:0:
156,292,19596,1,0,0:0:0:0:
96,212,19955,2,0,L|203:184,1,110,8|0,0:0|0:0,0:0:0:0:
292,140,20674,1,8,0:0:0:0:
376,88,21033,5,0,0:0:0:0:
288,44,21393,2,0,L|176:76,1,110,8|0,0:0|0:0,0:0:0:0:
92,36,22111,1,8,0:0:0:0:
20,104,22470,1,0,0:0:0:0:
8,204,22830,2,0,L|88:288,1,110,8|0,0:0|0:0,0:0:0:0:
153,353,23548,1,8,0:0:0:0:
223,282,23908,5,4,0:0:0:0:
293,352,24267,2,0,L|408:308,1,110,8|0,0:0|0:0,0:0:0:0:
465,242,24985,1,8,0:0:0:0:
394,171,25345,1,0,0:0:0:0:
463,100,25704,2,0,P|410:89|373:49,1,110,8|0,0:0|0:0,0:0:0:0:
276,28,26422,1,8,0:0:0:0:
176,40,26782,6,0,L|52:72,1,110,0|8,0:0|0:0,0:0:0:0:
12,148,27500,2,0,L|136:180,1,110,0|8,0:0|0:0,0:0:0:0:
100,272,28219,6,0,L|206:244,1,110,0|8,0:0|0:0,0:0:0:0:
284,308,28937,1,0,0:0:0:0:
376,348,29297,2,0,L|427:323,1,55,0|0,0:0|0:0,0:0:0:0:
456,300,29656,6,0,P|475:215|417:150,1,176,14|8,0:0|0:0,0:0:0:0:
344,112,30734,1,0,0:0:0:0:
260,88,31093,2,0,P|292:40|332:32,2,88,2|2|0,0:0|0:0|0:0,0:0:0:0:
280,172,32171,1,0,0:0:0:0:
244,252,32530,6,0,P|185:312|100:301,1,176,2|8,0:0|0:0,0:0:0:0:
36,240,33608,1,0,0:0:0:0:
12,156,33967,6,0,P|49:79|132:64,1,176,2|8,0:0|0:0,0:0:0:0:
220,84,35045,1,0,0:0:0:0:
276,152,35405,6,0,P|264:193|282:233,2,88,4|0|10,0:0|0:0|0:0,0:0:0:0:
348,104,36482,1,0,0:0:0:0:
436,92,36842,2,0,P|425:50|390:24,2,88,2|0|10,0:0|0:0|0:0,0:0:0:0:
404,172,37919,1,0,0:0:0:0:
456,244,38279,5,2,0:0:0:0:
413,321,38638,1,0,0:0:0:0:
334,361,38997,2,0,L|240:352,1,88,10|0,0:0|0:0,0:0:0:0:
164,328,39716,6,0,P|145:316|131:297,1,44,0|0,0:0|0:0,0:0:0:0:
112,260,40075,1,8,0:0:0:0:
99,215,40255,2,0,P|95:172|114:133,2,88
154,214,41153,6,0,P|208:229|284:217,1,110,12|8,0:0|0:0,0:0:0:0:
320,144,41872,1,0,0:0:0:0:
389,74,42231,1,8,0:0:0:0:
458,143,42590,1,0,0:0:0:0:
492,236,42949,2,0,L|432:328,1,110,8|0,0:0|0:0,0:0:0:0:
340,360,43668,1,8,0:0:0:0:
240,372,44027,6,0,P|186:363|148:325,2,110,0|8|0,0:0|0:0|0:0,0:0:0:0:
232,272,45105,1,8,0:0:0:0:
284,188,45464,6,0,P|278:134|242:93,2,110,0|8|0,0:0|0:0|0:0,0:0:0:0:
184,176,46542,1,8,0:0:0:0:
128,260,46902,5,12,0:0:0:0:
65,336,47261,2,0,P|37:292|41:216,1,110,8|0,0:0|0:0,0:0:0:0:
57,139,47979,1,8,0:0:0:0:
109,55,48339,5,0,0:0:0:0:
208,40,48698,2,0,P|236:84|232:160,1,110,8|0,0:0|0:0,0:0:0:0:
196,228,49416,1,8,0:0:0:0:
248,312,49776,6,0,L|364:300,1,110,0|12,0:0|0:0,0:0:0:0:
404,212,50494,2,0,L|284:224,1,110,0|12,0:0|0:0,0:0:0:0:
195,227,51213,6,0,P|63:267|90:132,1,330,8|0,0:0|0:0,0:0:0:0:
210,116,52650,6,0,P|263:105|296:62,1,110,14|2,0:0|0:0,0:0:0:0:
343,26,53188,2,0,P|364:9|408:-1,2,55,2|2|2,0:0|0:0|0:0,0:0:0:0:
376,76,53727,6,0,P|388:128|431:160,1,110,14|2,0:0|0:0,0:0:0:0:
453,216,54266,2,0,P|481:216|523:195,2,55,2|2|2,0:0|0:0|0:0,0:0:0:0:
430,272,54805,6,0,P|417:324|374:356,1,110,14|2,0:0|0:0,0:0:0:0:
326,318,55344,2,0,L|318:246,2,55,2|2|2,0:0|0:0|0:0,0:0:0:0:
270,342,55883,6,0,P|197:356|124:306,1,165,14|14,0:0|0:0,0:0:0:0:
65,136,56961,2,0,P|118:144|165:118,1,110,14|2,0:0|0:0,0:0:0:0:
190,62,57500,2,0,L|322:50,1,110,2|2,0:0|0:0,0:0:0:0:
360,56,58039,6,0,P|407:80|429:130,1,110,14|2,0:0|0:0,0:0:0:0:
428,192,58578,2,0,P|419:245|378:280,1,110,2|2,0:0|0:0,0:0:0:0:
317,276,59117,6,0,P|266:256|215:272,1,110,14|2,0:0|0:0,0:0:0:0:
171,311,59655,2,0,P|117:310|75:276,1,110,2|2,0:0|0:0,0:0:0:0:
52,220,60194,6,0,P|100:79|241:125,1,330,4|14,0:0|0:0,0:0:0:0:
280,300,61990,1,0,0:0:0:0:
348,356,62349,1,0,0:0:0:0:
436,360,62709,6,0,L|467:251,1,98.9999969787599
464,176,63427,1,0,0:0:0:0:
444,88,63786,1,0,0:0:0:0:
360,52,64146,6,0,L|328:160,1,98.9999969787599,4|0,0:0|0:0,0:0:0:0:
308,232,64864,1,0,0:0:0:0:
252,300,65224,1,0,0:0:0:0:
180,248,65583,6,0,L|211:139,1,98.9999969787599
200,64,66301,1,0,0:0:0:0:
112,72,66661,1,0,0:0:0:0:
48,132,67020,6,0,L|16:240,1,98.9999969787599,14|0,0:0|0:0,0:0:0:0:
40,312,67739,1,0,0:0:0:0:
120,356,68098,2,0,L|192:360,1,49.4999984893799
216,356,68457,6,0,P|262:346|302:307,1,98.9999969787599
340,232,69176,1,0,0:0:0:0:
420,268,69535,1,0,0:0:0:0:
492,216,69894,6,0,P|497:168|472:118,1,98.9999969787599,14|0,0:0|0:0,0:0:0:0:
413,59,70613,1,0,0:0:0:0:
350,121,70972,1,0,0:0:0:0:
286,57,71331,6,0,L|188:96,1,98.9999969787599
196,184,72050,2,0,L|104:147,1,98.9999969787599,0|0,0:0|0:0,0:0:0:0:
12,188,72769,5,14,0:0:0:0:
4,288,73128,2,0,P|19:339|63:372,2,110,8|0|8,0:0|0:0|0:0,0:0:0:0:
104,280,74206,1,2,0:0:0:0:
192,320,74565,2,0,L|301:310,1,110,10|0,0:0|0:0,0:0:0:0:
396,340,75283,1,10,0:0:0:0:
488,292,75643,5,0,0:0:0:0:
484,192,76002,2,0,L|468:84,2,110,10|0|8,0:0|0:0|0:0,0:0:0:0:
388,168,77080,1,2,0:0:0:0:
304,216,77439,2,0,L|284:92,1,110,8|0,0:0|0:0,0:0:0:0:
200,60,78158,1,10,0:0:0:0:
136,136,78517,5,14,0:0:0:0:
60,200,78876,2,0,L|44:84,2,110,10|0|8,0:0|0:0|0:0,0:0:0:0:
104,288,79954,1,2,0:0:0:0:
180,352,80313,2,0,L|256:272,1,110,10|0,0:0|0:0,0:0:0:0:
256,172,81032,1,8,0:0:0:0:
256,192,81391,12,14,84266,0:0:0:0:
