osu file format v12

[General]
AudioFilename: Dark Prison OG ver..mp3
AudioLeadIn: 0
PreviewTime: 52650
Countdown: 0
SampleSet: Soft
StackLeniency: 0.7
Mode: 0
LetterboxInBreaks: 0
WidescreenStoryboard: 0

[Editor]
Bookmarks: 12076,45464,46722,77080,77978,81391
DistanceSpacing: 1
BeatDivisor: 4
GridSize: 4
TimelineZoom: 1

[Metadata]
Title:Dark Prison
TitleUnicode:ダークプリズン
Artist:BANPRESTO
ArtistUnicode:BANPRESTO
Creator:smallboat
Version:Extra
Source:Super Robot Wars OG
Tags:BGM granzon Neo Granzon shirakawa shu sjoy Kawaiwkyik
BeatmapID:395929
BeatmapSetID:162284

[Difficulty]
HPDrainRate:7
CircleSize:4
OverallDifficulty:8
ApproachRate:9
SliderMultiplier:1.7
SliderTickRate:2

[Events]
//Background and Video events
0,0,"bg2.jpg",0,0
//Break Periods
//Storyboard Layer 0 (Background)
//Storyboard Layer 1 (Fail)
//Storyboard Layer 2 (Pass)
//Storyboard Layer 3 (Foreground)
//Storyboard Sound Samples
//Background Colour Transformations
3,100,163,162,255

[TimingPoints]
1051,451.467268623025,4,2,2,55,1,0
1051,-133.333333333333,4,2,2,55,0,0
10098,480,4,2,1,40,1,0
10098,-200,4,2,1,30,0,0
10578,545.454545454546,4,2,1,60,1,0
11143,600,4,2,1,65,1,0
11143,-200,4,2,1,65,0,0
11743,666.666666666667,4,2,1,20,1,0
12411,359.281437125748,4,2,2,80,1,0
12411,-100,4,2,2,75,0,0
28219,-100,4,2,1,75,0,0
29656,-133.333333333333,4,1,1,60,0,0
30015,-133.333333333333,4,2,2,50,0,0
35405,-100,4,2,2,55,0,0
39716,-100,4,2,2,60,0,0
41153,-100,4,2,2,65,0,0
52650,359.281437125748,3,2,1,85,1,1
52650,-83.3333333333333,3,2,1,85,0,1
61272,359.281437125748,4,2,1,60,1,0
61272,-133.333333333333,4,2,1,60,0,0
71331,-153.846153846153,4,2,1,80,0,0
72769,-76.9230769230769,4,2,1,85,0,1
79954,-76.9230769230769,4,2,1,85,0,1
84266,-76.9230769230769,4,2,1,40,0,0

[Colours]
Combo1 : 240,240,240
Combo2 : 0,114,168
Combo3 : 151,0,75
Combo4 : 210,210,0

[HitObjects]
288,64,1051,6,0,L|200:64,1,63.7500024318696,4|0,0:0|0:0,0:0:0:0:
224,320,1502,2,0,L|307:320,1,63.7500024318696
304,100,1953,2,0,L|224:100,1,63.7500024318696
204,284,2405,2,0,L|284:284,1,63.7500024318696,0|0,0:0|0:0,0:0:0:0:
478,346,2856,5,0,0:0:0:0:
459,327,3308,1,0,0:0:0:0:
440,308,3759,1,0,0:0:0:0:
421,289,4211,2,0,L|341:289,1,63.7500024318696,0|0,0:0|0:0,0:0:0:0:
358,121,4662,5,4,0:0:0:0:
376,102,5114,1,0,0:0:0:0:
394,83,5565,1,0,0:0:0:0:
412,64,6017,2,0,L|492:64,1,63.7500024318696,0|0,0:0|0:0,0:0:0:0:
256,192,6468,5,0,0:0:0:0:
256,172,6920,1,0,0:0:0:0:
256,148,7371,2,0,L|256:72,1,63.7500024318696
436,256,7823,2,0,L|512:256,1,63.7500024318696
476,60,8274,6,0,L|412:63,1,63.7500024318696
256,148,8725,2,0,L|319:145,1,63.7500024318696
436,256,9177,2,0,L|373:259,1,63.7500024318696
244,356,9628,2,0,L|307:353,1,63.7500024318696
432,140,10098,6,0,P|435:98|406:58,1,85,0|0,0:0|0:0,0:0:0:0:
244,356,11143,6,0,P|283:340|310:308,1,85,0|0,0:0|0:0,0:0:0:0:
149,327,12409,5,4,0:0:0:0:
233,191,12590,1,0,0:0:0:0:
105,242,12770,2,0,L|101:130,1,85,8|0,0:0|0:0,0:0:0:0:
72,76,13129,1,2,0:0:0:0:
12,144,13309,1,2,0:0:0:0:
136,220,13488,2,0,L|132:108,1,85,8|0,0:0|0:0,0:0:0:0:
132,11,13848,5,2,0:0:0:0:
72,76,14027,1,2,0:0:0:0:
235,190,14207,2,0,P|252:152|251:110,1,85,8|0,0:0|0:0,0:0:0:0:
253,11,14566,1,2,0:0:0:0:
171,134,14746,1,2,0:0:0:0:
409,61,14925,2,0,P|370:43|328:44,1,85,8|0,0:0|0:0,0:0:0:0:
112,106,15285,5,2,0:0:0:0:
140,126,15375,1,0,0:0:0:0:
172,134,15464,1,2,0:0:0:0:
317,143,15644,2,0,L|416:144,1,85,8|0,0:0|0:0,0:0:0:0:
504,228,16003,1,2,0:0:0:0:
480,84,16183,1,2,0:0:0:0:
360,220,16363,2,0,L|275:220,1,85,8|0,0:0|0:0,0:0:0:0:
504,228,16722,5,2,0:0:0:0:
443,351,16902,1,2,0:0:0:0:
317,292,17081,2,0,L|232:292,1,85,8|0,0:0|0:0,0:0:0:0:
429,352,17440,1,2,0:0:0:0:
280,368,17620,1,2,0:0:0:0:
151,260,17800,2,0,P|170:222|209:208,1,85,8|0,0:0|0:0,0:0:0:0:
144,340,18159,5,6,0:0:0:0:
110,330,18249,1,0,0:0:0:0:
87,308,18339,1,2,0:0:0:0:
12,120,18518,2,0,L|96:120,1,85,8|0,0:0|0:0,0:0:0:0:
284,212,18878,1,2,0:0:0:0:
151,260,19057,1,2,0:0:0:0:
97,120,19237,2,0,L|189:120,1,85,8|0,0:0|0:0,0:0:0:0:
368,138,19596,5,2,0:0:0:0:
331,333,19776,1,2,0:0:0:0:
151,260,19955,2,0,L|246:260,1,85,8|0,0:0|0:0,0:0:0:0:
469,228,20315,1,2,0:0:0:0:
268,100,20494,1,2,0:0:0:0:
184,232,20674,2,0,L|276:232,1,85,8|0,0:0|0:0,0:0:0:0:
488,309,21033,5,2,0:0:0:0:
459,328,21123,1,0,0:0:0:0:
424,332,21213,1,2,0:0:0:0:
269,305,21393,2,0,L|173:305,1,85,8|0,0:0|0:0,0:0:0:0:
32,279,21752,1,2,0:0:0:0:
72,76,21931,1,2,0:0:0:0:
184,232,22111,2,0,L|272:232,1,85,8|0,0:0|0:0,0:0:0:0:
440,272,22470,5,2,0:0:0:0:
440,76,22650,1,2,0:0:0:0:
269,161,22830,2,0,L|184:161,1,85,8|0,0:0|0:0,0:0:0:0:
120,292,23189,1,2,0:0:0:0:
12,136,23369,1,2,0:0:0:0:
184,88,23548,2,0,L|272:88,1,85,8|0,0:0|0:0,0:0:0:0:
440,76,23908,5,4,0:0:0:0:
428,44,23997,1,0,0:0:0:0:
396,28,24087,1,2,0:0:0:0:
269,18,24267,2,0,L|161:18,1,85,8|0,0:0|0:0,0:0:0:0:
12,136,24626,1,2,0:0:0:0:
184,233,24806,1,2,0:0:0:0:
341,119,24985,2,0,L|445:175,1,85,8|0,0:0|0:0,0:0:0:0:
416,288,25345,6,0,L|324:240,1,85,0|0,0:0|0:0,0:0:0:0:
12,136,25704,2,0,L|104:184,1,85,8|0,0:0|0:0,0:0:0:0:
384,224,26063,2,0,L|292:176,1,85,0|0,0:0|0:0,0:0:0:0:
44,200,26422,2,0,L|136:248,1,85,8|0,0:0|0:0,0:0:0:0:
300,80,26782,6,0,L|200:80,1,85
215,304,27141,2,0,L|300:304,1,85,8|0,0:0|0:0,0:0:0:0:
292,96,27500,2,0,L|192:96,1,85
207,320,27860,2,0,L|292:320,1,85,8|0,0:0|0:0,0:0:0:0:
160,178,28219,5,8,0:0:0:0:
42,38,28399,1,8,0:0:0:0:
42,225,28578,1,8,0:0:0:0:
189,61,28758,1,8,0:0:0:0:
256,233,28937,5,10,0:0:0:0:
291,209,29027,1,0,0:0:0:0:
331,196,29117,1,8,0:0:0:0:
373,196,29207,1,0,0:0:0:0:
413,209,29297,1,8,0:0:0:0:
445,237,29387,1,0,0:0:0:0:
465,273,29476,1,8,0:0:0:0:
468,316,29566,1,8,0:0:0:0:
454,347,29656,6,0,P|394:360|332:332,1,127.500004863739,14|0,0:0|0:0,0:0:0:0:
244,144,30195,1,0,0:0:0:0:
412,60,30375,1,2,0:0:0:0:
424,256,30554,1,0,0:0:0:0:
300,100,30734,1,0,0:0:0:0:
457,182,30913,1,0,0:0:0:0:
260,217,31093,5,2,0:0:0:0:
412,60,31273,1,0,0:0:0:0:
424,256,31452,2,0,L|363:275,1,63.7500024318696,2|0,0:0|0:0,0:0:0:0:
244,144,31812,1,2,0:0:0:0:
457,182,31991,1,0,0:0:0:0:
457,182,32081,1,0,0:0:0:0:
457,182,32171,2,0,L|510:239,1,63.7500024318696
356,344,32530,6,0,L|284:352,1,63.7500024318696,2|0,0:0|0:0,0:0:0:0:
69,282,32890,2,0,L|149:273,1,63.7500024318696
331,208,33249,1,0,0:0:0:0:
256,40,33428,1,0,0:0:0:0:
183,210,33608,1,0,0:0:0:0:
50,80,33788,1,0,0:0:0:0:
68,282,33967,6,0,L|6:292,1,63.7500024318696,2|0,0:0|0:0,0:0:0:0:
50,80,34327,2,0,L|112:69,1,63.7500024318696,2|0,0:0|0:0,0:0:0:0:
364,77,34686,1,2,0:0:0:0:
437,311,34866,1,0,0:0:0:0:
331,208,35045,1,0,0:0:0:0:
256,363,35225,1,0,0:0:0:0:
68,282,35405,6,0,L|60:178,1,85
255,9,35764,2,0,L|262:116,1,85
470,171,36123,2,0,L|463:64,1,85,2|0,0:0|0:0,0:0:0:0:
261,94,36482,1,0,0:0:0:0:
148,228,36662,1,0,0:0:0:0:
288,340,36842,6,0,L|372:333,1,85,2|0,0:0|0:0,0:0:0:0:
261,94,37201,2,0,L|176:100,1,85
260,300,37560,2,0,L|344:293,1,85,2|0,0:0|0:0,0:0:0:0:
376,144,37919,1,0,0:0:0:0:
261,95,38099,1,0,0:0:0:0:
240,260,38279,6,0,L|324:253,1,85,2|0,0:0|0:0,0:0:0:0:
261,94,38638,2,0,L|176:100,1,85,2|0,0:0|0:0,0:0:0:0:
40,328,38997,2,0,L|124:321,1,85,0|0,0:0|0:0,0:0:0:0:
240,260,39357,1,0,0:0:0:0:
261,94,39536,1,0,0:0:0:0:
412,60,39716,5,10,0:0:0:0:
412,60,39896,1,0,0:0:0:0:
412,304,40075,5,10,0:0:0:0:
412,304,40255,1,0,0:0:0:0:
40,328,40434,5,10,0:0:0:0:
40,328,40614,1,0,0:0:0:0:
66,126,40794,5,10,0:0:0:0:
248,152,40973,1,0,0:0:0:0:
412,60,41153,6,0,L|516:36,1,85,4|0,0:0|0:0,0:0:0:0:
304,224,41512,2,0,L|221:242,1,85,8|0,0:0|0:0,0:0:0:0:
412,304,41872,1,2,0:0:0:0:
500,224,42051,1,2,0:0:0:0:
248,152,42231,2,0,L|136:176,1,85,8|0,0:0|0:0,0:0:0:0:
40,328,42590,6,0,L|122:309,1,85,2|2,0:0|0:0,0:0:0:0:
200,80,42949,2,0,L|108:100,1,85,8|0,0:0|0:0,0:0:0:0:
4,204,43309,1,2,0:0:0:0:
123,309,43488,1,2,0:0:0:0:
248,152,43668,2,0,L|330:132,1,85,8|0,0:0|0:0,0:0:0:0:
410,303,44027,5,2,0:0:0:0:
123,308,44207,1,2,0:0:0:0:
410,303,44387,1,8,0:0:0:0:
123,308,44566,1,0,0:0:0:0:
412,60,44746,5,2,0:0:0:0:
410,303,44925,1,2,0:0:0:0:
308,56,45105,1,8,0:0:0:0:
412,180,45285,1,0,0:0:0:0:
200,80,45464,5,2,0:0:0:0:
277,287,45644,1,2,0:0:0:0:
143,126,45824,1,8,0:0:0:0:
332,239,46003,1,0,0:0:0:0:
128,199,46183,5,2,0:0:0:0:
347,166,46363,1,2,0:0:0:0:
163,264,46542,1,8,0:0:0:0:
312,101,46722,1,0,0:0:0:0:
143,126,46902,6,0,L|143:34,1,85,4|0,0:0|0:0,0:0:0:0:
333,239,47261,2,0,L|333:331,1,85,8|0,0:0|0:0,0:0:0:0:
128,136,47620,2,0,L|128:28,1,85,2|2,0:0|0:0,0:0:0:0:
349,231,47979,2,0,L|349:339,1,85,8|0,0:0|0:0,0:0:0:0:
131,222,48339,5,2,0:0:0:0:
216,74,48518,1,2,0:0:0:0:
364,160,48698,1,8,0:0:0:0:
278,307,48878,1,0,0:0:0:0:
24,148,49057,5,2,0:0:0:0:
24,148,49147,1,0,0:0:0:0:
24,148,49237,1,2,0:0:0:0:
131,222,49416,1,8,0:0:0:0:
256,164,49596,1,0,0:0:0:0:
364,160,49776,5,0,0:0:0:0:
364,160,49866,1,0,0:0:0:0:
364,160,49955,2,0,L|428:176,1,42.5
488,236,50135,1,12,0:0:0:0:
380,368,50494,5,0,0:0:0:0:
380,368,50584,1,0,0:0:0:0:
380,368,50674,2,0,L|316:352,1,42.5
278,307,50854,1,8,0:0:0:0:
24,148,51213,6,0,P|24:172|36:188,1,42.5,12|0,0:0|0:0,0:0:0:0:
120,272,51393,2,0,P|119:247|107:232,1,42.5
24,280,51572,2,0,P|23:300|34:318,1,42.5
192,348,51752,2,0,P|192:327|181:309,1,42.5
56,308,51931,6,0,P|56:332|68:348,1,42.5
200,300,52111,2,0,P|200:279|189:261,1,42.5
98,196,52291,2,0,P|97:216|109:233,1,42.5
220,240,52470,2,0,P|220:219|209:201,1,42.5
176,176,52650,5,4,0:0:0:0:
149,145,52739,1,0,0:0:0:0:
132,108,52829,1,0,0:0:0:0:
136,68,52919,1,0,0:0:0:0:
164,40,53009,1,0,0:0:0:0:
204,28,53099,1,0,0:0:0:0:
244,36,53188,6,0,L|260:100,1,50.9999984436036,0|0,0:0|0:0,0:0:0:0:
324,216,53368,2,0,L|304:148,1,50.9999984436036,0|0,0:0|0:0,0:0:0:0:
336,32,53548,2,0,L|356:96,1,50.9999984436036,0|0,0:0|0:0,0:0:0:0:
372,116,53727,5,4,0:0:0:0:
404,144,53817,1,0,0:0:0:0:
440,160,53907,1,0,0:0:0:0:
480,168,53997,1,0,0:0:0:0:
508,196,54087,1,0,0:0:0:0:
512,248,54176,1,0,0:0:0:0:
492,284,54266,6,0,L|441:284,1,50.9999984436036
332,328,54446,2,0,L|276:328,1,50.9999984436036
273,216,54626,2,0,L|341:216,1,50.9999984436036
356,188,54805,5,4,0:0:0:0:
384,156,54895,1,0,0:0:0:0:
372,116,54985,1,0,0:0:0:0:
336,96,55075,1,0,0:0:0:0:
296,92,55164,1,0,0:0:0:0:
256,104,55254,1,0,0:0:0:0:
220,124,55344,6,0,L|152:164,1,50.9999984436036,2|0,0:0|0:0,0:0:0:0:
83,143,55524,2,0,L|30:176,1,50.9999984436036,2|0,0:0|0:0,0:0:0:0:
85,251,55703,2,0,L|131:224,1,50.9999984436036,2|0,0:0|0:0,0:0:0:0:
172,224,55883,5,4,0:0:0:0:
208,248,55973,1,0,0:0:0:0:
225,284,56063,1,0,0:0:0:0:
213,322,56152,1,0,0:0:0:0:
182,349,56242,1,0,0:0:0:0:
144,365,56332,1,0,0:0:0:0:
103,372,56422,6,0,L|52:372,1,50.9999984436036,6|0,0:0|0:0,0:0:0:0:
34,251,56602,2,0,L|85:251,1,50.9999984436036,2|0,0:0|0:0,0:0:0:0:
134,143,56781,2,0,L|83:143,1,50.9999984436036,2|0,0:0|0:0,0:0:0:0:
43,124,56961,5,4,0:0:0:0:
24,88,57051,1,0,0:0:0:0:
32,48,57141,1,0,0:0:0:0:
64,24,57230,1,0,0:0:0:0:
104,16,57320,1,0,0:0:0:0:
144,24,57410,1,0,0:0:0:0:
184,32,57500,6,0,L|260:44,1,50.9999984436036,2|0,0:0|0:0,0:0:0:0:
340,128,57679,2,0,L|276:120,1,50.9999984436036,2|0,0:0|0:0,0:0:0:0:
428,76,57859,2,0,L|479:84,1,50.9999984436036,2|0,0:0|0:0,0:0:0:0:
496,120,58039,5,4,0:0:0:0:
500,160,58129,1,0,0:0:0:0:
492,200,58218,1,0,0:0:0:0:
476,236,58308,1,0,0:0:0:0:
448,268,58398,1,0,0:0:0:0:
412,288,58488,1,0,0:0:0:0:
372,284,58578,6,0,L|332:212,1,50.9999984436036,2|0,0:0|0:0,0:0:0:0:
232,140,58757,2,0,L|256:192,1,50.9999984436036,2|0,0:0|0:0,0:0:0:0:
276,340,58937,2,0,L|240:272,1,50.9999984436036,2|0,0:0|0:0,0:0:0:0:
216,276,59117,5,4,0:0:0:0:
176,296,59206,1,0,0:0:0:0:
140,304,59296,1,0,0:0:0:0:
100,308,59386,1,0,0:0:0:0:
60,296,59476,1,0,0:0:0:0:
28,268,59566,5,0,0:0:0:0:
12,232,59655,1,0,0:0:0:0:
20,192,59745,1,0,0:0:0:0:
48,160,59835,1,0,0:0:0:0:
232,140,60015,1,0,0:0:0:0:
412,288,60194,5,4,0:0:0:0:
456,264,60284,1,0,0:0:0:0:
488,224,60374,1,0,0:0:0:0:
500,176,60464,1,0,0:0:0:0:
496,132,60554,5,0,0:0:0:0:
484,88,60644,1,0,0:0:0:0:
460,48,60733,1,0,0:0:0:0:
420,24,60823,1,0,0:0:0:0:
380,16,60913,5,0,0:0:0:0:
340,20,61003,1,0,0:0:0:0:
299,26,61093,1,0,0:0:0:0:
263,45,61182,1,0,0:0:0:0:
238,70,61272,5,4,0:0:0:0:
256,228,61631,5,0,0:0:0:0:
118,159,61810,1,0,0:0:0:0:
256,228,61990,2,0,L|392:208,1,127.500004863739,0|0,0:0|0:0,0:0:0:0:
300,72,62529,1,0,0:0:0:0:
292,264,62709,6,0,L|428:244,1,127.500004863739
340,144,63248,1,0,0:0:0:0:
324,304,63427,2,0,L|456:284,1,127.500004863739
384,72,63966,1,0,0:0:0:0:
292,264,64146,6,0,L|167:284,1,127.500004863739,0|0,0:0|0:0,0:0:0:0:
12,200,64685,1,0,0:0:0:0:
120,60,64864,2,0,L|245:39,1,127.500004863739
340,144,65403,1,0,0:0:0:0:
407,299,65583,6,0,P|462:314|467:258,1,127.500004863739
256,192,66122,1,0,0:0:0:0:
105,299,66301,2,0,P|50:314|45:258,1,127.500004863739
200,120,66840,1,0,0:0:0:0:
412,60,67020,6,0,B|464:76|464:76|444:164,1,127.500004863739,4|0,0:0|0:0,0:0:0:0:
256,192,67559,1,0,0:0:0:0:
64,147,67739,2,0,B|48:76|48:76|100:60,1,127.500004863739
292,108,68277,1,0,0:0:0:0:
224,264,68457,5,0,0:0:0:0:
240,44,68637,1,0,0:0:0:0:
332,180,68816,1,0,0:0:0:0:
176,204,68996,1,0,0:0:0:0:
315,32,69176,2,0,P|373:13|410:60,1,127.500004863739
300,252,69715,1,0,0:0:0:0:
144,280,69894,6,0,B|78:281|78:281|56:216|56:216,1,127.500004863739
256,192,70433,1,0,0:0:0:0:
369,280,70613,2,0,B|433:281|433:281|455:216|453:223,1,127.500004863739
412,60,71152,1,0,0:0:0:0:
256,192,71331,6,0,B|256:80,1,110.499994941712
412,60,71870,1,0,0:0:0:0:
369,281,72050,2,0,B|369:211,1,55.2499974708558,0|0,0:0|0:0,0:0:0:0:
412,60,72409,2,0,B|412:128,1,55.2499974708558,0|0,0:0|0:0,0:0:0:0:
508,324,72769,5,4,0:0:0:0:
512,280,72858,1,0,0:0:0:0:
484,244,72948,1,0,0:0:0:0:
444,228,73038,1,0,0:0:0:0:
412,256,73128,1,8,0:0:0:0:
369,281,73218,1,0,0:0:0:0:
340,248,73307,5,0,0:0:0:0:
296,240,73397,1,0,0:0:0:0:
276,280,73487,1,0,0:0:0:0:
244,308,73577,1,0,0:0:0:0:
200,316,73667,1,0,0:0:0:0:
160,296,73757,1,0,0:0:0:0:
132,268,73846,6,0,L|129:212,1,55.2499974708558,8|0,0:0|0:0,0:0:0:0:
60,120,74026,2,0,L|62:175,1,55.2499974708558
56,300,74206,5,2,0:0:0:0:
136,136,74385,1,2,0:0:0:0:
124,348,74565,1,8,0:0:0:0:
112,64,74745,1,0,0:0:0:0:
203,164,74924,6,0,L|269:175,1,55.2499974708558,2|0,0:0|0:0,0:0:0:0:
446,182,75104,2,0,L|379:170,1,55.2499974708558,2|0,0:0|0:0,0:0:0:0:
262,150,75283,2,0,L|328:161,1,55.2499974708558,8|0,0:0|0:0,0:0:0:0:
505,168,75463,2,0,L|438:156,1,55.2499974708558
420,116,75643,5,0,0:0:0:0:
400,76,75733,1,0,0:0:0:0:
364,48,75822,1,0,0:0:0:0:
324,28,75912,1,0,0:0:0:0:
280,20,76002,6,0,L|240:64,1,55.2499974708558,8|0,0:0|0:0,0:0:0:0:
262,150,76182,2,0,L|309:103,1,55.2499974708558
189,78,76361,2,0,L|129:138,1,55.2499974708558,2|0,0:0|0:0,0:0:0:0:
91,226,76541,2,0,L|134:182,1,55.2499974708558,2|0,0:0|0:0,0:0:0:0:
172,192,76721,1,8,0:0:0:0:
196,228,76810,1,0,0:0:0:0:
212,268,76900,1,0,0:0:0:0:
212,312,76990,1,0,0:0:0:0:
188,352,77080,5,2,0:0:0:0:
144,368,77170,1,0,0:0:0:0:
100,360,77260,1,2,0:0:0:0:
60,344,77349,1,0,0:0:0:0:
24,316,77439,6,0,L|0:248,1,55.2499974708558,8|0,0:0|0:0,0:0:0:0:
91,226,77619,2,0,L|64:144,1,55.2499974708558,0|0,0:0|0:0,0:0:0:0:
100,140,77798,1,0,0:0:0:0:
140,156,77888,1,0,0:0:0:0:
172,192,77978,1,0,0:0:0:0:
196,228,78068,1,0,0:0:0:0:
240,236,78158,6,0,L|304:232,1,55.2499974708558,8|0,0:0|0:0,0:0:0:0:
424,156,78337,2,0,L|360:164,1,55.2499974708558
280,144,78517,6,0,B|230:119,1,55.2499974708558,4|0,0:0|0:0,0:0:0:0:
104,49,78697,2,0,L|153:72,1,55.2499974708558
310,115,78876,2,0,L|241:80,1,55.2499974708558,8|0,0:0|0:0,0:0:0:0:
113,9,79056,2,0,L|185:45,1,55.2499974708558
204,20,79236,1,0,0:0:0:0:
248,16,79325,1,0,0:0:0:0:
292,20,79415,1,0,0:0:0:0:
336,28,79505,1,0,0:0:0:0:
376,44,79595,5,8,0:0:0:0:
408,72,79685,1,0,0:0:0:0:
428,112,79774,1,0,0:0:0:0:
424,156,79864,1,0,0:0:0:0:
408,196,79954,5,2,0:0:0:0:
256,312,80134,1,2,0:0:0:0:
112,131,80313,1,8,0:0:0:0:
310,115,80493,5,0,0:0:0:0:
112,132,80673,2,0,L|148:173,1,55.2499974708558
132,128,80852,2,0,L|170:169,1,55.2499974708558
220,188,81032,5,8,0:0:0:0:
208,232,81122,1,0,0:0:0:0:
200,276,81212,1,0,0:0:0:0:
200,320,81301,1,0,0:0:0:0:
228,352,81391,5,4,0:0:0:0:
272,356,81481,1,0,0:0:0:0:
312,340,81571,1,0,0:0:0:0:
348,316,81661,1,0,0:0:0:0:
372,280,81751,2,0,L|372:224,1,55.2499974708558,8|0,0:0|0:0,0:0:0:0:
220,188,81930,2,0,L|274:199,1,55.2499974708558
308,168,82110,5,0,0:0:0:0:
344,144,82200,1,0,0:0:0:0:
388,144,82289,1,0,0:0:0:0:
428,164,82379,1,0,0:0:0:0:
464,188,82469,6,0,P|490:177|492:130,1,55.2499974708558,8|0,0:0|0:0,0:0:0:0:
512,48,82649,2,0,P|485:58|483:105,1,55.2499974708558
436,92,82828,5,2,0:0:0:0:
400,68,82918,1,0,0:0:0:0:
356,56,83008,1,2,0:0:0:0:
312,64,83098,1,0,0:0:0:0:
268,56,83188,5,8,0:0:0:0:
224,48,83277,1,0,0:0:0:0:
180,58,83367,1,0,0:0:0:0:
144,84,83457,1,0,0:0:0:0:
120,121,83547,6,0,L|101:183,1,55.2499974708558,8|0,0:0|0:0,0:0:0:0:
205,241,83727,2,0,L|222:180,1,55.2499974708558,8|0,0:0|0:0,0:0:0:0:
264,176,83906,1,0,0:0:0:0:
304,192,83996,1,0,0:0:0:0:
328,228,84086,1,0,0:0:0:0:
328,272,84176,1,0,0:0:0:0:
308,312,84266,5,14,0:0:0:0:
