osu file format v12

[General]
AudioFilename: Dark Prison OG ver..mp3
AudioLeadIn: 0
PreviewTime: 52650
Countdown: 0
SampleSet: Soft
StackLeniency: 0.7
Mode: 0
LetterboxInBreaks: 0
WidescreenStoryboard: 0

[Editor]
Bookmarks: 2857,81377
DistanceSpacing: 1.2
BeatDivisor: 4
GridSize: 16
TimelineZoom: 0.8999994

[Metadata]
Title:Dark Prison
TitleUnicode:ダークプリズン
Artist:BANPRESTO
ArtistUnicode:BANPRESTO
Creator:smallboat
Version:Easy
Source:Super Robot Wars OG
Tags:BGM granzon Neo Granzon shirakawa shu sjoy Kawaiwkyik
BeatmapID:398340
BeatmapSetID:162284

[Difficulty]
HPDrainRate:2
CircleSize:3
OverallDifficulty:2
ApproachRate:3
SliderMultiplier:0.7
SliderTickRate:2

[Events]
//Background and Video events
0,0,"bg1.jpg",0,0
//Break Periods
//Storyboard Layer 0 (Background)
//Storyboard Layer 1 (Fail)
//Storyboard Layer 2 (Pass)
//Storyboard Layer 3 (Foreground)
//Storyboard Sound Samples
//Background Colour Transformations
3,100,163,162,255

[TimingPoints]
1051,451.467268623025,4,2,2,55,1,0
1065,-100,4,2,2,55,0,0
10098,480,4,2,1,40,1,0
10578,545.454545454546,4,2,1,60,1,0
11143,600,4,2,1,65,1,0
11143,-100,4,2,1,65,0,0
11743,666.666666666667,4,2,1,20,1,0
12411,359.281437125748,4,2,2,80,1,0
12411,-100,4,2,2,80,0,0
29656,-100,4,2,2,50,0,0
35405,-100,4,2,2,80,0,0
39716,-100,4,2,2,80,0,0
41153,-100,4,2,2,75,0,0
52650,359.281437125748,3,2,1,85,1,1
52650,-100,3,2,1,85,0,1
61272,359.281437125748,4,2,1,60,1,0
61272,-100,4,2,1,60,0,0
64146,-100,4,2,1,40,0,0
71331,-100,4,2,1,55,0,0
72769,-100,4,2,1,85,0,1
84266,-100,4,2,1,40,0,0

[Colours]
Combo1 : 240,240,240
Combo2 : 0,114,168
Combo3 : 151,0,75
Combo4 : 210,210,0

[HitObjects]
58,65,1051,6,0,L|202:65,1,140,4|0,0:0|0:0,0:0:0:0:
257,124,2405,1,0,0:0:0:0:
316,64,2856,2,0,L|472:64,1,140
512,123,4211,1,0,0:0:0:0:
452,182,4662,6,0,L|298:182,1,140,4|0,0:0|0:0,0:0:0:0:
269,254,6017,1,0,0:0:0:0:
192,220,6468,2,0,L|112:240,2,70
192,136,7823,1,0,0:0:0:0:
256,192,8274,12,0,11743,0:0:0:0:
124,80,12409,5,4,0:0:0:0:
148,160,12770,2,0,L|116:236,2,70,8|0|8,0:0|0:0|0:0,0:0:0:0:
231,145,13848,1,0,0:0:0:0:
308,111,14207,2,0,P|373:90|438:110,1,140,8|8,0:0|0:0,0:0:0:0:
461,192,15285,1,0,0:0:0:0:
439,273,15644,2,0,P|373:293|308:273,1,140,8|8,0:0|0:0,0:0:0:0:
256,206,16722,1,0,0:0:0:0:
204,272,17081,2,0,P|138:293|72:273,1,140,8|8,0:0|0:0,0:0:0:0:
19,207,18159,5,4,0:0:0:0:
17,123,18518,2,0,P|22:94|61:62,2,70,8|0|8,0:0|0:0|0:0,0:0:0:0:
101,136,19596,1,0,0:0:0:0:
131,219,19955,2,0,P|199:208|241:154,1,140,8|8,0:0|0:0,0:0:0:0:
256,72,21033,1,0,0:0:0:0:
324,24,21393,2,0,P|366:77|433:88,1,140,8|8,0:0|0:0,0:0:0:0:
484,156,22470,6,0,P|493:223|451:277,2,140,0|0|4,0:0|0:0|0:0,0:0:0:0:
412,204,24267,2,0,P|346:224|285:192,1,140,8|8,0:0|0:0,0:0:0:0:
253,115,25345,5,0,0:0:0:0:
412,60,26063,1,0,0:0:0:0:
253,115,26782,1,0,0:0:0:0:
100,60,27500,1,0,0:0:0:0:
15,204,28219,6,0,P|68:323|197:308,1,280,2|12,0:0|0:0,0:0:0:0:
324,200,30375,5,0,0:0:0:0:
412,56,31093,2,0,L|492:68,2,70,2|2|2,0:0|0:0|0:0,0:0:0:0:
244,68,32530,5,2,0:0:0:0:
164,216,33249,1,0,0:0:0:0:
45,97,33967,2,0,L|-11:33,2,70,2|2|2,0:0|0:0|0:0,0:0:0:0:
87,259,35405,6,0,L|71:343,2,70,4|0|10,0:0|0:0|0:0,0:0:0:0:
137,192,36482,1,0,0:0:0:0:
196,132,36842,2,0,L|209:63,2,70,2|0|10,0:0|0:0|0:0,0:0:0:0:
255,191,37919,1,0,0:0:0:0:
314,131,38279,6,0,L|458:131,1,140,2|2,0:0|0:0,0:0:0:0:
489,207,39357,1,0,0:0:0:0:
468,288,39716,2,0,L|324:288,1,140,0|10,0:0|0:0,0:0:0:0:
161,313,41153,6,0,L|89:313,2,70,12|8|0,0:0|0:0|0:0,0:0:0:0:
243,288,42231,1,8,0:0:0:0:
183,228,42590,1,0,0:0:0:0:
242,168,42949,2,0,L|242:21,1,140,8|8,0:0|0:0,0:0:0:0:
326,28,44027,5,0,0:0:0:0:
410,28,44387,2,0,L|410:172,1,140,8|8,0:0|0:0,0:0:0:0:
388,248,45464,5,0,0:0:0:0:
332,312,45824,2,0,P|264:328|199:305,1,140,8|8,0:0|0:0,0:0:0:0:
132,252,46902,5,4,0:0:0:0:
88,180,47261,2,0,P|114:116|171:77,1,140,8|8,0:0|0:0,0:0:0:0:
256,64,48339,5,0,0:0:0:0:
340,77,48698,2,0,P|397:116|424:180,1,140,8|8,0:0|0:0,0:0:0:0:
412,264,49776,6,0,L|332:252,1,70,0|12,0:0|0:0,0:0:0:0:
284,316,50494,2,0,L|226:275,1,70,0|12,0:0|0:0,0:0:0:0:
164,332,51213,6,0,P|70:291|35:196,1,210,8|0,0:0|0:0,0:0:0:0:
43,111,52650,6,0,L|176:60,1,140,14|0,0:0|0:0,0:0:0:0:
196,142,53727,2,0,L|329:88,1,140,14|2,0:0|0:0,0:0:0:0:
402,55,54805,6,0,P|453:63|491:98,2,105,14|0|14,0:0|0:0|0:0,0:0:0:0:
396,181,56422,2,0,L|292:213,1,105,14|14,0:0|0:0,0:0:0:0:
307,337,57500,6,0,L|202:306,1,105,2|14,0:0|0:0,0:0:0:0:
88,284,58578,2,0,L|96:168,1,105,0|14,0:0|0:0,0:0:0:0:
168,76,59655,2,0,L|68:41,2,105,0|14|0,0:0|0:0|0:0,0:0:0:0:
288,40,61272,5,14,0:0:0:0:
400,164,61990,2,0,L|320:168,1,70
252,204,62709,1,0,0:0:0:0:
172,352,63427,2,0,L|32:352,1,140,0|4,0:0|0:0,0:0:0:0:
64,188,64864,5,0,0:0:0:0:
172,60,65583,1,0,0:0:0:0:
253,204,66301,2,0,L|393:196,1,140,0|14,0:0|0:0,0:0:0:0:
484,52,67739,5,0,0:0:0:0:
316,36,68457,1,0,0:0:0:0:
176,132,69176,2,0,L|40:80,1,140,0|0,0:0|0:0,0:0:0:0:
4,244,70613,1,0,0:0:0:0:
144,336,71331,5,0,0:0:0:0:
308,304,72050,2,0,L|448:296,1,140,0|14,0:0|0:0,0:0:0:0:
484,220,73128,2,0,P|427:181|402:116,1,140,8|8,0:0|0:0,0:0:0:0:
343,57,74206,1,2,0:0:0:0:
283,116,74565,2,0,P|258:180|201:219,1,140,10|8,0:0|0:0,0:0:0:0:
124,252,75643,5,2,0:0:0:0:
44,232,76002,2,0,L|12:88,1,140,8|8,0:0|0:0,0:0:0:0:
87,54,77080,1,2,0:0:0:0:
168,35,77439,2,0,L|252:23,2,70,8|0|8,0:0|0:0|0:0,0:0:0:0:
144,116,78517,6,0,P|200:154|266:139,1,140,14|0,0:0|0:0,0:0:0:0:
332,88,79595,1,8,0:0:0:0:
412,60,79954,2,0,L|408:212,1,140,2|0,0:0|0:0,0:0:0:0:
408,284,81032,1,8,0:0:0:0:
256,192,81391,12,4,84266,0:0:0:0:
