osu file format v9

[General]
AudioFilename: ToWRM3.mp3
AudioLeadIn: 500
PreviewTime: 64299
Countdown: 0
SampleSet: Soft
StackLeniency: 0.7
Mode: 0
LetterboxInBreaks: 0

[Editor]
DistanceSpacing: 1
BeatDivisor: 4
GridSize: 4

[Metadata]
Title:with you feat.Me (Short Ver.)
Artist:BACK-ON
Creator:shikyu
Version:feat.Ota
Source:Tales of The World Radiant Mythology 3
Tags:opening athiota33 Lennox HakuNoKaemi

[Difficulty]
HPDrainRate:5
CircleSize:4
OverallDifficulty:6
ApproachRate:7
SliderMultiplier:1.6
SliderTickRate:1

[Events]
//Background and Video events
Video,0,"ToWRM 3.avi"
0,0,"TOWRM3.jpg"
//Break Periods
2,6710,9715
2,21868,30873
//Storyboard Layer 0 (Background)
//Storyboard Layer 1 (Fail)
//Storyboard Layer 2 (Pass)
//Storyboard Layer 3 (Foreground)
//Storyboard Sound Samples
//Background Colour Transformations
3,100,163,162,255

[TimingPoints]
1458,315.789473684211,4,2,0,20,1,0
1458,-200,4,2,0,20,0,0
6510,-200,4,2,0,30,0,0
10931,-133.333333333333,4,2,0,40,0,0
11563,-133.333333333333,4,1,0,40,0,0
11721,-133.333333333333,4,2,0,40,0,0
21668,-100,4,1,1,40,0,1
21826,-100,4,1,1,40,0,0
63352,-200,4,1,1,25,0,0
63984,-200,4,1,1,15,0,0
64635,315.789473684211,4,1,1,60,1,1
79792,-133.333333333333,4,1,1,55,0,1
82477,-133.333333333333,4,1,1,45,0,1
82950,-133.333333333333,4,1,1,30,0,0
83266,-200,4,2,0,20,0,0
84845,-200,4,2,0,30,0,0
89898,-200,4,2,0,5,0,0

[Colours]
Combo1 : 240,5,5
Combo2 : 245,69,10
Combo3 : 129,244,0
Combo4 : 253,138,241

[HitObjects]
256,192,1457,12,0,2721
256,192,3036,5,2
308,132,3352,1,0
256,72,3668,1,0
204,132,3984,6,0,B|124:132|124:132|68:176|8:132,1,200,4|0
68,76,5089,2,0,B|72:28|128:24,1,80
256,192,5879,5,0
256,192,6510,1,4
504,192,10615,5,0
504,192,10931,2,0,B|448:160|384:192,1,119.999996423721,2|0
316,284,11563,1,4
144,344,12036,2,0,B|88:376|24:344,1,119.999996423721,0|0
88,244,12668,1,2
132,68,13142,6,0,B|188:20|244:68,2,119.999996423721,2|0|0
188,176,14089,2,0,B|196:284|308:288,1,179.999994635582,2|0
424,284,14879,2,0,B|440:224|424:164,1,119.999996423721,2|0
408,140,15352,2,0,B|352:172|292:140,2,119.999996423721,0|2|0
352,32,16300,1,2
293,141,16615,6,0,B|237:189|167:144,1,119.999996423721,0|0
169,125,17089,2,0,B|113:85|57:121,1,119.999996423721
117,225,17721,1,2
293,141,18194,2,0,B|353:109|409:137,2,119.999996423721,0|2|0
201,249,19142,6,0,B|105:297|41:213,1,179.999994635582,2|0
141,117,19931,1,0
141,117,20089,1,0
141,117,20247,1,0
256,192,20405,12,4,21668
256,336,31773,5,4
256,192,32089,1,8
256,192,32247,2,0,B|208:152|208:96|256:56,1,160,0|0
296,124,32721,2,0,B|412:124,1,80
464,256,33194,1,0
392,292,33352,1,8
320,252,33510,2,0,B|240:200|164:256,1,160
120,316,33984,2,0,B|36:316,2,80,8|0|0
170,251,34458,6,0,B|131:176|170:89,1,160
236,60,34931,1,0
304,100,35089,2,0,B|343:175|304:262,1,160
156,304,35720,1,0
220,352,35879,1,8
296,324,36036,2,0,B|344:236|444:264,1,160
508,244,36510,1,8
508,244,36668,1,0
508,244,36826,6,0,B|472:152|376:168,1,160,4|8
304,188,37300,1,0
224,172,37458,2,0,B|184:268|84:220,1,160,0|8
140,148,37931,1,0
140,148,38089,2,0,B|129:67|233:41|264:102,2,160,0|8|0
256,252,39036,1,8
256,192,39352,12,0,40458
180,128,40773,5,0
180,128,40931,2,0,B|256:76|340:128,1,160,8|8
400,164,41405,1,8
424,240,41563,1,0
384,308,41721,1,0
308,332,41879,6,0,B|232:364|144:332,2,160,4|8|0
384,308,42668,2,0,B|416:264|472:272,2,80,0|8|0
228,280,43300,1,0
148,264,43458,1,8
140,344,43615,2,0,B|44:352|0:276,1,160
36,208,44089,1,8
76,140,44247,1,0
36,72,44405,5,4
76,140,44563,2,0,B|160:188|236:136,1,160,0|0
280,84,45036,1,8
352,120,45194,2,0,B|364:160|352:204,2,80
208,48,45826,1,0
168,116,45984,1,8
208,184,46142,2,0,B|312:184,1,80,0|0
208,272,46458,2,0,B|128:272,1,80,0|8
68,192,46773,5,0
68,172,46852,1,0
68,152,46931,2,0,B|76:80|148:48|208:80,2,160,4|8|0
208,272,47879,1,8
284,300,48036,1,0
360,272,48194,2,0,B|400:192|348:116,1,160,0|8
284,64,48668,1,0
216,116,48826,2,0,B|164:192|216:288,1,160,0|8
256,192,49300,12,4,50721
327,132,51036,6,0,B|237:119|171:213|270:312|358:193|292:119|175:132,1,320,0|0
212,332,51984,5,12
212,332,52142,1,0
212,332,52300,2,0,B|289:279|376:336,1,160
432,368,52773,2,0,B|528:368,2,80,0|0|0
364,328,53247,5,8
320,260,53405,1,0
340,184,53563,1,0
400,128,53721,1,0
340,184,53879,2,0,B|260:224|180:184,1,160,8|0
140,120,54352,1,0
184,52,54510,6,0,B|268:12|344:60,1,160,12|0
368,132,54984,2,0,B|348:176|300:192,1,80,0|8
248,140,55300,2,0,B|156:128|112:204,1,160
144,276,55773,5,8
216,312,55931,1,0
288,276,56089,2,0,B|384:276,2,80,0|0|8
256,200,56563,1,0
256,200,56721,2,0,B|256:116,1,80,8|0
256,40,57036,6,8,B|316:16|376:44,1,120,4|8
436,144,57510,2,0,B|468:176|460:216,2,80,0|8|0
360,112,57984,1,0
292,156,58142,1,0
224,112,58300,1,8
156,156,58458,1,0
272,264,58773,6,0,B|244:300|196:296,2,80
328,204,59247,1,8
372,136,59406,2,0,B|323:112|267:112|219:144,1,160,0|4
224,304,60036,1,0
224,304,60194,2,0,B|308:348|388:304,2,160,0|8|0
196,228,60984,1,8
260,180,61142,1,0
388,88,61458,2,0,B|376:124|336:146,1,80,8|0
260,180,61773,2,0,B|272:228|328:232,1,80,0|0
256,300,62089,6,0,B|336:300,2,80,8|0|0
180,272,62563,1,0
192,192,62721,2,0,B|140:184|84:228|96:296,1,160,8|8
256,300,63352,6,0,B|288:268|224:192|256:140,1,160
456,332,64635,6,0,B|480:248|440:176,1,160,4|8
392,112,65108,2,0,B|368:76|304:72,2,80,0|0|0
440,176,65582,2,0,B|412:268|316:280,2,160,8|0|8
392,112,66371,1,0
324,72,66529,2,0,B|248:24|164:72,1,160,0|8
172,68,67003,1,0
172,68,67161,1,4
72,192,67477,5,8
72,192,67635,2,0,B|88:260|176:260|184:184,1,160,0|0
252,156,68108,1,8
324,192,68266,1,0
400,164,68424,2,0,B|440:128|440:52|400:16,2,160,0|0|8
252,156,69371,5,0
252,156,69529,1,0
252,156,69687,2,0,B|284:240|240:324,1,160,4|8
164,308,70161,1,0
112,248,70319,1,0
68,180,70477,2,0,B|28:204|16:260|36:292|76:328,2,160,0|0|0
112,248,71266,2,0,B|148:324|252:312,2,160,0|8|0
68,180,72056,1,0
136,140,72213,6,0,B|192:60|308:88,1,160,4|8
328,144,72687,1,0
328,144,73003,1,0
388,292,73319,1,0
388,292,73477,2,0,B|332:372|216:344,1,160,8|0
172,320,73950,1,0
144,244,74108,1,0
452,284,74582,5,0
452,284,74740,2,0,B|448:176|332:164,2,160,4|8|0
280,156,75687,1,8
280,156,75845,1,0
280,156,76003,2,0,B|308:92|368:80|428:116,2,160,0|8|0
240,224,76792,1,8
104,144,77108,1,0
104,144,77266,6,0,B|32:144|32:240|100:240,2,160,4|8|8
172,104,78056,1,0
172,104,78213,2,8,B|256:60|328:108,2,160
104,144,79003,1,0
136,216,79161,2,0,B|112:256|136:304,2,80,8|0|8
248,256,79792,6,0,B|360:240|368:116,1,179.999994635582,4|0
356,112,80424,2,0,B|380:36|464:48,2,119.999996423721,8|0|8
336,132,81213,2,0,B|260:208|160:128,1,179.999994635582,0|8
68,200,82003,1,8
84,256,82161,1,0
140,272,82319,1,0
200,264,82477,2,0,B|292:212|377:261,1,179.999994635582,0|8
392,180,83266,6,0,B|424:93|520:84,2,160,0|0|0
256,192,84845,12,0,85950
256,192,86424,5,2
256,192,86740,2,0,B|256:288,1,80,0|2
256,192,87371,12,4,89898
