osu file format v9

[General]
AudioFilename: ToWRM3.mp3
AudioLeadIn: 500
PreviewTime: 64299
Countdown: 0
SampleSet: Soft
StackLeniency: 0.7
Mode: 0
LetterboxInBreaks: 0

[Editor]
Bookmarks: 54666
DistanceSpacing: 1.25
BeatDivisor: 3
GridSize: 4

[Metadata]
Title:with you feat.Me (Short Ver.)
Artist:BACK-ON
Creator:shikyu
Version:feat.Haku
Source:Tales of The World Radiant Mythology 3
Tags:opening athiota33 Lennox HakuNoKaemi

[Difficulty]
HPDrainRate:7
CircleSize:5
OverallDifficulty:7
ApproachRate:8
SliderMultiplier:1.05
SliderTickRate:2

[Events]
//Background and Video events
Video,152,"ToWRM 3.avi"
0,0,"TOWRM3.jpg"
//Break Periods
//Storyboard Layer 0 (Background)
//Storyboard Layer 1 (Fail)
//Storyboard Layer 2 (Pass)
//Storyboard Layer 3 (Foreground)
//Storyboard Sound Samples
//Background Colour Transformations
3,100,163,162,255

[TimingPoints]
1458,315.789473684211,4,1,0,25,1,0
1536,-100,4,2,0,30,0,0
10615,-80,4,2,0,45,0,0
11563,-80,4,1,0,45,0,0
11642,-80,4,2,0,45,0,0
18036,-66.6666666666667,4,2,0,55,0,0
19142,-66.6666666666667,4,2,0,65,0,0
19458,-66.6666666666667,4,2,0,40,0,0
20168,-66.6666666666667,4,2,0,80,0,0
21352,-66.6666666666667,4,2,0,55,0,0
21668,-100,4,1,0,60,0,1
21825,-50,4,1,1,50,0,0
30352,-66.6666666666667,4,1,1,50,0,0
31773,-100,4,1,1,35,0,0
41878,-100,4,1,1,45,0,0
51983,-66.6666666666667,4,1,1,50,0,0
63352,-200,4,2,0,70,0,0
63431,-200,4,2,0,20,0,0
63905,-200,4,2,0,70,0,0
64063,-100,4,1,1,70,0,0
64635,315.789473684211,4,1,1,80,1,1
64635,-50,4,1,1,80,0,1
82950,-100,4,1,1,80,0,0
83266,-100,4,2,0,40,0,0
84845,-100,4,2,0,20,0,0

[Colours]
Combo1 : 240,5,5
Combo2 : 245,69,10
Combo3 : 129,244,0
Combo4 : 253,138,241

[HitObjects]
170,192,1459,2,0,B|177:113|256:74|334:113|339:192,1,262.5,4|0
114,143,2563,2,0,B|151:46|256:9|360:46|397:143,1,367.5,2|0
256,192,3984,5,2
316,252,4300,1,0
256,308,4615,1,0
256,308,4773,1,2
196,252,5089,1,2
196,252,5247,2,0,B|160:208|176:160|176:160|236:132|220:64|220:64,1,210,2|2
144,88,6194,1,0
76,36,6510,6,0,B|40:88|80:148,1,105,2|2
32,208,7142,1,0
32,208,7300,2,0,B|48:252|92:260,1,78.75,2|0
104,248,7615,2,0,B|144:196|208:228,1,105,2|0
164,280,8089,5,0
256,140,8405,1,0
348,280,8721,1,0
376,200,9036,6,0,B|320:184|280:228|280:228|216:244|180:180,1,210,2|0
128,168,9826,2,0,B|144:132|184:128|184:128|196:128,1,78.75,2|0
192,104,10142,2,0,B|184:76|196:52,1,52.5,2|0
296,84,10615,6,0,B|352:56|400:104|392:160|392:160|424:192|424:192|392:224|392:224|400:280|352:328|296:300,1,393.749994132668,0|4
328,140,11879,1,0
328,140,12036,2,0,B|288:184|208:192,1,131.249998044223,2|0
328,244,12668,2,0,B|288:200|208:192,1,131.249998044223,2|0
164,148,13142,6,0,B|128:124|92:136,1,65.6249990221113,2|0
44,164,13458,2,0,B|108:148|152:64,1,131.249998044223,2|0
180,200,14089,5,2
256,100,14405,1,0
256,100,14563,1,2
332,200,14879,1,2
332,200,15194,2,0,B|360:160|400:140|456:144,1,131.249998044223,2|0
448,144,15668,1,2
436,268,15984,1,2
304,264,16300,6,0,B|276:304|236:324|180:320,1,131.249998044223,2|2
196,188,16931,1,0
128,180,17089,2,0,B|133:143|176:92|232:132|232:132,1,131.249998044223,2|0
348,48,17721,1,2
368,204,18036,6,0,B|404:184|444:200,1,78.7499976530672,0|2
340,308,18510,2,0,B|416:356|487:300,2,157.499995306134,2|0|2
400,168,19458,1,2
448,112,19615,2,0,B|394:75|337:120|337:120|272:162|220:92,1,236.249992959202,0|2
292,64,20247,1,0
256,192,20326,12,2,21352
136,248,21668,5,4
52,128,21983,1,8
196,96,22299,1,0
208,168,22457,1,0
264,124,22615,2,0,B|292:68|356:84,1,105,8|0
412,216,23089,6,0,B|384:280|316:260,1,105,0|8
340,188,23404,1,0
272,216,23562,2,0,B|240:208|204:256|168:240,1,105
116,196,23878,2,0,B|76:144|120:96,1,105,8|0
172,148,24194,5,0
256,28,24510,1,8
340,148,24825,1,0
388,92,24983,1,0
436,148,25141,2,0,B|476:196|448:248,1,105,8|0
328,328,25615,5,0
256,320,25773,1,8
300,260,25931,1,0
228,252,26089,1,0
184,312,26246,2,0,B|136:272|164:208,1,105,0|8
268,196,26720,6,4,B|316:80|448:128,2,210,4|8|0
212,148,27510,1,0
188,76,27668,2,0,B|128:104|140:168,1,105,8|0
268,88,28141,6,0,B|278:29|344:25,1,105,0|8
338,98,28458,2,0,B|386:64|436:107,1,105,0|0
381,155,28773,2,0,B|439:165|443:231,1,105,0|8
320,300,29246,5,0
248,320,29404,2,0,B|236:264|288:228,1,105,0|8
225,154,29878,2,0,B|276:120|260:64,1,105,8|8
184,88,30194,1,0
184,88,30352,6,0,B|112:100|96:176|96:176|92:244|40:272,1,236.249992959202,0|8
96,316,30983,2,0,B|120:276|160:276,1,78.7499976530672,0|8
160,344,31299,1,0
192,352,31378,1,0
224,348,31457,1,0
252,328,31536,1,0
264,296,31615,1,0
260,264,31694,1,0
244,236,31773,6,0,B|220:184|244:128,1,105,4|8
241,133,32246,1,0
304,156,32404,1,0
292,92,32562,2,0,B|352:88|368:148,2,105,0|0|0
228,72,33352,1,8
180,24,33510,2,0,B|152:60|168:100|168:100|112:160,1,157.5,0|8
156,208,34141,5,0
156,208,34299,2,0,B|184:252,1,52.5
248,236,34615,2,0,B|216:188,1,52.5,8|0
280,172,34931,1,0
316,228,35089,2,0,B|372:184|332:128|332:128,2,105
372,264,35878,1,8
372,264,36036,2,0,B|408:232|424:168|396:112,1,157.5,0|8
352,72,36668,5,0
336,136,36825,2,0,B|280:152|236:108,1,105,0|8
239,111,37299,1,0
172,116,37457,2,0,B|128:156|128:212,1,105,0|8
160,264,37931,1,0
196,208,38089,2,0,B|240:240|240:240|268:224|296:228,1,105,0|8
280,292,38562,1,0
340,264,38720,6,0,B|360:224|340:192|340:192|324:168,1,105,0|8
264,140,39194,2,0,B|280:100|336:100|336:100|376:104|400:64,2,157.5,0|8|0
324,168,40300,2,0,B|340:196|336:220,1,52.5,4|4
272,208,40615,1,0
212,184,40773,2,0,B|156:192,1,52.5,0|8
136,132,41089,2,0,B|192:124,1,52.5
196,120,41325,1,0
204,112,41404,1,8
208,104,41483,1,0
208,96,41562,1,8
208,88,41641,1,0
204,80,41720,5,8
200,72,41799,1,0
196,64,41878,2,0,B|168:4|104:20,1,105,4|8
132,80,42352,1,0
68,68,42510,2,0,B|36:80|24:104,1,52.5
84,132,42825,1,8
84,132,42983,2,0,B|88:168|140:180|140:180|192:188|200:248,1,157.5,0|8
132,248,43615,1,0
180,292,43773,2,0,B|193:361|272:354,1,105,0|8
306,314,44246,5,0
247,286,44404,2,0,B|264:252|304:248,1,52.5
285,251,44720,1,8
348,264,44878,2,0,B|408:272|440:224,1,105
439,225,45352,1,8
404,168,45510,2,0,B|416:136|400:108,1,52.5
344,140,45825,2,0,B|288:140,1,52.5,0|8
232,112,46141,2,0,B|220:144|236:172,1,52.5
260,224,46457,2,0,B|232:236|204:224,1,52.5,0|8
164,272,46773,5,0
164,272,46931,2,0,B|136:332|72:320,1,105,0|8
96,256,47404,1,0
28,240,47562,2,0,B|56:180|120:192,1,105,0|8
176,204,48036,5,0
240,192,48194,2,0,B|276:192|296:216|296:216|316:260,1,105,0|8
380,244,48668,2,0,B|356:192,1,52.5,0|0
420,172,48983,2,0,B|448:240,1,52.5,0|8
432,288,49299,2,0,B|416:312|372:312,1,52.5
324,296,49615,2,0,B|304:272|268:268,1,52.5,0|8
272,336,49931,2,0,B|216:352|164:316,1,105,0|8
196,260,50404,2,0,B|168:252|140:264,1,52.5,0|0
96,216,50720,2,0,B|112:192|100:156,1,52.5,8|0
40,180,51036,5,0
44,136,51142,1,0
76,104,51247,1,0
120,100,51352,1,0
156,124,51458,1,0
192,152,51563,1,0
232,152,51668,1,0
268,128,51773,1,0
284,92,51879,1,0
272,52,51984,2,0,B|248:16|200:16,1,78.7499976530672,4|0
212,84,52299,5,0
340,52,52457,1,0
340,52,52536,1,0
340,52,52615,2,0,B|344:96|396:96|396:96|440:104|456:140,1,157.499995306134,8|0
392,168,53089,1,0
448,212,53246,2,0,B|436:256|464:288,1,78.7499976530672,0|8
412,336,53562,1,0
360,288,53720,2,0,B|316:272|280:304,1,78.7499976530672,0|8
332,352,54036,1,0
332,352,54194,2,0,B|296:196,1,157.499995306134,8|4
240,244,54668,2,0,B|271:278|318:266,1,78.7499976530672
296,200,54983,6,0,B|280:120,1,78.7499976530672,0|8
224,168,55299,2,0,B|201:136|160:96,1,78.7499976530672
148,176,55615,2,0,B|108:148|64:152,2,78.7499976530672,0|0|8
92,224,56089,2,0,B|52:208|16:236,2,78.7499976530672,0|0|8
64,288,56562,1,0
64,288,56720,1,8
36,352,56878,2,0,B|76:368|112:340,2,78.7499976530672,0|4|0
8,332,57273,2,0,B|-16:292|-12:252|32:224,1,118.124996479601
92,224,57668,5,8
132,280,57825,1,0
160,216,57983,2,0,B|178:223|211:202|236:208,2,78.7499976530672
140,152,58458,2,0,B|125:120|136:74|136:74|174:57|212:64,1,157.499995306134,8|0
216,60,58931,5,8
220,56,59089,1,0
277,16,59246,2,0,B|297:56|277:92|277:92|257:136|289:172,1,157.499995306134,8|4
340,124,59720,1,0
404,92,59878,2,0,B|420:140|392:172,2,78.7499976530672,0|0|8
408,92,60352,1,0
476,68,60510,1,0
476,68,60668,2,0,B|496:116|488:176|440:232,1,157.499995306134,0|8
396,168,61141,1,0
340,124,61299,2,0,B|248:104,1,78.7499976530672,0|8
220,164,61615,2,0,B|300:180,1,78.7499976530672,0|8
344,232,61931,5,0
312,296,62089,2,0,B|360:312|388:284,1,78.7499976530672,4|0
424,228,62404,2,0,B|460:200|452:144,1,78.7499976530672,8|0
384,172,62720,2,0,B|384:120|348:84|296:84|260:120,1,157.499995306134,0|8
316,164,63194,5,0
316,164,63352,2,0,B|260:192|220:152,1,105,2|2
208,140,64536,5,0
208,140,64635,2,0,B|168:100|112:92|32:156|92:228|92:228,1,210,4|8
152,188,65108,1,0
164,260,65266,2,0,B|174:318|236:336,1,105
285,287,65582,2,0,B|274:229|220:212|220:212|284:200|308:136|308:64|196:8|136:80|132:140,1,420,8|8
208,140,66371,1,0
204,65,66529,2,0,B|248:64|272:100|272:100|340:132|404:76,1,210,0|8
394,84,67003,1,0
436,24,67161,2,0,B|484:60|460:120,1,105,0|0
416,176,67477,6,0,B|388:224|320:204|320:204|272:236|320:296|320:296|264:284|220:320,1,315,8|0
224,316,68108,1,8
160,348,68266,1,0
160,348,68424,2,0,B|136:296|184:256|184:256|240:208|220:160,2,210,0|8|0
88,336,69213,1,0
88,336,69371,6,0,B|76:276|112:236,1,105,8|0
44,208,69687,2,0,B|76:160|60:108,1,105,4|0
16,48,70003,1,8
16,48,70161,2,0,B|100:192|224:128,1,210
184,143,70635,1,8
152,80,70792,1,0
152,80,70950,2,0,B|208:52|272:96|280:168|212:212,2,210,0|8|0
108,140,71740,1,0
144,204,71898,2,0,B|94:242|107:319|169:357|238:314,1,210,8|0
184,144,72529,5,8
256,132,72687,2,0,B|324:116|400:216|316:280|272:272,1,210
300,268,73161,1,8
232,244,73319,1,0
244,316,73477,2,0,B|204:320|104:280|160:152|256:172,2,210,0|8|0
312,340,74266,2,0,B|368:356|412:312,1,105,0|8
388,244,74582,5,0
452,208,74740,2,0,B|480:108,1,105,4|0
416,140,75056,2,0,B|420:80|408:32,1,105,8|0
364,92,75371,2,0,B|336:32|276:16,1,105
304,92,75687,2,0,B|252:60|192:96,1,105,8|0
260,136,76003,2,0,B|200:140|184:200,2,105,0|0|8
260,212,76477,1,0
260,288,76635,2,0,B|319:283|336:224,1,105
335,226,76950,1,8
332,152,77108,6,0,B|392:152|412:220,1,105
384,280,77424,1,0
384,280,77582,2,0,B|332:320|280:276|280:276|224:208|144:228|124:320,1,315,8|0
127,307,78213,1,8
64,344,78371,2,0,B|36:284|88:244,1,105
136,200,78687,1,0
64,180,78845,2,0,B|80:116|160:124,1,105,8|0
204,164,79161,2,0,B|264:184|300:128,1,105
232,96,79477,6,0,B|176:68|128:104,1,105,8|0
60,116,79792,2,0,B|96:120|164:84|164:84|176:8|296:0|300:100,1,315,4|0
299,96,80424,2,0,B|284:164|340:196,1,105,8|0
368,128,80740,1,0
400,192,80898,2,0,B|448:228|424:288,1,105
360,252,81213,1,8
328,188,81371,2,0,B|280:212|288:264|288:264|240:268|216:316|172:316,1,210,0|8
112,328,81845,2,0,B|108:264|164:244,1,105,0|8
220,200,82161,1,8
152,168,82319,1,8
212,128,82477,2,0,B|256:96|248:28,1,105,8|8
180,60,82792,2,0,B|288:104,1,105,0|8
344,67,83266,6,0,B|368:131|304:172,2,105,0|2|0
412,67,84056,2,0,B|424:111|408:176|360:212,1,157.5,2|0
256,106,84845,6,0,B|177:113|138:192|177:270|256:275,1,262.5,4|0
207,50,85950,2,0,B|110:87|73:192|110:296|207:333,1,367.5,2|0
256,106,87371,6,0,B|335:113|374:192|335:270|256:275,1,262.5,2|0
305,50,88477,2,0,B|402:87|439:192|402:296|305:333,1,367.5,2|0
256,192,89898,5,4
