osu file format v9

[General]
AudioFilename: ToWRM3.mp3
AudioLeadIn: 500
PreviewTime: 64299
Countdown: 0
SampleSet: Soft
StackLeniency: 0.7
Mode: 0
LetterboxInBreaks: 0

[Editor]
DistanceSpacing: 1.1
BeatDivisor: 2
GridSize: 4

[Metadata]
Title:with you feat.Me (Short Ver.)
Artist:BACK-ON
Creator:shikyu
Version:Normal
Source:Tales of The World Radiant Mythology 3
Tags:opening athiota33 Lennox HakuNoKaemi

[Difficulty]
HPDrainRate:4
CircleSize:4
OverallDifficulty:4
ApproachRate:4
SliderMultiplier:0.9
SliderTickRate:1

[Events]
//Background and Video events
Video,0,"ToWRM 3.avi"
0,0,"TOWRM3.jpg"
//Break Periods
2,6492,9295
2,21868,30453
//Storyboard Layer 0 (Background)
//Storyboard Layer 1 (Fail)
//Storyboard Layer 2 (Pass)
//Storyboard Layer 3 (Foreground)
//Storyboard Sound Samples
//Background Colour Transformations
3,100,163,162,255

[TimingPoints]
1458,315.789473684211,4,2,0,20,1,0
1458,-100,4,2,0,20,0,0
10615,-100,4,2,0,40,0,0
21668,-100,4,1,0,60,0,1
21826,-100,4,1,0,60,0,0
31773,-100,4,1,0,40,0,0
41879,-100,4,1,1,40,0,0
50721,-100,4,2,0,60,0,0
58931,-100,4,2,0,40,0,0
64635,315.789473684211,4,1,0,60,1,1
69371,-100,4,1,1,60,0,1
82950,-100,4,1,1,60,0,0
84845,-100,4,2,0,20,0,0
86740,-100,4,2,0,10,0,0
87371,-100,4,2,0,20,0,0
89898,-100,4,2,0,10,0,0

[Colours]
Combo1 : 240,5,5
Combo2 : 245,69,10
Combo3 : 129,244,0
Combo4 : 253,138,241

[HitObjects]
256,192,1457,12,0,3352
256,192,3984,12,2,5879
28,248,10615,6,0,B|28:192|84:192,2,90,0|2|0
120,288,11563,1,4
268,288,12036,2,0,B|372:288|404:192,1,180,0|2
256,192,13142,5,0
256,92,13458,2,0,B|240:44|192:36,1,90,2|0
184,136,14089,2,0,B|156:192|184:248|184:248|184:320,1,180,2|0
336,312,15194,2,0,B|336:176,1,135,2|0
236,164,15984,2,0,B|188:148|160:200,1,90,2|0
76,248,16615,6,0,B|76:348|96:376|216:376|240:352|240:248,1,315,2|2
388,236,18194,2,0,B|416:196|392:152,1,90,0|2
292,128,18826,1,0
196,108,19142,2,2,B|100:120|40:36,1,180,2|0
256,192,20405,12,4,21668
408,136,31773,5,4
324,80,32089,2,0,B|324:24|268:0|212:24|212:80,2,180,8|0|8
408,136,33668,2,8,B|408:192|352:192,1,90,0|8
256,192,34300,5,0
156,192,34615,2,0,B|108:192,1,45,0|8
108,292,35089,2,0,B|108:337,2,45,0|0|8
256,320,35879,2,0,B|256:344|292:344|324:344|324:320,2,90,0|8|0
256,220,36826,5,0
256,120,37142,2,0,B|256:75,1,45,0|8
168,120,37615,2,0,B|136:120|136:160,2,45,0|0|8
288,208,38405,2,0,B|288:264|232:264,2,90,0|8|0
204,192,39352,5,0
200,92,39668,2,0,B|240:116,1,45,0|8
336,104,40142,2,0,B|376:80,2,45,0|0|8
336,252,40931,1,0
336,352,41247,2,0,B|291:352,2,45,8|0|8
256,292,41879,6,0,B|240:232|240:232|272:180|272:180|256:124,1,180,4|8
160,132,42826,2,0,B|172:176,1,45,0|0
256,292,43458,2,0,B|312:252|312:252|344:276|384:292|416:276,1,180,8|8
420,176,44405,6,4,B|420:96|308:96|308:176,1,180,0|0
312,272,45352,2,0,B|312:328|256:328,1,90,8|0
208,328,45826,2,0,B|152:328|152:328|152:264|104:264|104:264|104:184,1,225,8|8
200,160,46931,6,0,B|200:112|200:112|248:112|248:64|248:64|304:64,1,180,0|0
360,144,47879,2,0,B|360:192|360:192|312:192|312:240|312:240|256:240,1,180,8|0
160,240,48826,1,0
160,144,49142,1,8
256,192,49458,12,4,50721
256,208,51352,6,0,B|256:176|240:152|200:152,2,90,0|0|4
256,304,52300,1,0
160,304,52615,1,2
72,256,52931,2,0,B|32:232,2,45,0|0|2
48,56,53879,5,0
120,128,54194,2,0,B|152:128|176:152|176:192,1,90,0|4
376,192,55142,5,2
280,192,55458,2,0,B|280:240,1,45
184,240,55931,2,0,B|184:192,1,45
152,100,56405,2,0,B|104:100|80:148,2,90,2|0|6
328,192,57668,5,2
356,288,57984,2,0,B|396:288|396:248,2,45,0|0|4
320,92,58931,6,0,B|272:92|248:136,1,90,8|0
328,192,59563,1,8
492,84,60194,1,8
432,164,60510,2,0,B|392:140|392:84,1,90
292,88,61142,2,0,B|252:112|252:168,2,90,0|8|0
392,88,62089,6,0,B|448:168|392:256,2,180,0|0|0
288,168,63984,1,0
88,192,64635,6,0,B|48:152|88:112,1,90,4|8
184,96,65266,1,0
184,192,65582,2,0,B|184:288|248:360,1,180,8|8
344,360,66529,1,0
344,264,66845,1,8
344,168,67161,2,0,B|400:160|408:112,2,90,0|8|0
248,168,68108,2,0,B|248:216,1,45,0|8
248,264,68424,2,0,B|248:354,2,90
344,264,69371,6,0,B|392:288|432:264,1,90,8|0
392,176,70003,1,8
312,120,70319,1,0
312,120,70477,1,0
232,176,70792,1,0
232,328,71266,2,0,B|296:328|296:272,1,90,0|8
360,200,71898,6,0,B|360:120|248:120|248:200,2,180,0|8|0
396,292,73477,2,0,B|396:336|368:360|336:348|304:312|304:312|264:348|232:356|208:332|208:296,1,270
116,256,74740,6,0,B|116:144|228:144,1,180,4|0
324,144,75687,2,0,B|436:144|436:256,2,180
328,244,77266,6,0,B|328:332,2,90
228,240,78213,2,0,B|228:152,1,90
128,152,78845,2,0,B|32:152,2,90
128,252,79792,6,0,B|128:340,1,90,4|0
228,336,80424,1,0
328,324,80740,2,0,B|352:364|408:380|456:364|480:324,1,180
409,254,81687,1,0
409,154,82003,1,0
479,83,82319,2,0,B|462:42|407:19|350:42|335:83,1,180,0|8
256,192,84845,12,0,86740
256,192,87371,12,0,89898
