osu file format v9

[General]
AudioFilename: ToWRM3.mp3
AudioLeadIn: 500
PreviewTime: 64299
Countdown: 0
SampleSet: Soft
StackLeniency: 0.7
Mode: 0
LetterboxInBreaks: 0

[Editor]
DistanceSpacing: 1
BeatDivisor: 4
GridSize: 4

[Metadata]
Title:with you feat.Me (Short Ver.)
Artist:BACK-ON
Creator:shikyu
Version:Easy
Source:Tales of The World Radiant Mythology 3
Tags:opening athiota33 Lennox HakuNoKaemi

[Difficulty]
HPDrainRate:1
CircleSize:3
OverallDifficulty:1
ApproachRate:2
SliderMultiplier:0.6
SliderTickRate:1

[Events]
//Background and Video events
Video,0,"ToWRM 3.avi"
0,0,"TOWRM3.jpg"
//Break Periods
2,6492,10003
2,21868,30213
//Storyboard Layer 0 (Background)
//Storyboard Layer 1 (Fail)
//Storyboard Layer 2 (Pass)
//Storyboard Layer 3 (Foreground)
//Storyboard Sound Samples
//Background Colour Transformations
3,100,163,162,255

[TimingPoints]
1458,315.789473684211,4,2,0,20,1,0
1458,-100,4,2,0,20,0,0
11563,-100,4,2,0,40,0,0
21668,-100,4,1,0,60,0,1
21826,-100,4,1,0,60,0,0
31773,-100,4,1,0,40,0,0
51984,-100,4,2,0,60,0,0
64635,315.789473684211,4,1,0,60,1,1
69371,-100,4,1,1,60,0,1
74740,-100,4,1,0,60,0,1
82319,-100,4,1,1,60,0,1
82950,-100,4,1,1,60,0,0
84845,-100,4,2,0,20,0,0
86740,-100,4,2,0,10,0,0
87371,-100,4,2,0,20,0,0
89898,-100,4,2,0,10,0,0

[Colours]
Combo1 : 240,5,5
Combo2 : 245,69,10
Combo3 : 129,244,0
Combo4 : 253,138,241

[HitObjects]
256,192,1457,12,0,3352
256,192,3984,12,2,5879
168,128,11563,5,4
96,184,12036,2,0,B|144:232|208:208,1,120,0|2
296,208,13142,6,0,B|296:148,2,60,0|2|0
296,268,14089,2,0,B|248:332|160:300,1,150,2|0
160,240,15194,2,0,B|112:176|24:208,1,150,2|0
104,116,16615,6,0,B|104:20|224:20|224:116,1,210,2|2
160,179,18194,2,0,B|160:239,1,60,0|2
280,239,19142,5,2
364,156,19773,2,0,B|460:156|460:316|365:316,1,240,0|0
244,316,21668,5,4
392,128,31773,6,0,B|328:128,1,60,4|8
208,128,32721,1,8
256,240,33352,2,0,B|288:256|288:288,2,60,8|0|8
216,192,34300,6,0,B|152:192,1,60,0|8
128,72,35247,2,0,B|184:32|240:72,2,120,8|8|8
128,192,37142,5,8
236,240,37773,1,8
268,124,38405,1,8
364,196,39036,1,8
364,256,39352,6,0,B|364:288|332:304,1,60,0|8
272,303,39984,2,0,B|208:303,1,60,0|8
164,192,40931,2,0,B|164:160|132:144,2,60,8|8|8
164,252,41879,5,4
223,252,42194,1,8
256,136,42826,1,8
364,192,43458,2,8,B|395:253|347:301,1,120,8|8
286,301,44405,5,0
225,301,44721,1,8
140,216,45352,1,8
140,95,45984,2,0,B|140:31,2,60,8|0|8
206,194,47247,5,8
320,224,47879,2,0,B|368:192|368:192|320:144,1,120,8|8
436,192,49142,1,8
500,292,49773,2,0,B|469:353|405:353,2,120,8|8|8
432,176,51668,2,0,B|432:112,1,60,0|4
328,168,52615,6,0,B|296:168|264:136,1,60,0|2
280,88,53247,2,0,B|264:56|232:56,1,60,0|2
176,56,53879,2,0,B|104:56|104:136,1,120,2|6
104,256,55142,5,0
208,320,55773,1,2
312,256,56405,1,0
208,192,57036,5,4
328,168,57668,2,0,B|328:108,2,60,0|0|4
448,168,58931,6,0,B|448:288,2,120,8|8|0
388,168,60510,1,8
328,168,60826,2,0,B|264:168,2,60,0|0|8
352,48,62089,6,0,B|416:48|472:72,2,120,0|0|0
248,112,63984,1,0
216,224,64635,6,0,B|216:256|232:288,1,60,4|8
288,288,65266,2,0,B|304:256|304:224,1,60,0|8
368,128,66213,6,0,B|400:128|432:144,1,60,8|0
432,200,66845,2,0,B|400:200|368:216,1,60,8|0
376,272,67477,2,0,B|408:272|440:288,2,60,8|0|8
332,312,68424,6,0,B|332:359|252:359|252:311,1,120,0|8
192,312,69371,1,0
132,312,69687,6,0,B|100:312|68:296,1,60,0|8
64,176,70635,1,8
168,120,71266,6,0,B|232:120,1,60,8|0
232,180,71898,2,0,B|232:252,1,60,8|0
232,300,72529,1,8
352,304,73161,1,8
412,304,73477,2,0,B|492:304|492:224,1,120,0|8
492,112,74740,5,4
432,112,75056,2,0,B|432:36|488:12,2,120,8|8|8
372,112,76635,1,0
284,192,77266,6,0,B|316:256|300:320|220:384|124:320|108:256|140:192,1,360,8|0
236,128,79792,6,0,B|300:96|300:32,2,120,4|0|4
132,192,81687,1,0
240,240,82319,5,0
240,296,82635,2,0,B|240:328|208:344,1,60,0|8
256,192,84845,12,2,86740
256,192,87371,12,2,89898
