osu file format v9

[General]
AudioFilename: With you feat. me [tales of remix].mp3
AudioLeadIn: 0
PreviewTime: 87495
Countdown: 0
SampleSet: Normal
StackLeniency: 0.4
Mode: 0
LetterboxInBreaks: 0

[Editor]
DistanceSpacing: 0.8
BeatDivisor: 4
GridSize: 4

[Metadata]
Title:with you feat.Me [Tales of Remix]
Artist:BACK-ON
Creator:ztrot
Version:Tales of Krisom
Source:Tales of the World Radiant of Mythology 3
Tags:deadbeat lilac blissfulyoshi happy30 kite yunacat dangaard Krisom ouranhshc S_i_R_i_R_u Mitchrev21 Sushi arien666

[Difficulty]
HPDrainRate:6
CircleSize:4
OverallDifficulty:6
ApproachRate:7
SliderMultiplier:1.5
SliderTickRate:2

[Events]
//Background and Video events
0,0,"BG.jpg"
//Break Periods
2,14435,23440
2,44750,53597
2,74856,84069
2,107904,109330
2,133166,139645
2,191268,195221
2,231687,245744
//Storyboard Layer 0 (Background)
//Storyboard Layer 1 (Fail)
//Storyboard Layer 2 (Pass)
//Storyboard Layer 3 (Foreground)
//Storyboard Sound Samples
//Background Colour Transformations
3,100,97,184,151

[TimingPoints]
342,315.772854060313,4,1,0,60,1,0
12971,-83.3333333333333,4,1,0,60,0,0
24338,-100,4,1,0,60,0,0
87495,-83.3333333333333,4,1,0,60,0,1
107704,-100,4,1,0,60,0,0
114008,-66.6666666666667,4,1,0,60,0,0
114639,-100,4,1,0,60,0,0
116534,-66.6666666666667,4,1,0,60,0,0
117165,-100,4,1,0,60,0,0
129163,-83.3333333333333,4,1,0,60,0,0
143056,-100,4,1,0,60,0,0
170859,-83.3333333333333,4,1,0,60,0,1
191068,-83.3333333333333,4,1,0,60,0,0
199889,-66.6666666666667,4,1,0,60,0,0
200994,-100,4,1,0,60,0,0
246618,-83.3333333333333,4,1,0,60,0,0
256749,-66.6666666666667,4,1,0,60,0,1
257432,-66.6666666666667,4,1,0,60,0,1
257511,-68.4931506849315,4,1,0,60,0,1
258380,-66.6666666666667,4,1,0,60,0,1
266510,-83.3333333333333,4,1,0,60,0,1
276772,-66.6666666666667,4,1,0,60,0,0
276959,-66.6666666666667,4,1,0,60,0,1
286559,-83.3333333333333,4,1,0,60,0,1
297137,-100,4,1,0,60,0,0

[Colours]
Combo1 : 255,117,51
Combo2 : 101,252,101
Combo3 : 155,55,255
Combo4 : 255,176,216
Combo5 : 249,0,0

[HitObjects]
256,104,4131,69,4
48,200,4604,2,2,B|48:244|84:272|124:280|164:240,1,150,2|0
120,180,5078,2,0,B|160:160|204:184,1,75,8|0
200,104,5394,2,0,B|280:132,1,75
344,152,5710,2,0,B|384:172|428:148,1,75,8|0
424,228,6025,2,0,B|464:212|500:228,1,75
464,296,6341,1,8
388,296,6499,1,0
312,296,6657,22,0,B|208:296|208:296|192:312|192:312|88:312,2,225,4|0|8
208,188,7920,2,0,B|312:188|312:188|328:172|328:172|432:172,2,225,0|0|8
56,188,9183,37,4
256,84,9657,2,2,B|184:116|108:80,1,150,2|0
112,156,10130,2,0,B|192:176,1,75,8|0
140,236,10446,2,0,B|244:264,1,75
220,332,10762,2,0,B|256:352|292:332,1,75,8|0
299,255,11078,2,0,B|372:236,1,75
327,174,11394,2,0,B|400:156,1,75,8|0
364,88,11709,22,0,B|256:120|256:120|148:88,2,225,0|2|8
472,192,12972,2,2,B|384:232|384:232|408:312|408:312|304:296|304:296|256:354|256:354|208:296|208:296|104:312|104:312|128:232|128:232|40:192,1,720.000017166138,2|4
252,208,24340,6,0,B|212:88|64:84|4:148,1,300,4|0
108,252,25288,1,8
32,252,25445,2,0,B|36:196|76:160|144:160|176:188|204:240|168:300|168:300|256:324,1,375
404,356,26551,1,8
436,208,26866,22,0,B|464:172|468:112|420:84|380:84|380:84|392:28|352:-4|308:12,1,300,4|0
384,156,27814,1,8
356,224,27972,2,0,B|292:188|320:120|320:120|256:140|192:120|192:120|220:188|156:224,1,375
256,336,29077,1,8
108,308,29393,38,0,B|24:264|0:192|24:120|108:76,1,300,2|0
184,64,30182,2,0,B|224:52|256:72|256:72|288:52|328:64,2,150,8|2|0
256,196,31129,1,8
256,196,31287,1,0
256,348,31603,1,8
404,308,31919,22,0,B|488:264|512:192|488:120|404:76,1,300,2|0
328,64,32708,2,0,B|288:52|256:72|256:72|224:52|184:64,1,150,8|2
212,132,33182,1,0
116,244,33498,37,8
256,300,33813,1,0
396,244,34129,1,8
356,100,34445,2,0,B|312:152|256:128|256:128|200:152|156:100,2,225,4|2|8
432,228,35708,21,0
332,344,36024,1,8
256,344,36182,1,0
180,344,36340,1,0
80,228,36655,1,8
140,92,36971,2,0,B|148:48|192:24|244:40|256:84,1,150,0|8
256,148,37445,2,0,B|268:178|316:198|360:174|368:130,1,150,2|8
384,280,38076,2,2,B|288:264|232:296|176:344|256:416|336:344|280:296|224:264|128:280,1,375,2|0
256,200,39182,1,8
112,156,39497,38,0,B|140:92|140:92|224:92,1,150,0|8
291,92,39971,2,0,B|372:92|372:92|400:156,1,150,2|8
360,304,40603,2,2,B|256:348|256:348|152:304,1,225,2|8
181,156,41392,2,2,B|361:156,1,150
396,292,42024,22,0,B|396:348|344:364|344:364|292:340,1,150,0|8
216,341,42497,2,0,B|166:363|166:363|114:347|114:291,1,150
114,217,42971,1,8
256,192,43129,12,0,44550
256,160,54497,53,0
256,160,54654,1,4
324,127,54812,2,0,B|371:105|371:105|425:79|470:120,2,150,8|0|8
187,192,55760,2,0,B|139:213|139:213|85:239|40:198,1,150,2|0
160,108,56391,2,2,B|184:64|232:64|232:64|280:64|280:64|328:64|352:108,1,225,2|8
308,168,57023,1,0
256,224,57181,5,0
324,256,57339,2,0,B|371:277|371:277|425:303|470:262,2,150,8|0|8
187,191,58286,2,0,B|139:169|139:169|85:143|40:184,1,150,2|0
160,276,58917,2,2,B|184:320|232:320|232:320|280:320|280:320|328:320|352:276,1,225,2|8
428,288,59549,1,0
488,240,59707,54,0,B|432:192|432:192|432:116,1,150,6|8
331,227,60338,2,0,B|171:227,1,150,0|8
160,156,60812,1,0
124,88,60970,2,2,B|164:32|236:32|236:32|276:32|276:32|348:32|388:88,1,300
448,304,62075,6,0,B|400:252|400:252|324:304|324:304|356:368|356:368|256:342|256:342|156:368|156:368|188:304|188:304|112:252|112:252|64:304,1,675,4|0
256,32,64601,37,0
204,84,64759,1,4
152,136,64917,2,0,B|96:144|68:208|104:252,1,150,8|8
160,208,65391,1,0
168,280,65549,2,0,B|224:272|252:208|216:164,2,150,8|2|0
152,112,66496,2,2,B|200:64|316:64|360:112,1,225,2|0
408,168,67127,53,8
428,240,67285,1,0
448,312,67443,2,0,B|400:384|316:352,1,150,8|8
256,308,67917,1,0
194,352,68075,2,0,B|112:384|64:312,2,150,8|2|0
200,204,69022,2,0,B|216:156|256:156|296:156|312:204,2,150,2|0|2
124,200,69812,6,0,B|124:168|124:168|124:96|180:72,1,150,2|8
332,72,70443,2,0,B|388:96|388:168|388:168|388:200,1,150,0|8
388,276,70917,1,8
396,352,71075,2,0,B|316:368|256:316|256:316|196:368|116:352,1,300,0|8
88,128,72180,2,0,B|64:196|116:240|116:240|160:200|212:240|212:240|212:140|256:136|300:140|300:240|300:240|352:200|396:240|396:240|448:196|424:128,1,675,4|0
256,192,84969,12,8,86863
256,288,87337,37,0
332,240,87495,2,0,B|304:200|256:184|208:200|180:240,2,180.000004291535,4|8|0
120,200,88442,2,2,B|136:120|256:48|376:120|392:200,1,360.000008583069
256,320,89389,1,0
84,272,89705,53,8
32,200,89863,1,0
88,128,90021,2,0,B|124:164|184:164|224:112|212:68,1,180.000004291535,0|8
299,72,90495,2,0,B|288:112|328:164|388:164|424:128,2,180.000004291535,0|8|0
384,48,91284,2,2,B|360:160|256:180|156:160|128:48,1,360.000008583069
216,228,92231,5,8
296,228,92389,1,0
368,176,92547,2,0,B|404:240|372:312|308:324|276:308,1,180.000004291535,4|8
206,313,93021,2,0,B|198:311|140:312|108:240|144:176,1,180.000004291535,8|8
348,112,93652,2,2,B|332:32|256:-6|180:32|164:112,1,270.000006437302
168,292,94442,1,0
344,292,94758,1,2
360,112,95073,54,0,B|172:112,1,180.000004291535,0|8
152,200,95547,2,0,B|344:200,2,180.000004291535,0|8|0
100,272,96336,2,2,B|168:332|168:332|256:316|256:316|344:332|344:332|412:272,1,360.000008583069
504,16,97442,53,0
412,24,97600,2,0,B|308:40,1,90.0000021457673,4|0
440,92,97915,2,0,B|368:152,1,90.0000021457673,8|0
504,124,98231,2,0,B|472:212,1,90.0000021457673
428,288,98547,1,8
344,316,98705,1,0
256,340,98863,38,0,B|188:240,1,90.0000021457673
256,44,99178,2,0,B|328:148,1,90.0000021457673,8|0
256,192,99494,1,2
332,240,99652,2,2,B|304:280|256:296|208:280|180:240,1,180.000004291535,2|0
184,148,100126,22,0,B|80:148,1,90.0000021457673
212,76,100441,2,0,B|176:48|176:48|120:48,1,90.0000021457673,8|0
296,76,100757,2,0,B|332:48|332:48|388:48,1,90.0000021457673
328,148,101073,2,0,B|432:148,1,90.0000021457673,8|0
376,228,101389,38,0,B|336:276|288:260,1,90.0000021457673
136,156,101705,2,0,B|176:108|224:124,1,90.0000021457673,8|0
256,192,102020,1,2
180,240,102178,2,2,B|208:280|256:296|304:280|332:240,1,180.000004291535,2|0
352,152,102652,54,2,B|352:88|256:36|160:88|160:152,3,270.000006437302,6|2|2|2
256,352,104547,1,0
256,172,104862,1,8
256,172,105020,1,0
256,192,105178,12,4,107704
256,36,110230,5,4
256,112,110388,1,0
256,188,110546,2,0,B|176:160,1,75,8|0
328,208,110862,1,4
400,228,111020,1,0
472,248,111178,2,0,B|496:164,1,75,8|0
448,320,111494,37,4
376,300,111651,1,0
304,280,111809,2,0,B|312:360,1,75,8|0
296,204,112125,1,4
292,128,112283,1,0
288,52,112441,2,0,B|208:68,1,75,8|0
140,80,112757,22,0,B|104:72|104:72|68:92,2,75,0|0|8
116,152,113230,2,0,B|88:192|88:192|136:232|136:232|112:264,1,150,2|0
80,332,113704,2,0,B|120:344|120:344|164:320,1,75,8|0
220,304,114020,2,2,B|256:280|256:280|260:252|260:252|308:280|308:280|312:216|312:216|372:252|372:252|364:176|364:176|424:208|424:208|424:152|424:152|424:152,1,449.999986588955
404,92,114809,1,0
392,16,114967,2,0,B|352:32|352:32|328:68,1,75,8|0
256,88,115283,37,4
140,280,115756,1,4
372,280,116230,1,4
392,132,116546,2,2,B|360:132|360:132|340:108|340:108|304:172|304:172|256:96|256:96|208:172|208:172|172:108|172:108|152:132|152:132|120:132,1,449.999986588955,2|0
84,196,117335,1,0
40,256,117493,2,0,B|72:272|72:272|128:256,1,75,8|0
180,244,117809,22,0,B|220:300|220:300|200:360|200:360|108:360,2,225,4|0|8
332,244,119072,2,2,B|292:300|292:300|312:360|312:360|404:360,2,225,2|2|8
260,112,120335,38,0,B|216:180|216:180|272:208|272:208|224:276,2,225,4|0|8
388,32,121598,2,2,B|356:64|356:64|256:32|256:32|156:64|156:64|124:32,1,300
72,84,122388,1,0
16,136,122546,1,8
64,192,122703,22,0,B|144:256|144:256|256:207|256:207|368:256|368:256|448:192,1,450,4|0
496,136,123809,1,8
440,84,123967,1,0
364,80,124124,2,0,B|268:80|268:80|240:108|240:108|144:108,2,225,4|0|8
368,232,125388,38,0,B|272:232|272:232|244:260|244:260|148:260,2,225,0|0|8
380,84,126651,2,2,B|324:124|324:124|256:80|256:80|188:124|188:124|132:84,1,300,2|0
380,252,127914,22,0,B|324:212|324:212|256:256|256:256|188:212|188:212|132:252,1,300,4|0
76,200,128703,1,0
28,140,128861,1,8
88,96,129019,1,0
44,36,129177,2,0,B|116:12|116:12|180:100|180:100|256:60|256:60|332:100|332:100|396:12|396:12|468:36,1,540.000012874604,0|8
256,192,130440,12,4,132966
256,192,140545,12,0,142755
384,316,143071,38,0,B|324:400|256:384|188:400|128:316,1,300,4|0
257,237,144018,1,8
185,218,144176,2,0,B|175:273|198:323|271:339|322:321|358:273|354:215|321:159|273:156|237:164,1,375
256,12,145281,1,8
360,120,145597,38,0,B|408:104|456:128|476:180|456:228|456:228|492:258|488:316|444:336,1,300,4|0
384,196,146544,1,8
360,268,146702,2,0,B|300:248|300:196|308:172|308:172|196:144,1,225
152,8,147492,1,2
36,104,147807,1,8
88,244,148123,2,0,B|132:312|224:296,1,150,0|8
293,296,148597,2,0,B|380:310|424:244,1,150,0|8
368,104,149228,2,0,B|140:104,1,225,0|8
180,328,150176,53,8
256,328,150334,1,0
332,328,150491,1,8
408,320,150649,2,0,B|396:252|332:252|332:252|288:252,1,150,0|8
217,252,151123,2,0,B|180:252|180:252|116:252|104:320,1,150,0|8
144,172,151755,2,0,B|368:172,1,225,0|8
380,96,152386,1,0
332,36,152544,1,2
256,24,152702,1,0
180,36,152860,1,8
132,96,153018,1,0
144,172,153176,6,0,B|156:232|156:232|200:272|236:232,1,150,4|8
280,176,153649,2,0,B|313:138|357:178|357:178|369:238,1,150,0|8
328,384,154281,2,0,B|256:344|184:384,2,150,0|8|0
332,232,155228,1,0
256,232,155386,1,8
180,232,155544,1,0
104,228,155702,2,0,B|116:160|180:160|180:160|224:160,1,150,0|8
295,160,156175,2,0,B|332:160|332:160|396:160|408:228,1,150,0|8
472,88,156807,54,0,B|428:16|328:8|304:64|304:64|284:104|228:104|208:64|208:64|184:8|84:16|40:88,1,525,0|8
156,180,158228,22,0,B|176:232|176:232|116:296,2,112.5,4|2|8
220,140,158859,1,0
292,140,159017,1,2
256,76,159175,1,8
356,180,159491,2,2,B|336:232|336:232|396:296,2,112.5
424,216,160123,1,4
256,364,160596,37,0
180,364,160754,1,2
216,300,160912,1,0
140,304,161070,2,0,B|104:312|104:312|68:304,1,75,2|0
104,240,161386,1,2
184,160,161622,1,2
256,72,161859,1,2
304,128,162017,2,0,B|328:100|328:100|368:100,1,75,8|0
364,176,162333,2,0,B|364:232|364:232|344:252|344:252|344:324,1,150,8|0
124,264,163122,21,0
96,192,163280,2,0,B|68:120,1,75,6|2
140,92,163596,2,0,B|168:168,1,75,8|0
240,148,163912,2,0,B|208:59|208:59|252:20,1,150,8|2
292,84,164385,2,0,B|324:172|324:172|282:209,1,150,2|0
256,280,164859,1,8
256,280,165175,1,0
392,100,165649,37,0
408,172,165806,2,0,B|408:216|408:216|380:240,1,75,2|0
436,292,166122,2,0,B|368:332,1,75,0|2
296,332,166438,1,0
220,332,166596,1,0
140,330,166754,2,0,B|76:292,1,75,2|0
127,236,167070,2,0,B|104:216|104:216|104:172,1,75,0|2
104,96,167385,1,4
408,96,167701,1,4
256,192,168333,12,8,170227
256,212,170701,53,0
328,160,170859,2,0,B|300:120|256:108|256:108|212:120|184:160,2,180.000004291535,4|8|0
120,124,171806,2,2,B|136:44|256:-28|376:44|392:124,1,360.000008583069
256,240,172753,1,0
80,200,173069,53,8
120,280,173227,1,0
84,360,173385,2,0,B|120:396|180:396|220:344|208:300,1,180.000004291535,0|8
303,304,173859,2,0,B|292:344|332:396|392:396|428:360,2,180.000004291535,0|8|0
392,280,174648,2,2,B|364:188|256:140|148:188|120:280,1,360.000008583069
24,128,175595,5,0
168,20,175911,2,0,B|255:36|255:36|344:20,1,180.000004291535,0|8
344,108,176385,2,0,B|256:128|256:128|168:108,1,180.000004291535,8|8
128,284,177016,2,2,B|256:240|256:240|384:284,1,270.000006437302
344,108,177806,1,0
168,108,178122,1,2
180,288,178437,54,0,B|208:328|256:344|304:328|332:288,1,180.000004291535,0|8
332,196,178911,2,0,B|304:156|256:140|208:156|180:196,2,180.000004291535,0|8|0
392,128,179700,2,2,B|376:48|256:-24|136:48|120:128,1,360.000008583069
20,376,180806,53,0
112,376,180964,2,0,B|216:360,1,90.0000021457673,4|0
84,308,181279,2,0,B|156:248,1,90.0000021457673,8|0
20,276,181595,2,0,B|52:188,1,90.0000021457673
84,108,181911,1,8
116,24,182069,1,0
204,44,182227,2,0,B|288:72,1,90.0000021457673
372,36,182542,37,2
140,348,182858,1,2
260,104,183332,21,0
172,108,183490,2,0,B|172:152|172:152|212:184,1,90.0000021457673
300,188,183806,2,0,B|338:166|338:166|345:115,1,90.0000021457673,8|0
308,36,184121,2,0,B|269:13|269:13|222:32,1,90.0000021457673
260,104,184437,1,8
300,188,184595,2,0,B|300:268|300:268|288:280|288:280|288:364,1,180.000004291535
372,348,185069,37,2
140,36,185384,1,2
88,108,185542,1,0
96,196,185700,1,0
56,276,185858,1,0
132,320,186016,54,2,B|200:304|256:356|256:356|312:304|380:320,3,270.000006437302,6|2|2|2
256,80,187911,1,0
256,260,188226,1,8
256,260,188384,1,0
256,192,188542,12,4,191068
256,32,196121,5,4
412,120,196436,1,8
464,192,196594,1,0
376,204,196752,2,0,B|332:276|276:276|276:276|212:276,1,180.000004291535,0|8
136,272,197226,2,2,B|180:200|236:200|236:200|300:200,1,180.000004291535,2|0
376,204,197700,1,8
468,204,197857,2,2,B|424:132|368:132|368:132|304:132,1,180.000004291535,2|0
228,132,198331,1,8
136,132,198489,1,0
56,168,198647,38,0,B|8:192|8:192|64:228|64:228|32:232|32:232|-16:348,2,270.000006437302,2|0|8
156,320,199910,2,2,B|120:272|120:272|208:284|208:284|172:228|172:228|184:224|184:224|228:100,2,337.499989941716,2|2|8
288,244,201173,21,2
360,264,201331,1,0
432,288,201489,1,8
508,300,201647,2,0,B|492:350|447:368|408:358|408:358|365:346,2,150,0|2|0
488,228,202436,1,2
472,156,202594,1,0
456,84,202752,1,8
432,12,202910,2,0,B|360:12|360:12|348:28|348:28|264:28,2,150,0|2|0
456,84,203699,37,0
388,112,203857,1,0
320,140,204015,1,8
248,164,204173,2,2,B|208:176|208:176|160:192|120:176|104:148,1,150,2|0
80,224,204647,1,8
52,292,204804,2,0,B|96:308|136:276|136:276|220:296,2,150,0|2|0
80,224,205594,2,0,B|56:148,1,75,2|0
132,152,205910,2,0,B|124:68,1,75,8|0
184,32,206225,22,0,B|260:48,1,75
332,64,206541,1,8
404,80,206699,1,0
476,100,206857,2,0,B|464:148|464:148|444:208|384:208,1,150,0|8
316,208,207331,2,2,B|268:208|256:243|256:243|244:208|196:208,1,150,2|0
120,208,207804,1,8
120,207,207962,2,2,B|68:208|48:148|48:148|36:100,1,150,2|0
52,28,208436,2,0,B|124:48,1,75,8|0
172,108,208752,38,0,B|208:192|208:192|180:248|180:248|224:328,2,225,2|0|8
340,108,210015,2,2,B|304:192|304:192|332:248|332:248|288:328,2,225,2|0|8
464,192,211278,22,0,B|384:192,1,75,4|0
412,340,211751,2,2,B|360:288,1,75
256,384,212225,2,0,B|256:308,1,75
100,340,212699,2,8,B|152:288,1,75
100,44,213330,1,0
24,56,213488,1,2
68,116,213646,1,0
48,192,213804,38,0,B|128:192,1,75,4|0
100,44,214278,2,2,B|152:96,1,75
256,0,214751,2,0,B|256:76,1,75
412,44,215225,2,8,B|360:96,1,75
412,340,215856,1,0
488,328,216014,1,2
444,268,216172,1,0
448,192,216330,53,4
416,124,216488,2,0,B|380:32|288:72,1,150,0|2
304,144,216962,2,0,B|304:192|256:204|208:192|208:144,1,150,2|0
214,68,217435,2,0,B|131:36|96:124,1,150,0|8
56,188,217909,2,0,B|100:216|148:180|148:180|168:264|168:264|216:256,1,225,8|0
280,244,218541,1,2
352,228,218698,1,0
424,212,218856,5,4
452,280,219014,2,0,B|443:315|443:315|432:365|377:353|377:353|346:345,1,150,0|2
328,276,219488,2,0,B|256:296|256:296|184:276,1,150,2|0
160,347,219962,2,0,B|134:353|134:353|79:365|68:315|68:315|60:280,1,150,0|8
48,204,220435,2,0,B|148:184|148:184|168:168|168:168|264:152,1,225,8|0
320,200,221067,1,2
376,152,221225,1,0
440,112,221382,54,0,B|448:32|448:32|328:60|328:60|256:-4|256:-4|184:60|184:60|64:32|64:32|72:112,2,600,4|4|4
460,184,224067,6,0,B|304:220,1,150,0|2
328,292,224540,2,0,B|256:328|184:292,1,150,2|0
198,217,225014,2,0,B|52:184,1,150,0|8
48,108,225488,2,0,B|208:144|208:144|256:106|256:106|304:144|304:144|464:108,1,450,8|0
256,192,226593,12,4,231487
256,128,246644,21,0
416,208,246960,1,8
256,292,247276,1,0
96,208,247592,1,8
168,156,247750,2,0,B|256:120|344:156,1,180.000004291535,0|8
416,208,248223,1,0
256,292,248539,2,8,B|328:348,3,90.0000021457673,8|8|8|8
392,308,249171,22,0,B|480:308|480:228|480:228|480:184,1,180.000004291535,4|8
480,92,249644,1,0
400,136,249802,2,0,B|308:184,1,90.0000021457673
292,92,250118,2,0,B|256:120|256:120|220:92,1,90.0000021457673,8|0
191,177,250434,2,0,B|112:136,1,90.0000021457673
32,183,250749,2,0,B|32:228|32:228|32:308|120:308,1,180.000004291535,4|2
256,76,251539,37,0
332,128,251697,2,0,B|304:164|256:192|208:164|180:128,2,180.000004291535,4|8|0
408,176,252486,1,0
376,260,252644,1,8
332,340,252802,2,0,B|304:304|256:276|208:304|180:340,1,180.000004291535
256,384,253276,1,4
256,384,253591,1,4
256,192,253907,1,8
256,192,254223,12,0,256118
256,188,256591,53,0
352,244,256749,2,0,B|320:292|256:316|192:292|160:244,2,224.999993294478,4|8|0
80,272,257696,2,2,B|112:356|208:396|256:380|308:396|400:356|432:272,1,437.99999373436
256,188,258644,1,0
96,136,258959,53,8
36,68,259117,1,0
124,48,259275,2,0,B|236:48|236:48|308:48|308:116,1,224.999993294478,0|8
204,115,259749,2,0,B|204:48|276:48|276:48|388:48,2,224.999993294478,0|8|0
176,200,260538,2,2,B|200:248|160:320|160:320|256:368|352:320|352:320|312:248|336:200,1,449.999986588955
300,24,261486,5,8
212,24,261644,1,0
128,52,261801,2,0,B|58:83|98:147|140:212|68:243,1,224.999993294478,0|8
1,173,262275,2,0,B|34:101|97:146|160:188|194:119,1,224.999993294478,0|8
128,288,262907,2,2,B|200:264|256:374|256:374|312:264|384:288,1,337.499989941716
256,160,263696,1,8
256,160,264012,1,2
380,28,264328,54,0,B|460:24|496:88|472:144|472:144|428:148,1,224.999993294478,0|8
426,235,264801,2,0,B|472:240|472:240|496:296|460:360|380:356,2,224.999993294478,0|8|0
352,192,265591,2,2,B|224:208|116:96|256:-33|396:96|288:208|160:192,1,449.999986588955
8,16,266696,53,0
8,124,266854,2,0,B|40:212,1,90.0000021457673,4|0
72,92,267170,2,0,B|144:152,1,90.0000021457673,8|0
100,24,267485,2,0,B|204:40,1,90.0000021457673,0|0
260,44,267801,1,8
332,56,267959,1,0
324,128,268117,38,0,B|324:172|324:172|340:216,1,90.0000021457673
188,256,268433,2,0,B|188:212|188:212|172:168,1,90.0000021457673,8|0
256,192,268748,1,2
256,192,268906,1,2
256,336,269222,21,0
328,320,269380,2,0,B|432:320,1,90.0000021457673
300,248,269696,2,0,B|336:220|336:220|392:220,1,90.0000021457673,8|0
216,248,270012,2,0,B|180:220|180:220|124:220,1,90.0000021457673
184,320,270327,2,0,B|80:320,1,90.0000021457673,8|0
60,256,270643,38,0,B|60:160,1,90.0000021457673
132,180,270959,2,0,B|156:140|156:140|216:152,1,90.0000021457673,8|0
256,192,271275,1,2
180,240,271432,2,2,B|208:280|256:296|304:280|332:240,1,180.000004291535,2|0
388,192,271906,53,6
256,20,272380,1,8
124,192,272853,1,0
256,364,273327,1,8
256,148,273801,1,0
256,148,274117,1,8
256,148,274274,1,0
256,192,274432,12,4,275695
256,188,276801,53,0
160,244,276959,2,0,B|192:292|256:316|320:292|352:244,2,224.999993294478,4|8|0
432,272,277906,2,2,B|400:356|304:396|256:380|204:396|112:356|80:272,1,437.99999373436
256,188,278853,1,0
416,136,279169,5,8
476,68,279327,1,0
388,48,279485,2,0,B|276:48|276:48|204:48|204:116,1,224.999993294478,0|8
308,115,279958,2,0,B|308:48|236:48|236:48|124:48,2,224.999993294478,0|8|0
336,200,280748,2,2,B|312:248|352:320|352:320|256:368|160:320|160:320|200:248|176:200,1,449.999986588955
212,24,281695,53,8
300,24,281853,1,0
384,52,282011,2,0,B|454:83|414:147|372:212|444:243,3,224.999993294478,0|8|0|8
444,243,283116,1,0
511,173,283274,2,2,B|478:101|415:146|352:188|318:119,1,224.999993294478,2|8
324,300,283906,1,0
184,184,284221,1,2
132,28,284537,6,0,B|52:24|16:88|40:144|40:144|84:148,1,224.999993294478,0|8
86,235,285011,2,0,B|40:240|40:240|16:296|52:360|132:356,2,224.999993294478,0|8|0
160,192,285800,2,2,B|288:208|396:96|256:-33|116:96|224:208|352:192,1,449.999986588955
492,376,286905,37,0
400,376,287063,2,0,B|296:360,1,90.0000021457673,4|0
428,308,287379,2,0,B|356:248,1,90.0000021457673,8|0
492,276,287695,2,0,B|460:188,1,90.0000021457673
428,108,288011,1,8
396,24,288168,1,0
308,44,288326,2,0,B|224:72,1,90.0000021457673
140,36,288642,37,2
372,348,288958,1,2
252,104,289432,21,0
340,108,289589,2,0,B|340:152|340:152|300:184,1,90.0000021457673
212,188,289905,2,0,B|174:166|174:166|167:115,1,90.0000021457673,8|0
204,36,290221,2,0,B|243:13|243:13|290:32,1,90.0000021457673
252,104,290537,1,8
212,188,290695,2,0,B|212:268|212:268|224:280|224:280|224:364,1,180.000004291535
140,348,291168,37,2
372,36,291484,1,2
424,108,291642,1,0
416,196,291800,1,0
456,276,291958,1,0
416,352,292116,54,0,B|296:352|296:352|312:316|288:288,1,180.000004291535,4|8
218,294,292589,2,0,B|200:316|216:352|216:352|96:352,1,180.000004291535,0|8
144,276,293063,2,0,B|180:216|256:184|332:216|368:276,1,270.000006437302,8|0
256,92,294010,1,0
256,92,294326,1,8
256,92,294484,1,0
256,192,294642,12,4,297168
