osu file format v9

[General]
AudioFilename: With you feat. me [tales of remix].mp3
AudioLeadIn: 0
PreviewTime: 87495
Countdown: 0
SampleSet: Normal
StackLeniency: 0.3
Mode: 0
LetterboxInBreaks: 0

[Editor]
Bookmarks: 4130,24338,44545,64595,87328,110219,143056,170841,193574,223885,246618,276929,297137
DistanceSpacing: 1
BeatDivisor: 2
GridSize: 8

[Metadata]
Title:with you feat.Me [Tales of Remix]
Artist:BACK-ON
Creator:ztrot
Version:Souls of the World
Source:Tales of the World Radiant of Mythology 3
Tags:deadbeat lilac blissfulyoshi happy30 kite yunacat dangaard Krisom ouranhshc S_i_R_i_R_u Mitchrev21 Sushi arien666

[Difficulty]
HPDrainRate:7
CircleSize:4
OverallDifficulty:7
ApproachRate:8
SliderMultiplier:1.8
SliderTickRate:2

[Events]
//Background and Video events
0,0,"BG.jpg"
//Break Periods
2,24540,32744
//Storyboard Layer 0 (Background)
Sprite,Background,Centre,"SB\deadbeat.png",420,440 L,4130,2 R,0,0,315,0,6.25 L,24338,2 R,0,0,315,0,6.25 F,0,4130,4446,0,1 F,0,24338,24653,1,0
Sprite,Background,Centre,"SB\mariobros777.png",420,440 L,44545,2 R,0,0,315,0,6.25 L,64752,2 R,0,0,315,0,6.25 F,0,44545,44861,0,1 F,0,64752,65068,1,0
Sprite,Background,Centre,"SB\blissfulyoshi.png",420,440 L,64752,2 R,0,0,315,0,6.25 L,87486,2 R,0,0,315,0,6.25 F,0,64752,65068,0,1 F,0,87486,87801,1,0
Sprite,Background,Centre,"SB\ztrot.png",420,440 L,33178,2 R,0,0,315,0,6.25 L,44545,2 R,0,0,315,0,6.25 F,0,33178,33494,0,1 F,0,44545,44861,1,0
Sprite,Background,Centre,"SB\ztrot.png",420,440 L,87486,2 R,0,0,315,0,6.25 L,107693,2 R,0,0,315,0,6.25 F,0,87486,87801,0,1 F,0,107693,108009,1,0
Sprite,Background,Centre,"SB\ouran.png",420,440 L,110219,2 R,0,0,315,0,6.25 L,143056,2 R,0,0,315,0,6.25 F,0,110219,110535,0,1 F,0,143056,143372,1,0
Sprite,Background,Centre,"SB\dan.png",420,440 L,143056,2 R,0,0,315,0,6.25 L,170841,2 R,0,0,315,0,6.25 F,0,143056,143372,0,1 F,0,170841,171157,1,0
Sprite,Background,Centre,"SB\siriru.png",420,440 L,193574,2 R,0,0,315,0,6.25 L,246618,2 R,0,0,315,0,6.25 F,0,193574,193890,0,1 F,0,246618,246934,1,0
Sprite,Background,Centre,"SB\happy30.png",420,440 L,170841,2 R,0,0,315,0,6.25 L,191048,2 R,0,0,315,0,6.25 F,0,170841,171157,0,1 F,0,191048,191364,1,0
Sprite,Background,Centre,"SB\kite.png",420,440 L,246618,2 R,0,0,315,0,6.25 L,276929,2 R,0,0,315,0,6.25 F,0,246618,246934,0,1 F,0,276929,277245,1,0
Sprite,Background,Centre,"SB\dan.png",420,440 L,276929,2 R,0,0,315,0,6.25 L,297137,2 R,0,0,315,0,6.25 F,0,276929,277245,0,1 F,0,297137,297452,1,0
//Storyboard Layer 1 (Fail)
//Storyboard Layer 2 (Pass)
//Storyboard Layer 3 (Foreground)
//Storyboard Sound Samples
//Background Colour Transformations
3,100,97,184,151

[TimingPoints]
342,315.772854060313,4,1,0,60,1,0
87495,-100,4,1,0,60,0,1
107704,-100,4,1,0,60,0,0
112034,-100,4,2,0,60,0,0
112666,-100,4,1,0,60,0,0
115192,-133.333333333333,4,1,0,60,0,0
116376,-100,4,1,0,60,0,0
143056,-100,4,1,0,50,0,0
170859,-100,4,1,0,60,0,1
191068,-100,4,1,0,60,0,0
193574,-100,4,1,0,60,0,0
194837,-100,4,1,0,40,0,0
196100,-100,4,1,0,50,0,0
212992,-100,4,1,0,29,0,0
213781,-100,4,1,0,50,0,0
215518,-100,4,1,0,30,0,0
216307,-100,4,1,0,50,0,0
218044,-100,4,1,0,31,0,0
218833,-100,4,1,0,50,0,0
220570,-100,4,1,0,32,0,0
221359,-100,4,1,0,50,0,0
223096,-100,4,1,0,30,0,0
223885,-100,4,1,0,50,0,0
225622,-100,4,1,0,30,0,0
226411,-100,4,1,0,50,0,0
226727,-100,4,1,0,30,0,0
226885,-100,4,1,0,50,0,0
227200,-100,4,1,0,30,0,0
227358,-100,4,1,0,50,0,0
227674,-100,4,1,0,60,0,0
227832,-100,4,1,0,50,0,0
233673,-100,4,1,0,31,0,0
238750,-142.857142857143,4,1,0,30,0,0
246303,-100,4,1,0,60,0,0
256749,-100,4,1,0,60,0,1
276801,-100,4,1,0,60,0,0
276959,-100,4,1,0,60,0,1
297168,-100,4,1,0,60,0,0

[Colours]
Combo1 : 255,117,51
Combo2 : 101,252,101
Combo3 : 155,55,255
Combo4 : 255,176,216
Combo5 : 249,0,0

[HitObjects]
104,96,4131,2,2,B|32:168|96:272,2,180
280,40,5078,1,8
368,56,5236,1,0
448,104,5394,1,0
472,192,5552,1,0
448,280,5710,1,8
384,344,5868,1,0
296,360,6025,1,0
208,336,6183,1,0
128,288,6341,1,8
96,208,6499,1,0
88,120,6657,2,2,B|192:32|272:280|416:104,1,360
424,296,7604,6,0,B|344:352|248:296,1,180
160,144,8236,2,0,B|240:88|336:144,2,180
80,304,9183,6,0,B|88:280|88:280|88:304|88:304|96:280|96:280|96:304|96:304|104:280|104:280|104:304|104:304|112:280|112:280|112:304|112:304|120:280|120:280|120:304|120:304|128:280|128:280,1,270
312,280,9973,1,8
400,280,10130,1,0
464,216,10288,1,0
464,128,10446,1,0
400,64,10604,1,8
312,64,10762,1,0
248,128,10920,1,0
248,216,11078,1,0
184,280,11236,1,8
96,280,11394,1,0
32,216,11551,1,0
32,128,11709,2,0,B|144:48|128:208|288:112,1,270
360,72,12341,1,4
360,72,12499,1,4
360,72,12657,1,4
256,192,12972,12,4,14236
360,56,14551,5,8
408,136,14709,1,0
416,224,14867,2,0,B|416:320,2,90,8|0|8
264,320,15499,5,0
176,320,15656,1,0
96,288,15814,1,8
48,208,15972,1,0
56,120,16130,2,0,B|72:64|128:48,2,90,8|0|8
224,56,16762,5,0
312,56,16920,1,0
376,112,17077,1,8
440,176,17235,1,0
440,264,17393,2,0,B|440:360,2,90,8|0|8
280,344,18025,5,0
192,344,18183,1,0
112,304,18341,1,8
56,232,18498,1,0
64,144,18656,1,0
128,80,18814,1,0
216,64,18972,1,8
392,88,19288,6,0,B|464:200|424:296|344:320,1,270
264,320,19919,1,0
176,304,20077,1,0
120,232,20235,1,8
96,56,20551,6,0,B|184:16|272:56,1,180
352,96,21025,1,0
376,184,21183,1,0
344,272,21340,1,0
272,328,21498,1,8
96,312,21814,5,4
96,312,21972,1,0
72,224,22130,1,4
72,224,22288,1,0
72,136,22446,1,4
72,136,22603,1,0
128,64,22761,1,4
128,64,22919,1,0
256,192,23077,12,4,24340
256,40,33498,5,0
168,48,33656,1,0
112,112,33813,1,0
64,192,33971,1,4
112,272,34129,1,0
168,336,34287,1,0
256,344,34445,2,0,B|352:360|416:272,1,180,4|0
416,184,34919,1,2
168,336,35392,5,0
256,304,35550,1,2
256,32,36024,1,8
304,104,36182,1,0
352,24,36340,2,0,B|440:88|376:184,2,180,0|8|0
256,176,37287,1,8
256,264,37445,1,0
168,32,37761,1,0
344,32,38076,1,0
344,32,38234,1,4
384,296,38708,6,0,B|336:208|272:304|216:304|128:240,1,270,0|8
304,184,39497,1,0
256,360,39813,1,0
256,360,39971,1,0
112,248,40287,1,0
256,136,40603,1,0
440,336,41076,5,8
256,136,41392,1,0
72,336,41708,1,8
256,248,42024,6,0,B|360:248|384:136,1,180,4|8
256,248,42497,2,0,B|152:248|128:136,1,180,4|0
184,72,42971,1,8
256,120,43129,1,0
328,72,43287,1,4
336,160,43444,1,0
256,200,43602,1,0
176,160,43760,1,0
176,248,43918,1,4
256,288,44076,1,0
336,248,44234,1,0
304,360,44550,6,2,B|408:362|448:273,1,180
480,192,45023,2,2,B|488:80|376:24,1,180
224,32,45655,1,2
256,296,45971,5,0
256,296,46129,1,8
256,296,46286,1,0
216,232,46444,5,0
296,232,46602,1,0
176,168,46760,1,8
336,168,46918,1,8
368,80,47076,6,2,B|488:72|504:200,1,180
448,248,47550,2,2,B|440:344|328:360,2,180
280,64,48497,5,2
192,56,48655,1,8
112,88,48813,1,0
56,160,48971,2,0,B|96:248,1,90
184,192,49286,2,0,B|224:280,1,90,8|0
296,328,49602,5,2
296,328,49760,1,2
456,256,50076,1,2
296,160,50391,1,0
456,96,50707,1,2
456,96,51023,5,0
384,40,51181,1,8
296,24,51339,1,0
208,24,51497,1,0
128,56,51655,1,0
192,120,51812,1,8
104,144,51970,1,0
72,232,52128,6,0,B|160:264,1,90,4|0
328,216,52602,2,0,B|224:168,1,90,4|0
408,96,53076,2,0,B|528:144,1,90
448,208,53391,2,0,B|488:248,4,45
384,272,53865,2,0,B|336:320,4,45
456,328,54339,2,0,B|496:368,4,45
384,376,54812,5,0
208,360,55128,2,0,B|104:336|88:240,1,180
160,72,55760,1,0
344,72,56075,1,0
256,224,56391,1,0
208,304,56549,1,8
304,304,56707,1,0
256,376,56865,1,0
344,376,57023,5,0
432,344,57181,2,0,B|472:312|480:240,1,90,0|0
472,88,57654,2,0,B|392:40|392:152|288:72,1,180
256,8,58128,1,0
208,88,58286,2,0,B|128:40|128:152|24:72,2,180
216,176,59075,5,8
304,176,59233,1,0
176,248,59391,1,0
344,248,59549,1,0
336,336,59707,5,6
256,368,59865,1,0
176,336,60023,1,0
104,288,60180,2,0,B|24:216|80:128,2,180,2|0|2
176,248,60970,2,2,B|176:160|264:120|352:168|344:264,1,270
432,240,61601,2,2,B|416:128|320:88,1,180
256,64,62075,1,0
168,56,62233,6,0,B|112:144,1,90,4|0
40,80,62549,2,0,B|8:184,1,90
16,256,62865,6,0,B|59:350,1,90,4|0
120,272,63180,2,0,B|174:368,1,90
256,336,63496,1,4
256,336,63654,1,0
352,184,63970,1,8
168,184,64286,1,8
256,24,64601,5,0
344,48,64759,1,8
408,112,64917,2,0,B|448:168|440:224,1,90,0|0
352,184,65233,5,0
280,232,65391,1,8
232,304,65549,2,0,B|168:312|128:248,1,90,0|0
88,216,65864,5,8
256,24,66180,1,8
424,216,66496,2,0,B|432:344|288:368,1,180,12|0
152,360,67127,5,0
72,320,67285,1,8
144,264,67443,2,0,B|16:200,1,90
136,176,67759,5,0
208,120,67917,1,8
216,208,68075,2,0,B|352:280,1,90
296,344,68391,6,0,B|464:344,1,90,8|0
480,192,68706,2,0,B|368:192,1,90,8|0
296,40,69022,2,0,B|400:40,2,90,12|0|0
32,120,69654,5,0
104,200,69812,1,8
320,200,70127,1,0
144,328,70443,1,8
208,120,70759,1,0
280,328,71075,2,0,B|400:328|480:256,1,180,8|0
496,64,71706,2,0,B|376:64|296:136,1,180,8|0
240,184,72180,2,0,B|144:280|72:280|0:280|0:200|0:120|80:120|144:120|208:120|112:336|288:328,1,630,8|0
360,280,73443,5,0
448,248,73601,2,0,B|312:136,1,90,8|0
464,168,73917,2,0,B|328:56,1,90
480,88,74232,2,0,B|344:-24,1,90,8|0
320,32,74548,2,0,B|250:89,1,90
184,152,74864,6,0,B|160:192|160:192|144:152|144:152|128:192|128:192|104:152|104:152,1,180,10|0
64,232,75338,1,0
96,320,75495,1,8
184,336,75653,1,0
264,296,75811,6,0,B|288:296|288:296|272:264|272:264|300:265|300:265|296:240,1,90,2|0
344,184,76127,2,0,B|424:248,1,90,8|0
496,208,76443,2,0,B|425:151,1,90
456,64,76759,2,0,B|320:64,1,90,8|0
296,120,77074,2,0,B|184:120,1,90
128,72,77390,6,0,B|119:26|119:26|72:56,1,90,10|0
216,320,77864,2,0,B|207:365|207:365|160:336,1,90,10|0
304,72,78337,6,0,B|295:26|295:26|248:56,1,90,10|0
392,320,78811,2,0,B|383:365|383:365|336:336,1,90,10|0
216,112,79285,6,0,B|191:150|191:150|160:100,1,90,10|0
80,136,79600,2,0,B|55:98|55:98|24:148,1,90,10|0
32,224,79916,6,0,B|48:328|120:344|168:336,1,180,10|0
192,256,80390,1,0
256,192,80548,1,8
320,256,80706,1,0
400,296,80864,6,0,B|440:312|488:360|464:384|432:352|512:272,1,180,2|8
440,216,81337,1,0
360,176,81495,1,0
320,256,81653,1,0
400,296,81811,1,8
440,216,81969,1,0
360,176,82127,1,0
320,256,82285,1,0
232,264,82442,6,0,B|192:288|176:360,1,90,10|0
120,120,82916,2,0,B|80:96|64:24,1,90,10|0
16,264,83390,2,0,B|56:288|72:360,1,90,10|0
120,120,83863,5,10
232,64,84021,1,0
232,64,84179,1,0
344,120,84337,1,10
344,120,84495,1,0
456,64,84653,1,10
456,64,84811,1,0
456,200,84969,6,0,B|360:200,1,90,10|0
352,312,85284,2,0,B|256:312,1,90,10|0
264,168,85600,2,0,B|168:168,1,90,10|0
168,344,85916,2,0,B|72:344,1,90,10|0
48,256,86232,5,8
56,208,86311,1,0
96,184,86390,1,0
184,184,86547,1,8
192,136,86626,1,0
208,96,86705,1,0
272,40,86863,5,8
320,32,86942,1,0
368,40,87021,1,0
408,56,87100,1,0
432,96,87179,1,8
448,136,87258,1,0
456,184,87337,1,0
456,264,87495,5,4
400,320,87653,1,0
320,320,87811,1,8
256,272,87968,1,0
192,320,88126,1,0
112,320,88284,1,0
48,272,88442,5,8
48,192,88600,1,0
48,112,88758,2,0,B|96:32|200:32,1,180,0|8
256,96,89232,1,0
312,31,89389,2,0,B|416:32|464:112,1,180,0|8
464,192,89863,1,0
464,272,90021,1,2
304,312,90337,1,0
208,312,90495,1,2
48,272,90810,1,2
256,232,91126,5,0
256,232,91284,2,2,B|200:168|296:168|256:64,2,180
160,96,92231,2,0,B|160:144,4,45
352,96,92863,1,8
352,96,93021,1,0
256,232,93337,1,2
160,96,93652,1,2
96,328,94126,5,8
416,328,94442,1,0
96,248,94758,1,8
416,248,95073,1,4
256,32,95389,5,8
256,120,95547,1,0
328,80,95705,1,0
184,80,95863,1,0
256,120,96021,1,8
336,264,96336,2,0,B|256:336|168:264,2,180,0|8|0
256,32,97442,5,4
184,160,97600,1,0
328,160,97757,1,0
168,64,97915,1,8
344,64,98073,1,0
256,216,98231,1,0
168,64,98547,5,8
344,64,98705,1,0
184,160,98863,1,0
328,160,99021,1,0
256,32,99178,1,8
256,216,99336,1,8
256,112,99494,1,0
256,112,99652,1,4
216,272,99968,5,4
296,272,100126,1,0
144,216,100441,5,8
120,120,100599,1,0
192,40,100757,1,0
256,112,100915,1,0
320,40,101073,1,8
392,120,101231,1,0
256,112,101389,1,0
120,120,101547,1,0
256,112,101705,1,8
368,216,101862,1,8
368,216,102020,1,0
368,216,102178,1,0
120,120,102652,6,2,B|64:208|120:312,1,180
184,256,103126,2,0,B|248:336|376:320,1,180,2|0
416,280,103599,1,8
440,200,103757,1,0
296,112,104073,5,0
320,192,104231,1,8
256,248,104389,1,0
192,192,104547,2,0,B|88:176|56:288,2,180,0|8|0
192,192,105336,1,4
256,128,105494,1,4
256,128,105652,1,0
320,192,105810,1,4
320,192,105968,1,0
256,248,106125,1,4
160,112,106441,6,0,B|112:112,5,45
160,112,106915,2,0,B|160:64,6,45
256,200,107704,1,4
192,56,110230,6,0,B|104:80,2,90,4|0|0
280,32,110704,1,0
256,120,110862,2,0,B|232:208,2,90,4|0|0
280,32,111336,1,0
344,96,111494,2,0,B|416:152,2,90,4|0|0
280,32,111967,1,0
192,8,112125,6,2,B|112:8|72:56|40:128|104:200,1,270,2|2
160,264,112757,6,0,B|200:304|192:352,2,90,4|0|0
240,224,113230,2,0,B|304:288|408:280,1,180
488,248,113704,1,0
512,160,113862,1,0
492,72,114020,2,0,B|488:68|488:68|488:76|488:76|484:68|484:68|484:76|484:76|480:68|480:68|480:76|480:76|476:68|476:68|476:76|476:76|472:68|472:68|472:76|472:76|468:72|468:72|372:72,1,180
256,192,114651,5,0
304,112,114809,1,0
216,112,114967,1,0
168,192,115125,1,0
208,272,115283,6,0,B|288:272|288:272|256:280|256:280|352:280,2,202.49999396503,4|4|0
48,360,116546,2,0,B|0:272|48:184,1,180
216,120,117177,6,0,B|128:120,1,90
72,48,117493,2,0,B|160:48,1,90
256,48,117809,6,0,B|440:48,1,180,4|0
480,128,118283,2,0,B|296:128,1,180,4|0
300,128,118756,1,0
336,304,119072,6,0,B|256:376|176:304,1,180,4|0
256,264,119546,2,0,B|256:80,1,180,4|0
256,84,120019,1,0
88,32,120335,6,0,B|16:96|48:200,1,180,4|0
128,232,120809,2,0,B|312:232,1,180,4|0
400,248,121283,1,0
432,328,121440,1,0
360,376,121598,6,0,B|256:368|232:264,1,180
256,88,122230,2,0,B|232:128|232:176,2,90
320,24,122703,2,0,B|504:24,1,180
456,104,123177,2,0,B|392:120|400:168|392:216|456:232,1,180
496,312,123651,2,0,B|312:312,1,180
224,312,124124,6,0,B|144:312|104:224|144:136|224:136,2,270,4|0|0
64,224,125388,2,0,B|248:224,1,180,4|0
192,152,125861,2,0,B|376:152,1,180
372,152,126335,1,0
496,280,126651,6,0,B|312:280,1,180,4|0
224,280,127124,1,0
180,360,127282,2,0,B|360:360,1,180,4|0
200,280,127914,5,4
120,232,128072,1,0
200,184,128230,1,0
280,136,128387,1,0
200,88,128545,2,0,B|200:272,1,180
256,336,129019,1,0
344,368,129177,2,0,B|456:384|488:280,1,180,4|0
488,200,129650,2,0,B|488:16,1,180,4|0
488,20,130124,1,4
312,24,130440,6,0,B|376:88,2,90,4|0|0
256,96,130914,1,0
192,160,131071,2,0,B|128:232,2,90,4|0|0
256,224,131545,1,0
320,288,131703,2,0,B|320:344|384:344|448:344|448:288,1,180,4|0
504,224,132177,2,0,B|504:40,1,180
504,44,132650,1,0
328,16,132966,5,4
264,184,133282,1,0
224,104,133440,1,0
120,248,133756,1,0
208,280,133913,1,0
392,280,134229,1,0
432,200,134387,1,0
336,48,134703,1,0
248,24,134861,1,0
248,24,135177,1,0
168,184,135492,5,4
344,232,135808,1,0
304,312,135966,1,0
128,320,136282,1,0
208,272,136440,1,0
136,104,136755,1,0
200,40,136913,1,0
376,72,137229,1,0
312,128,137387,1,0
312,128,137703,1,0
432,256,138018,6,0,B|288:368,1,180,4|0
288,272,138492,2,0,B|208:320|112:272,1,180
184,216,138966,2,0,B|88:200|56:104,1,180
56,16,139439,2,0,B|240:16,1,180
236,16,139913,1,0
236,16,140229,1,0
416,48,140545,6,0,B|464:128,2,90,4|0|0
344,104,141018,1,0
272,160,141176,2,0,B|320:240,2,90,4|0|0
200,216,141650,1,0
120,176,141808,6,0,B|144:128|200:128,1,90,4|0
216,40,142124,2,0,B|264:56|280:112,1,90,4|0
360,80,142439,2,0,B|368:128|336:168,1,90,4|0
416,216,142755,2,0,B|384:256|328:256,1,90,4|0
384,336,143071,5,4
272,192,143387,1,0
496,336,143860,2,0,B|511:241|496:144,1,180
432,96,144334,5,0
368,256,144650,2,0,B|320:342|192:342|144:256,1,270,0|0
144,160,145281,1,0
32,304,145597,5,0
32,128,145913,2,0,B|80:42|208:42|256:128,1,270,0|0
256,224,146544,1,0
416,144,146860,5,0
208,32,147176,1,0
96,240,147492,1,0
304,352,147807,1,0
512,240,148123,6,0,B|416:256|432:192|336:208,1,180,0|0
368,288,148597,1,0
480,160,148913,1,0
480,160,149071,1,0
384,112,149228,6,0,B|256:80|256:192|112:144,2,270,0|0|0
352,208,150334,2,0,B|320:256|260:246,1,90,0|0
176,64,150649,6,0,B|80:16|0:80,1,180
0,272,151123,2,0,B|96:288|80:224|176:240,1,180
320,368,151597,2,0,B|416:384|400:320|496:336,2,180,0|0|0
256,288,152386,5,0
288,192,152544,2,0,B|336:176|384:192,1,90
400,96,152860,2,0,B|448:80|496:96,1,90,0|0
448,256,153176,6,0,B|406:283|342:284,1,90,4|0
256,288,153491,1,8
192,208,153649,1,0
400,96,153965,5,0
96,176,154281,1,0
432,256,154597,1,0
64,336,154912,1,0
160,96,155228,6,0,B|112:80|64:96,1,90,0|8
0,176,155544,1,0
64,256,155702,2,0,B|106:283|170:284,1,90,0|0
256,288,156018,1,8
320,208,156175,1,0
112,96,156491,5,0
416,176,156807,1,0
80,256,157123,1,0
80,256,157281,6,0,B|126:259|176:256,1,90,8|0
352,320,157596,2,0,B|306:323|256:320,1,90
208,128,157912,2,0,B|232:175|263:217,1,90,8|0
416,256,158228,5,6
416,256,158386,1,0
256,256,159175,1,2
256,256,159333,1,0
96,256,160123,1,0
32,96,160438,5,0
32,96,160596,1,0
32,96,160754,2,2,B|128:32|224:112,1,180,2|0
208,112,161228,2,0,B|240:192|144:240|96:144,1,180,2|0
304,80,161701,6,2,B|400:16|496:96,1,180,2|0
480,96,162175,2,0,B|512:176|416:224|368:128,1,180,2|0
304,80,162649,1,2
240,288,162965,1,2
96,128,163280,5,6
96,128,163438,1,0
256,128,164228,1,2
256,128,164385,1,0
416,128,165175,1,0
496,320,165491,5,0
496,320,165649,1,0
496,320,165806,2,2,B|528:240|432:192|384:288,1,180,2|0
384,288,166280,2,0,B|288:352|192:272,1,180,2|0
16,176,166754,6,2,B|-16:256|80:304|128:208,1,180,2|0
128,208,167227,2,0,B|224:144|320:224,1,180,2|0
215,289,167701,1,2
416,176,168017,1,2
128,80,168333,5,6
208,64,168648,1,2
288,48,168964,1,2
368,32,169280,1,2
368,128,169596,5,4
288,144,169754,1,0
208,160,169912,1,0
128,176,170069,1,4
96,256,170227,2,0,B|46:310,3,45,0|0|0|0
160,296,170543,2,0,B|179:360,2,45
200,224,170859,6,0,B|256:128|184:32,1,180,4|8
32,168,171490,1,0
136,336,171806,2,0,B|232:384|304:296,1,180,8|0
432,56,172438,5,8
432,56,172596,1,0
488,136,172753,2,0,B|464:232,3,90,0|0|8|0
432,320,173385,6,0,B|336:272|264:360,1,180,0|8
80,272,173859,2,0,B|176:320|248:232,1,180
280,152,174332,1,8
240,72,174490,1,0
152,48,174648,6,0,B|128:104|144:144,1,90,4|0
352,224,174964,2,0,B|376:168|360:128,1,90,8|0
216,208,175280,2,0,B|192:264|208:304,1,90
288,384,175595,2,0,B|312:328|296:288,1,90,8|8
298,296,175911,5,4
448,128,176227,1,8
424,32,176385,2,0,B|320:-8|272:96,1,180
216,208,176859,1,8
216,208,177016,2,0,B|320:248|368:144,1,180
192,24,177490,1,8
192,24,177648,2,0,B|192:96|144:128,1,90
16,232,178122,5,8
176,344,178437,2,0,B|256:304|360:344,1,180,0|8
350,340,178911,1,0
176,184,179227,1,0
352,24,179543,1,0
408,96,179700,6,0,B|416:152|392:184,1,90
288,224,180016,2,0,B|280:168|304:136,1,90,8|0
376,280,180332,2,0,B|384:336|360:368,1,90
280,328,180648,2,0,B|200:272|104:336,1,180,8|4
40,280,181121,5,2
64,192,181279,2,0,B|152:160,1,90,8|0
176,72,181595,1,2
176,72,181753,1,0
472,104,182069,5,2
448,192,182227,2,0,B|360:224,1,90
256,352,182542,2,2,B|428:289,1,180,10|2
184,168,183332,5,2
104,208,183490,2,0,B|16:240,1,90
224,256,183806,2,0,B|136:288,2,90,10|0|2
296,312,184279,2,0,B|384:280,1,90,0|8
380,281,184595,1,2
54,319,184911,5,0
54,319,185069,2,2,B|226:256,1,180,10|2
272,176,185542,1,0
360,200,185700,1,8
360,200,185858,1,0
456,88,186016,6,0,B|520:184|448:280,1,180,4|8
279,345,186490,2,0,B|215:249|287:153,1,180,0|0
336,112,186963,1,8
112,344,187437,1,0
24,32,187911,2,0,B|64:112|32:208,1,180,0|8
112,256,188384,1,0
160,176,188542,6,0,B|248:128,1,90,4|0
376,160,188858,2,0,B|288:208,1,90,8|0
208,336,189174,2,0,B|296:288,1,90,4|0
424,320,189489,2,0,B|336:368,1,90,8|0
344,363,189805,5,0
160,176,190279,1,0
296,56,190595,1,0
296,56,190753,2,0,B|320:160|264:232,1,180,0|4
296,192,193594,5,4
344,192,193910,1,0
392,192,194226,1,0
440,192,194542,1,0
256,320,194858,6,0,B|208:352,2,45
256,232,195173,2,0,B|304:248,2,45
176,280,195489,2,0,B|128:280,2,45
176,192,195805,2,0,B|160:152,2,45
256,96,196121,6,0,B|296:64|392:72|416:144,1,180,4|0
336,192,196594,1,0
256,288,196752,2,0,B|296:320|392:312|416:240,1,180
336,192,197226,2,0,B|224:192,1,90
246,192,197542,1,0
176,248,197700,6,0,B|128:248|96:208,1,90
154,59,198015,2,0,B|184:104|152:160,1,90
72,120,198331,1,0
72,120,198489,1,0
40,256,198647,6,0,B|40:312|104:368|176:352,1,180
240,304,199121,2,0,B|264:256|328:224|400:248,1,180
408,336,199594,1,0
480,280,199752,1,0
472,192,199910,6,0,B|472:136|440:104,1,90
376,168,200226,1,0
288,168,200384,2,0,B|288:256,2,90
288,80,200857,2,0,B|232:80|192:120|200:168|200:208,1,180,0|4
200,296,201331,5,0
120,256,201489,2,0,B|120:168,1,90
40,208,201805,1,0
40,208,201962,2,0,B|40:296|40:312|40:312|63:354|104:360,1,180
200,296,202436,6,0,B|304:296,1,90
256,216,202752,2,0,B|368:216,1,90
312,136,203068,2,0,B|408:136,1,90
368,56,203383,2,0,B|456:56,2,90
280,56,203857,5,0
224,128,204015,1,0
168,56,204173,1,0
224,232,204489,1,0
224,320,204647,1,0
304,272,204804,5,4
368,208,204962,1,0
392,296,205120,1,0
328,360,205278,1,0
472,312,205436,5,0
384,128,205594,1,0
224,256,205752,1,0
384,128,205910,1,0
384,128,206068,1,0
312,80,206225,6,0,B|128:80,1,180,4|0
88,160,206699,2,0,B|192:160,1,90
312,280,207173,1,0
312,280,207331,2,0,B|368:280|400:232,1,90
320,192,207646,1,0
328,104,207804,2,0,B|264:104|240:160,1,90
320,192,208120,2,0,B|416:192,2,90
312,280,208594,1,0
224,280,208752,6,0,B|168:280|168:280|136:264|136:264|40:264,1,180
48,168,209225,2,0,B|48:112|88:72|144:72|176:88,1,180
144,176,209699,1,0
144,176,209857,1,0
232,176,210015,6,0,B|272:152|360:152|416:184,1,180
232,272,210488,2,0,B|192:296|104:296|48:264,1,180
304,224,210962,2,0,B|352:248|352:296,1,90
456,192,211278,5,4
456,192,211436,1,4
256,40,211751,1,0
256,40,211909,1,0
56,192,212225,1,0
56,192,212383,1,0
256,344,212699,1,0
256,344,212857,1,0
256,256,213015,6,0,B|256:168,1,90
344,192,213330,2,0,B|376:152,2,45
344,280,213646,1,0
432,248,213804,6,0,B|448:288|448:288|448:344,1,90,4|0
256,136,214278,2,0,B|256:48,1,90
80,248,214751,2,0,B|64:288|64:288|64:344,1,90
256,136,215225,1,0
256,136,215383,1,0
192,192,215541,6,0,B|192:248,2,45
136,120,215856,1,0
160,32,216014,1,0
256,344,216330,5,4
256,344,216488,1,0
192,192,216804,1,0
112,192,216962,1,0
216,72,217277,1,0
296,72,217435,1,0
400,192,217751,1,0
320,192,217909,1,0
256,248,218067,6,0,B|216:304,2,45
336,280,218383,1,0
424,288,218541,1,0
480,192,218856,5,4
480,160,219014,1,0
352,192,219330,1,0
352,136,219488,1,0
32,192,219804,5,0
32,160,219962,1,0
160,192,220277,1,0
160,136,220435,1,0
256,160,220554,5,0
256,200,220633,1,0
256,240,220751,1,0
216,312,220909,1,0
296,312,221067,1,0
216,312,221225,1,0
296,312,221382,6,0,B|400:312,1,90,4|0
216,312,221856,2,0,B|112:312,1,90
256,216,222330,2,0,B|328:152,1,90
256,216,222803,2,0,B|176:144,1,90
256,72,223080,5,0
256,72,223159,1,0
256,72,223277,1,0
320,144,223435,1,0
256,216,223593,1,0
192,144,223751,1,0
256,72,223909,5,0
256,72,224067,1,0
256,344,224382,1,0
256,344,224540,1,0
256,72,224856,1,0
256,72,225014,1,0
256,344,225330,1,0
256,344,225488,1,0
312,272,225645,6,0,B|328:224|384:216,1,90
400,304,225961,2,0,B|472:360,2,90
456,232,226435,5,0
360,192,226593,1,0
256,192,226751,2,0,B|256:96,2,90
160,192,227224,1,0
56,232,227382,1,0
160,280,227540,6,0,B|160:328|224:352,1,90
352,280,227856,2,0,B|352:328|288:352,1,90
256,192,228172,12,0,228961
256,192,229119,5,0
48,192,229435,1,0
136,192,229593,1,0
464,192,229908,1,0
376,192,230066,1,0
256,192,230382,1,0
256,192,230540,1,0
256,192,230698,12,4,231487
256,192,231645,5,0
104,288,231961,2,0,B|104:344|160:352|192:328,1,90
408,96,232435,2,0,B|408:40|352:32|320:56,1,90
104,288,232908,2,0,B|104:344|160:352|192:328,1,90
408,96,233382,2,0,B|408:40|352:32|320:56,1,90
256,40,233698,6,0,B|256:96|208:120,1,90
160,40,234013,1,0
64,192,234329,1,0
192,320,234645,1,0
192,232,234803,1,0
192,320,234961,1,0
256,152,235277,1,0
344,152,235434,2,0,B|400:152|424:208,1,90
256,192,235750,12,4,236540
56,192,239066,6,0,B|64:272|112:224|160:304|104:352,1,188.999995493889
456,192,240171,1,0
456,192,241592,6,0,B|448:112|400:160|352:80|408:32,1,188.999995493889
56,192,242697,1,0
256,344,244118,5,0
256,152,244592,1,0
256,152,245223,1,0
328,328,246644,6,0,B|424:288|408:176,2,180,4|8|0
256,272,247434,1,0
184,328,247592,1,8
96,320,247750,2,0,B|32:240|80:152,1,180,0|0
160,192,248223,2,0,B|240:136|232:32,1,180,8|0
320,40,248697,1,0
400,80,248855,1,8
424,168,249013,5,4
400,256,249171,2,0,B|344:344|240:320,1,180,0|8
160,344,249644,1,0
120,264,249802,2,0,B|48:320,1,90
40,232,250118,2,0,B|112:176,1,90,8|0
200,192,250434,1,0
288,176,250591,1,0
352,112,250749,2,0,B|272:48|184:88,1,180,8|0
184,88,251223,1,8
112,256,251539,5,4
168,328,251697,2,0,B|256:296|344:328,1,180,0|8
400,256,252170,1,0
400,168,252328,2,0,B|432:136|440:88,2,90,0|0|8
344,96,252802,2,0,B|160:96,1,180
72,88,253276,2,0,B|80:128|112:168,1,90,8|0
168,240,253591,2,0,B|256:272|344:240,1,180,0|8
256,80,254223,5,0
184,136,254381,1,2
112,192,254539,1,8
168,296,254697,5,2
256,296,254854,1,2
344,296,255012,1,0
400,192,255170,5,10
328,136,255328,1,2
256,80,255486,2,0,B|119:118|51:212|63:344,1,360,2|4
152,344,256275,1,0
216,280,256433,1,4
384,344,256749,5,4
480,192,257065,1,8
384,40,257381,2,0,B|360:136|264:160,1,180,0|8
240,72,257854,2,0,B|143:96|119:192,1,180
200,232,258328,2,0,B|176:328|80:352,1,180,8|0
40,176,258959,5,12
120,136,259117,1,0
168,56,259275,2,0,B|232:120|336:104,1,180,0|8
408,160,259749,2,0,B|360:248|424:328,2,180,0|0|0
432,72,260538,2,0,B|336:32|280:120|232:120|176:32|80:72,1,360,0|4
56,248,261486,5,12
88,328,261644,1,0
176,328,261801,2,0,B|256:264|216:168,1,180,0|8
256,88,262275,1,0
432,56,262591,1,0
472,136,262749,1,8
464,232,262907,2,0,B|360:200|312:288|200:240,1,270,0|8
200,240,263538,1,0
200,240,263696,1,4
256,64,264012,5,12
176,104,264170,1,0
88,88,264328,2,0,B|32:168|88:256,1,180,0|8
144,192,264801,2,0,B|200:272|144:360,2,180
176,104,265591,2,0,B|320:96|416:160|424:304,1,360,0|8
423,301,266380,1,8
248,336,266696,6,0,B|208:352|160:352,1,90,4|0
176,264,267012,2,0,B|128:256|88:240,1,90,0|8
144,168,267327,1,0
144,168,267485,2,0,B|104:144|80:104,2,90,0|0|8
176,80,267959,5,0
256,32,268117,1,0
256,120,268275,1,0
336,80,268433,1,8
416,120,268591,1,0
416,32,268748,1,0
496,80,268906,1,4
448,256,269222,6,0,B|428:302|400:336,1,90,4|0
336,272,269538,2,0,B|304:304|256:320,1,90,0|8
216,240,269854,2,0,B|176:256|128:256,2,90
216,240,270327,1,8
208,152,270485,6,0,B|144:88,2,90
304,152,270959,2,0,B|368:88,2,90,8|0|0
256,232,271432,1,4
256,320,271590,1,8
72,328,271906,6,0,B|144:264|112:160,1,180,4|8
48,104,272380,2,0,B|128:56|224:88,1,180
192,176,272853,2,0,B|208:248|304:248|320:176,1,180,8|0
290,87,273327,2,0,B|384:56|464:104,1,180
398,163,273801,2,0,B|368:264|440:328,1,180,12|0
440,328,274274,1,4
320,312,274432,6,0,B|248:256,1,90,8|0
104,128,274748,2,0,B|176:184,1,90,8|0
320,128,275064,2,0,B|248:184,1,90,8|0
104,312,275380,2,0,B|176:256,1,90,8|0
96,216,275695,5,4
192,64,276011,1,0
192,64,276169,1,4
376,64,276485,1,0
376,64,276643,1,4
432,128,276801,5,0
432,128,276959,2,0,B|420:166|416:192|416:192|432:224|432:224|428:257|413:301,1,180,4|8
336,352,277432,1,0
256,320,277590,2,0,B|266:278|281:223,1,90
128,176,277906,6,0,B|224:192|208:128|304:144,1,180,8|0
160,96,278379,1,0
160,96,278537,2,0,B|107:80|66:112,1,90,8|0
16,240,278853,2,0,B|21:286|41:337,1,90
176,368,279169,2,0,B|177:321|151:271,1,90,8|0
256,192,279485,6,0,B|268:230|272:256|272:256|256:288|256:288|260:321|275:365,1,180,0|8
431,303,279958,2,0,B|380:307|335:303,1,90
192,240,280274,2,0,B|182:198|167:143,2,90,0|8|0
352,192,280748,6,0,B|403:196|448:192,1,90
256,160,281064,2,0,B|266:202|281:257,1,90,8|0
400,112,281379,2,0,B|304:128|320:64|224:80,1,180,0|8
144,96,281853,1,8
96,176,282011,6,0,B|142:180|192:176,1,90,0|0
320,272,282327,2,0,B|366:276|416:272,1,90,8|0
256,344,282642,2,0,B|210:348|160:344,1,90
264,176,282958,2,0,B|254:218|239:273,1,90,8|0
480,320,283274,6,0,B|492:282|496:256|496:256|480:224|480:224|484:191|499:147,2,180,0|8|0
416,176,284063,2,0,B|428:130|438:88,1,90,0|8
368,32,284379,1,0
176,64,284537,6,0,B|188:102|192:128|192:128|176:160|176:160|180:193|195:237,1,180,0|8
112,112,285011,2,0,B|66:109|16:112,2,90
256,176,285484,2,0,B|302:180|352:176,1,90,8|0
96,192,285800,6,0,B|106:234|121:289,1,90
288,256,286116,2,0,B|237:252|192:256,1,90,8|0
80,368,286432,2,0,B|176:384|160:320|256:336,1,180,0|8
336,352,286905,1,8
416,336,287063,6,0,B|428:290|438:248,1,90,4|2
432,80,287379,2,0,B|419:125|409:167,1,90,8|0
256,112,287695,1,2
256,112,287853,2,0,B|218:100|192:96|192:96|160:112|160:112|127:108|83:93,1,180,2|0
192,16,288326,6,0,B|241:24|286:41,1,90,0|2
336,128,288642,1,8
112,192,288958,1,2
336,256,289274,1,8
256,320,289432,5,0
256,320,289589,2,0,B|217:305|168:297,1,90,0|2
0,320,289905,2,0,B|48:327|87:342,1,90,8|2
192,208,290221,2,0,B|206:169|214:120,1,90,2|0
80,32,290537,5,8
80,32,290695,2,0,B|68:70|64:96|64:96|80:128|80:128|76:161|61:205,1,180,2|0
144,80,291168,1,10
416,80,291484,1,2
320,48,291642,1,0
224,32,291800,1,8
16,272,292116,6,0,B|54:284|80:288|80:288|112:272|112:272|145:276|189:291,1,180,0|8
272,176,292589,2,0,B|260:214|256:240|256:240|272:272|272:272|268:305|253:349,1,180,0|0
336,224,293063,1,8
192,176,293221,5,0
464,128,293537,1,0
192,80,293852,1,0
112,192,294010,2,0,B|124:154|128:128|128:128|112:96|112:96|116:63|131:19,1,180,0|8
48,144,294484,1,0
32,256,294642,6,0,B|42:298|57:353,1,90,4|0
112,192,294958,2,0,B|122:234|137:289,1,90,8|0
224,256,295273,2,0,B|234:298|249:353,1,90,4|0
304,192,295589,2,0,B|314:234|329:289,1,90,8|0
256,192,295905,12,4,297168
