osu file format v13

[General]
AudioFilename: Fairy Tail Opening 16 [STRIKE BACK].mp3
AudioLeadIn: 1500
PreviewTime: 60333
Countdown: 0
SampleSet: Soft
StackLeniency: 0.7
Mode: 0
LetterboxInBreaks: 0
WidescreenStoryboard: 0

[Editor]
Bookmarks: 9083,10083
DistanceSpacing: 0.6
BeatDivisor: 4
GridSize: 4
TimelineZoom: 1

[Metadata]
Title:STRIKE BACK
TitleUnicode:STRIKE BACK
Artist:BACK-ON
ArtistUnicode:BACK-ON
Creator:HabiHolic
Version:Insane
Source:FAIRY TAIL
Tags:フェアリーテイル Opening 16 Prayer Xinely Karia
BeatmapID:460809
BeatmapSetID:193996

[Difficulty]
HPDrainRate:7
CircleSize:4
OverallDifficulty:7
ApproachRate:9
SliderMultiplier:1.8
SliderTickRate:2

[Events]
//Background and Video events
Video,0,"Video.avi"
0,0,"BG.jpg",0,0
//Break Periods
//Storyboard Layer 0 (Background)
//Storyboard Layer 1 (Fail)
//Storyboard Layer 2 (Pass)
//Storyboard Layer 3 (Foreground)
//Storyboard Sound Samples
//Background Colour Transformations
3,100,163,162,255

[TimingPoints]
250,333.333333333333,4,2,1,50,1,0
250,-133.333333333333,4,2,1,50,0,0
9583,-133.333333333333,4,2,1,30,0,0
10916,-100,4,2,1,65,0,0
60416,-200,4,2,1,30,0,0
61583,-83.3333333333333,4,2,1,80,0,1
82916,-100,4,2,1,65,0,0

[Colours]
Combo1 : 247,134,243
Combo2 : 105,191,233
Combo3 : 129,225,121
Combo4 : 166,96,236

[HitObjects]
156,264,250,5,2,0:0:0:0:
216,188,416,1,2,0:0:0:0:
216,88,583,2,0,P|212:52|200:16,1,67.5000025749208
137,225,916,5,2,0:0:0:0:
219,174,1082,1,2,0:0:0:0:
253,80,1249,2,0,P|262:45|263:7,1,67.5000025749208
133,182,1583,5,2,0:0:0:0:
227,163,1749,1,2,0:0:0:0:
292,86,1916,2,0,P|312:56|326:21,1,67.5000025749208
143,141,2249,5,2,0:0:0:0:
239,155,2415,1,2,0:0:0:0:
326,105,2582,2,0,P|355:83|380:55,1,67.5000025749208,0|4,0:0|3:0,0:0:0:0:
376,60,2833,1,4,3:0:0:0:
376,60,2916,1,4,3:0:0:0:
332,196,3083,5,2,0:0:0:0:
412,260,3249,2,0,L|488:248,1,67.5000025749208,2|0,0:0|0:0,0:0:0:0:
332,196,3583,5,2,0:0:0:0:
272,272,3749,1,2,0:0:0:0:
176,252,3916,2,0,P|148:248|108:232,1,67.5000025749208,0|0,0:0|0:0,0:0:0:0:
326,221,4249,5,2,0:0:0:0:
243,272,4415,1,2,0:0:0:0:
160,221,4582,2,0,P|135:207|103:178,1,67.5000025749208,0|0,0:0|0:0,0:0:0:0:
311,243,4916,5,2,0:0:0:0:
216,263,5082,1,2,0:0:0:0:
156,186,5249,2,0,P|137:165|116:127,1,67.5000025749208,0|0,0:0|0:0,0:0:0:0:
248,120,5583,5,2,0:0:0:0:
280,332,5749,1,2,0:0:0:0:
348,216,5916,2,0,P|328:220|280:224,1,67.5000025749208,0|0,0:0|0:0,0:0:0:0:
112,276,6249,5,2,0:0:0:0:
36,204,6416,1,2,0:0:0:0:
56,104,6583,2,0,P|56:68|52:28,1,67.5000025749208
128,299,6916,5,2,0:0:0:0:
41,242,7083,1,2,0:0:0:0:
43,140,7250,2,0,P|37:104|26:65,1,67.5000025749208
132,192,7583,5,2,0:0:0:0:
256,136,7749,1,2,0:0:0:0:
252,280,7916,1,0,0:0:0:0:
160,88,8083,1,8,3:0:0:0:
252,280,8249,6,0,P|288:272|328:272,1,67.5000025749208,8|2,3:0|0:0,0:0:0:0:
408,320,8583,1,2,0:0:0:0:
496,268,8749,1,0,0:0:0:0:
468,168,8916,6,0,P|464:132|468:96,1,67.5000025749208,2|2,0:0|0:0,0:0:0:0:
368,32,9249,2,0,P|372:68|368:104,1,67.5000025749208,0|0,0:0|0:0,0:0:0:0:
288,152,9583,5,8,0:0:0:0:
288,152,9666,1,8,0:0:0:0:
288,152,9749,1,8,0:0:0:0:
148,96,9916,1,8,0:0:0:0:
168,232,10083,1,8,0:0:0:0:
244,52,10249,1,0,0:0:0:0:
168,232,10583,1,0,0:0:0:0:
168,232,10916,6,0,L|76:224,1,90,4|0,0:0|0:0,0:0:0:0:
16,152,11249,1,8,0:0:0:0:
87,376,11416,2,0,P|159:326|240:356,1,180,2|2,0:0|0:0,0:0:0:0:
344,376,11916,2,0,P|348:292|344:188,1,180,8|2,0:0|0:0,0:0:0:0:
204,120,12416,2,0,P|200:164|204:212,1,90,2|8,0:0|0:0,0:0:0:0:
260,288,12749,1,0,0:0:0:0:
316,136,12916,2,0,P|320:92|316:44,1,90,2|2,0:0|0:0,0:0:0:0:
220,16,13249,1,8,0:0:0:0:
220,16,13333,1,2,0:0:0:0:
220,16,13416,1,2,0:0:0:0:
96,120,13583,6,0,P|48:120|0:108,2,90,2|2|8,0:0|0:0|0:0,0:0:0:0:
144,247,14083,2,0,P|186:174|271:179,1,180,2|2,0:0|0:0,0:0:0:0:
212,319,14583,2,0,P|130:350|55:306,1,180,8|2,0:0|0:0,0:0:0:0:
48,216,15083,2,0,P|44:172|28:124,2,90,2|8|2,0:0|0:0|0:0,0:0:0:0:
144,248,15583,1,2,0:0:0:0:
104,56,15749,1,2,0:0:0:0:
292,116,15916,1,8,0:0:0:0:
292,116,15999,1,2,0:0:0:0:
292,116,16083,1,2,0:0:0:0:
180,140,16249,5,2,0:0:0:0:
376,184,16416,2,0,P|424:180|472:160,1,90,2|8,0:0|0:0,0:0:0:0:
260,223,16749,2,0,P|176:251|96:214,1,180,2|2,0:0|0:0,0:0:0:0:
32,136,17249,2,0,P|36:88|32:40,1,90,8|0,0:0|0:0,0:0:0:0:
140,4,17583,2,0,P|136:52|140:100,1,90,2|2,0:0|0:0,0:0:0:0:
212,160,17916,1,8,0:0:0:0:
376,64,18083,1,0,0:0:0:0:
192,180,18249,2,0,L|288:168,1,90,2|2,0:0|0:0,0:0:0:0:
460,120,18583,1,8,0:0:0:0:
460,120,18666,1,2,0:0:0:0:
460,120,18749,1,2,0:0:0:0:
232,136,18916,6,0,L|120:124,1,90,2|2,0:0|0:0,0:0:0:0:
68,64,19249,1,8,0:0:0:0:
32,268,19416,2,0,P|96:296|184:224,1,180,2|2,0:0|0:0,0:0:0:0:
284,164,19916,2,0,P|296:204|292:268,1,90,8|2,0:0|0:0,0:0:0:0:
344,344,20249,1,2,0:0:0:0:
236,360,20416,2,0,L|144:356,2,90,2|8|2,0:0|0:0|0:0,0:0:0:0:
236,360,20916,1,2,0:0:0:0:
304,112,21083,1,2,0:0:0:0:
204,236,21249,5,8,0:0:0:0:
177,232,21332,1,0,0:0:0:0:
150,228,21415,1,0,0:0:0:0:
123,224,21498,1,0,0:0:0:0:
96,220,21583,6,0,P|96:172|100:124,1,90,4|2,0:0|0:0,0:0:0:0:
176,52,21916,1,8,0:0:0:0:
12,156,22083,1,0,0:0:0:0:
236,136,22249,2,0,L|332:120,1,90,2|2,0:0|0:0,0:0:0:0:
492,44,22583,2,0,L|396:60,1,90,8|0,0:0|0:0,0:0:0:0:
312,16,22916,5,2,0:0:0:0:
200,228,23083,2,0,P|161:205|138:167,1,90,2|8,0:0|0:0,0:0:0:0:
296,192,23416,2,0,L|276:372,1,180,2|2,0:0|0:0,0:0:0:0:
380,344,23916,2,0,L|392:240,1,90,8|0,0:0|0:0,0:0:0:0:
184,316,24249,2,0,P|124:288|36:352,1,180,2|8,0:0|0:0,0:0:0:0:
120,372,24749,1,0,0:0:0:0:
104,204,24916,6,0,P|112:160|104:112,1,90,2|2,0:0|0:0,0:0:0:0:
160,32,25249,2,0,L|252:44,1,90,8|0,0:0|0:0,0:0:0:0:
328,160,25583,2,0,P|360:81|445:79,1,180,2|8,0:0|0:0,0:0:0:0:
367,256,26083,2,0,P|280:256|224:189,1,180,2|2,0:0|0:0,0:0:0:0:
224,96,26583,2,0,L|228:40,2,45,8|2|2,0:0|0:0|0:0,0:0:0:0:
420,176,26916,6,0,P|464:172|512:184,2,90,4|2|8,0:0|0:0|0:0,0:0:0:0:
368,256,27416,1,0,0:0:0:0:
264,128,27583,2,0,L|272:32,1,90,2|2,0:0|0:0,0:0:0:0:
192,192,27916,2,0,L|184:288,1,90,8|0,0:0|0:0,0:0:0:0:
240,371,28249,2,0,P|303:313|385:338,1,180,2|8,0:0|0:0,0:0:0:0:
468,272,28749,1,0,0:0:0:0:
400,184,28916,2,0,P|396:136|400:88,1,90,2|2,0:0|0:0,0:0:0:0:
288,16,29249,2,0,P|292:64|288:112,1,90,8|0,0:0|0:0,0:0:0:0:
212,184,29583,6,0,B|144:176|144:176|108:148|108:148|28:140,1,180,2|8,0:0|0:0,0:0:0:0:
48,236,30083,1,0,0:0:0:0:
188,84,30249,2,0,P|200:40|192:-8,1,90,2|2,0:0|0:0,0:0:0:0:
292,124,30583,2,0,L|384:132,1,90,8|0,0:0|0:0,0:0:0:0:
468,64,30916,1,2,0:0:0:0:
348,216,31083,1,2,0:0:0:0:
348,216,31166,1,2,0:0:0:0:
348,216,31249,1,8,0:0:0:0:
388,16,31416,1,2,0:0:0:0:
248,212,31583,5,2,0:0:0:0:
225,209,31666,1,2,0:0:0:0:
203,207,31749,1,2,0:0:0:0:
180,204,31832,1,2,0:0:0:0:
158,202,31916,1,8,0:0:0:0:
80,120,32083,1,2,0:0:0:0:
23,368,32249,6,0,P|84:306|169:322,1,180,4|8,0:0|0:0,0:0:0:0:
272,360,32749,1,0,0:0:0:0:
344,280,32916,2,0,P|348:232|344:188,1,90,2|2,0:0|0:0,0:0:0:0:
204,100,33249,2,0,L|108:112,1,90,8|0,0:0|0:0,0:0:0:0:
36,188,33583,1,2,0:0:0:0:
156,8,33749,1,2,0:0:0:0:
36,188,33916,1,8,0:0:0:0:
244,216,34083,1,2,0:0:0:0:
244,216,34166,1,2,0:0:0:0:
244,216,34249,1,2,0:0:0:0:
40,152,34416,2,0,L|52:248,2,90,2|8|2,0:0|0:0|0:0,0:0:0:0:
191,303,34916,6,0,P|278:314|338:251,1,180,2|8,0:0|0:0,0:0:0:0:
320,148,35416,1,0,0:0:0:0:
144,184,35583,2,0,L|48:176,1,90,2|2,0:0|0:0,0:0:0:0:
88,276,35916,1,8,0:0:0:0:
108,80,36083,1,0,0:0:0:0:
240,220,36249,2,0,P|240:176|224:120,2,90,2|2|8,0:0|0:0|0:0,0:0:0:0:
180,300,36749,1,0,0:0:0:0:
40,160,36916,1,2,0:0:0:0:
280,308,37083,1,2,0:0:0:0:
264,124,37249,1,8,0:0:0:0:
144,200,37415,5,2,0:0:0:0:
144,200,37499,1,8,0:0:0:0:
144,200,37583,2,0,L|132:380,1,180,4|8,0:0|0:0,0:0:0:0:
132,379,38083,1,0,0:0:0:0:
280,344,38249,2,0,P|320:320|368:312,1,90,2|2,0:0|0:0,0:0:0:0:
488,228,38583,2,0,P|448:208|396:200,1,90,8|0,0:0|0:0,0:0:0:0:
240,96,38916,2,0,P|312:116|408:72,1,180,2|8,0:0|0:0,0:0:0:0:
404,75,39416,1,0,0:0:0:0:
160,28,39583,2,0,L|60:40,1,90,2|2,0:0|0:0,0:0:0:0:
16,128,39916,2,0,P|40:164|44:216,1,90,8|0,0:0|0:0,0:0:0:0:
68,363,40249,6,0,P|113:290|199:287,1,180,4|2,0:0|0:0,0:0:0:0:
288,336,40749,1,2,0:0:0:0:
376,264,40916,2,0,P|372:216|360:168,1,90,8|0,0:0|0:0,0:0:0:0:
412,84,41249,2,0,L|456:88,2,45,2|2|2,0:0|0:0|0:0,0:0:0:0:
336,28,41583,2,0,L|196:40,2,135,8|2|2,0:0|0:0|0:0,0:0:0:0:
488,32,42249,1,2,0:0:0:0:
328,124,42416,1,2,0:0:0:0:
412,176,42583,2,0,P|416:224|412:272,1,90,8|0,0:0|0:0,0:0:0:0:
352,352,42916,5,4,0:0:0:0:
228,296,43083,1,2,0:0:0:0:
108,352,43249,1,8,0:0:0:0:
108,352,43583,2,0,P|96:312|96:264,1,90,2|2,0:0|0:0,0:0:0:0:
152,176,43916,1,8,0:0:0:0:
8,312,44083,1,0,0:0:0:0:
152,176,44249,6,0,L|252:188,1,90,2|2,0:0|0:0,0:0:0:0:
468,272,44583,2,0,L|368:260,1,90,8|0,0:0|0:0,0:0:0:0:
292,296,44916,1,2,0:0:0:0:
492,248,45083,1,2,0:0:0:0:
352,104,45249,1,8,0:0:0:0:
352,104,45583,5,2,0:0:0:0:
224,208,45749,1,2,0:0:0:0:
224,208,45833,1,2,0:0:0:0:
224,208,45916,1,8,0:0:0:0:
340,72,46083,1,0,0:0:0:0:
288,288,46249,2,0,L|384:280,1,90,2|2,0:0|0:0,0:0:0:0:
452,124,46583,2,0,L|356:132,1,90,8|0,0:0|0:0,0:0:0:0:
196,180,46916,5,2,0:0:0:0:
444,216,47083,1,2,0:0:0:0:
444,216,47166,1,2,0:0:0:0:
444,216,47249,1,8,0:0:0:0:
264,92,47416,2,0,P|272:44|264:0,2,90,0|2|2,0:0|0:0|0:0,0:0:0:0:
164,164,47916,2,0,P|156:212|164:256,1,90,8|0,0:0|0:0,0:0:0:0:
200,348,48249,5,4,0:0:0:0:
304,312,48416,1,2,0:0:0:0:
408,360,48583,2,0,P|452:364|504:360,1,90,8|0,0:0|0:0,0:0:0:0:
452,224,48916,2,0,P|372:189|352:104,1,180,2|8,0:0|0:0,0:0:0:0:
416,24,49416,1,0,0:0:0:0:
260,176,49583,6,0,L|156:164,1,90,2|2,0:0|0:0,0:0:0:0:
104,92,49916,1,8,0:0:0:0:
288,192,50083,1,0,0:0:0:0:
28,152,50249,2,0,P|8:112|8:60,1,90,2|2,0:0|0:0,0:0:0:0:
116,184,50583,2,0,L|104:284,1,90,8|0,0:0|0:0,0:0:0:0:
168,372,50916,6,0,P|224:308|312:324,1,180,2|8,0:0|0:0,0:0:0:0:
412,360,51416,1,0,0:0:0:0:
476,284,51583,2,0,P|476:240|468:180,1,90,2|2,0:0|0:0,0:0:0:0:
328,104,51916,2,0,P|328:148|336:208,1,90,8|0,0:0|0:0,0:0:0:0:
304,296,52249,5,2,0:0:0:0:
136,200,52416,1,2,0:0:0:0:
136,200,52499,1,2,0:0:0:0:
136,200,52583,1,8,0:0:0:0:
280,320,52749,1,0,0:0:0:0:
228,152,52916,2,0,L|236:56,1,90,2|2,0:0|0:0,0:0:0:0:
235,62,53166,1,2,0:0:0:0:
235,62,53250,1,8,0:0:0:0:
220,256,53416,1,0,0:0:0:0:
136,100,53583,6,0,L|36:112,2,90,2|2|8,0:0|0:0|0:0,0:0:0:0:
136,100,54083,1,0,0:0:0:0:
320,120,54249,2,0,P|408:124|460:48,1,180,2|8,0:0|0:0,0:0:0:0:
368,32,54749,1,0,0:0:0:0:
344,216,54916,6,0,P|340:280|352:360,1,135,2|0,0:0|0:0,0:0:0:0:
349,350,55249,2,0,L|440:344,1,90,8|0,0:0|0:0,0:0:0:0:
240,304,55583,2,0,L|149:310,1,90,2|2,0:0|0:0,0:0:0:0:
56,260,55916,2,0,P|44:192|52:116,1,135,2|0,0:0|0:0,0:0:0:0:
49,126,56249,6,0,L|144:120,1,90,2|2,0:0|0:0,0:0:0:0:
268,48,56583,1,8,0:0:0:0:
200,200,56749,2,0,P|196:248|208:296,1,90,0|2,0:0|0:0,0:0:0:0:
272,360,57083,1,2,0:0:0:0:
308,216,57249,2,0,P|312:168|300:120,1,90,8|0,0:0|0:0,0:0:0:0:
172,52,57583,5,2,0:0:0:0:
176,240,57749,1,2,0:0:0:0:
176,240,57833,1,2,0:0:0:0:
176,240,57916,1,8,0:0:0:0:
260,100,58083,1,0,0:0:0:0:
88,184,58249,2,0,L|-4:172,1,90,2|2,0:0|0:0,0:0:0:0:
123,335,58583,6,0,P|189:346|249:318,1,135,8|0,0:0|0:0,0:0:0:0:
249,318,58916,2,0,L|280:228,1,90,2|2,0:0|0:0,0:0:0:0:
244,108,59249,1,8,0:0:0:0:
348,308,59416,1,2,0:0:0:0:
176,184,59583,2,0,L|76:172,1,90,2|2,0:0|0:0,0:0:0:0:
16,104,59916,1,8,0:0:0:0:
116,272,60083,1,2,0:0:0:0:
276,202,60416,6,0,P|344:99|256:12,1,270,2|2,0:0|0:0,0:0:0:0:
276,203,61583,6,0,L|292:320,1,107.999996704102,4|0,0:0|0:0,0:0:0:0:
220,376,61916,1,8,0:0:0:0:
200,144,62083,2,0,L|184:27,1,107.999996704102,0|2,0:0|0:0,0:0:0:0:
104,104,62416,1,2,0:0:0:0:
284,84,62583,1,8,0:0:0:0:
191,232,62749,2,0,P|132:315|30:301,1,215.999993408203,2|2,0:0|0:0,0:0:0:0:
272,196,63249,2,0,L|384:192,1,107.999996704102,8|0,0:0|0:0,0:0:0:0:
328,288,63583,1,2,0:0:0:0:
328,96,63749,1,2,0:0:0:0:
196,148,63916,6,0,L|84:152,1,107.999996704102,8|0,0:0|0:0,0:0:0:0:
16,80,64249,1,2,0:0:0:0:
152,248,64416,2,0,P|160:304|152:364,1,107.999996704102,2|8,0:0|0:0,0:0:0:0:
56,304,64749,2,0,L|280:296,1,215.999993408203,2|2,0:0|0:0,0:0:0:0:
364,356,65249,1,8,0:0:0:0:
456,304,65416,2,0,P|464:252|460:192,1,107.999996704102,0|2,0:0|0:0,0:0:0:0:
384,124,65749,1,2,0:0:0:0:
428,368,65916,1,8,0:0:0:0:
288,176,66083,1,0,0:0:0:0:
392,292,66249,6,0,L|276:312,1,107.999996704102,2|2,0:0|0:0,0:0:0:0:
84,260,66583,2,0,L|200:240,1,107.999996704102,8|0,0:0|0:0,0:0:0:0:
200,144,66916,1,2,0:0:0:0:
52,248,67083,1,2,0:0:0:0:
136,68,67249,1,8,0:0:0:0:
100,288,67416,1,0,0:0:0:0:
200,144,67583,2,0,L|308:136,2,107.999996704102,2|2|8,0:0|0:0|0:0,0:0:0:0:
160,296,68083,6,0,B|240:300|240:300|276:328|276:328|376:336,1,215.999993408203,2|2,0:0|0:0,0:0:0:0:
444,228,68583,2,0,L|324:220,1,107.999996704102,8|0,0:0|0:0,0:0:0:0:
196,380,68916,1,2,0:0:0:0:
280,144,69083,1,2,0:0:0:0:
196,380,69249,1,8,0:0:0:0:
248,128,69416,1,0,0:0:0:0:
44,184,69583,2,0,B|56:148|56:148|48:72,1,107.999996704102,2|2,0:0|0:0,0:0:0:0:
112,248,69916,2,0,B|100:284|100:284|108:360,1,107.999996704102,8|0,0:0|0:0,0:0:0:0:
16,272,70249,5,2,0:0:0:0:
136,156,70416,1,2,0:0:0:0:
16,272,70583,1,8,0:0:0:0:
60,84,70749,1,0,0:0:0:0:
204,224,70916,2,0,P|260:224|312:196,1,107.999996704102,2|2,0:0|0:0,0:0:0:0:
224,20,71249,2,0,L|236:128,1,107.999996704102,8|0,0:0|0:0,0:0:0:0:
260,312,71583,5,2,0:0:0:0:
260,312,71666,1,8,0:0:0:0:
260,312,71749,1,2,0:0:0:0:
40,280,71916,1,8,0:0:0:0:
40,279,72249,2,0,P|111:203|99:99,1,215.999993408203,4|8,0:0|0:0,0:0:0:0:
192,32,72749,2,0,L|300:48,1,107.999996704102,0|2,0:0|0:0,0:0:0:0:
376,176,73083,2,0,L|268:160,1,107.999996704102,2|8,0:0|0:0,0:0:0:0:
408,256,73416,6,0,B|452:248|484:200|464:148|464:148|504:120|504:80,1,215.999993408203,2|2,0:0|0:0,0:0:0:0:
320,244,73916,2,0,L|328:360,1,107.999996704102,8|0,0:0|0:0,0:0:0:0:
327,351,74249,1,2,0:0:0:0:
376,176,74416,1,2,0:0:0:0:
240,200,74583,2,0,P|196:196|132:176,1,107.999996704102,8|0,0:0|0:0,0:0:0:0:
36,116,74916,2,0,L|60:336,1,215.999993408203,2|8,0:0|0:0,0:0:0:0:
160,368,75416,2,0,P|212:340|260:340,1,107.999996704102,0|2,0:0|0:0,0:0:0:0:
396,260,75749,2,0,P|352:232|292:220,1,107.999996704102,2|8,0:0|0:0,0:0:0:0:
56,204,76083,6,0,P|160:198|218:111,1,215.999993408203,2|2,0:0|0:0,0:0:0:0:
304,40,76583,2,0,P|328:96|324:148,1,107.999996704102,8|0,0:0|0:0,0:0:0:0:
380,240,76916,2,0,P|420:192|432:132,1,107.999996704102,2|2,0:0|0:0,0:0:0:0:
280,232,77249,2,0,L|300:352,1,107.999996704102,8|0,0:0|0:0,0:0:0:0:
200,304,77583,1,2,0:0:0:0:
340,152,77749,1,2,0:0:0:0:
172,212,77916,2,0,L|56:224,1,107.999996704102,8|0,0:0|0:0,0:0:0:0:
12,152,78249,1,2,0:0:0:0:
244,136,78416,2,0,P|252:80|244:24,1,107.999996704102,2|8,0:0|0:0,0:0:0:0:
200,303,78749,6,0,P|301:287|359:371,1,215.999993408203,2|2,0:0|0:0,0:0:0:0:
456,300,79249,2,0,L|444:192,1,107.999996704102,8|0,0:0|0:0,0:0:0:0:
360,16,79583,2,0,L|372:124,1,107.999996704102,2|2,0:0|0:0,0:0:0:0:
271,200,79916,2,0,P|194:189|152:122,1,161.999995056153,8|0,0:0|0:0,0:0:0:0:
152,122,80249,2,0,L|160:4,1,107.999996704102,2|2,0:0|0:0,0:0:0:0:
248,72,80583,1,8,0:0:0:0:
168,260,80749,1,0,0:0:0:0:
336,124,80916,6,0,L|448:116,1,107.999996704102,2|2,0:0|0:0,0:0:0:0:
380,32,81249,1,8,0:0:0:0:
392,208,81416,1,0,0:0:0:0:
240,160,81583,2,0,P|215:60|115:37,1,215.999993408203,2|8,0:0|0:0,0:0:0:0:
144,128,82083,1,0,0:0:0:0:
168,220,82249,1,2,0:0:0:0:
171,246,82332,1,2,0:0:0:0:
174,273,82415,1,2,0:0:0:0:
178,300,82498,1,2,0:0:0:0:
180,328,82583,2,0,P|236:332|296:320,1,107.999996704102,8|0,0:0|0:0,0:0:0:0:
364,216,82916,5,4,0:0:0:0:
256,192,82999,12,8,85249,0:0:0:0:
136,336,85583,6,0,L|49:362,1,90,2|2,0:0|0:0,0:0:0:0:
160,236,85916,1,8,0:0:0:0:
248,300,86083,2,0,P|336:312|408:256,1,180,2|2,0:0|0:0,0:0:0:0:
480,172,86583,2,0,B|464:108|464:108|432:72|432:72|416:4,1,180,8|2,0:0|0:0,0:0:0:0:
376,176,87083,2,0,B|392:240|392:240|424:276|424:276|440:344,1,180,2|8,0:0|0:0,0:0:0:0:
328,332,87583,2,0,P|280:336|220:328,1,90,2|2,0:0|0:0,0:0:0:0:
172,224,87916,1,8,0:0:0:0:
169,206,87999,1,2,0:0:0:0:
167,188,88082,1,4,0:0:0:0:
