osu file format v13

[General]
AudioFilename: Fairy Tail Opening 16 [STRIKE BACK].mp3
AudioLeadIn: 1500
PreviewTime: 60333
Countdown: 0
SampleSet: Soft
StackLeniency: 0.7
Mode: 0
LetterboxInBreaks: 0
WidescreenStoryboard: 0

[Editor]
Bookmarks: 9083
DistanceSpacing: 1.1
BeatDivisor: 2
GridSize: 4
TimelineZoom: 1

[Metadata]
Title:STRIKE BACK
TitleUnicode:STRIKE BACK
Artist:BACK-ON
ArtistUnicode:BACK-ON
Creator:HabiHolic
Version:Easy
Source:FAIRY TAIL
Tags:フェアリーテイル Opening 16 Prayer Xinely Karia
BeatmapID:463693
BeatmapSetID:193996

[Difficulty]
HPDrainRate:2
CircleSize:3
OverallDifficulty:2
ApproachRate:3
SliderMultiplier:0.899999999999999
SliderTickRate:1

[Events]
//Background and Video events
Video,0,"Video.avi"
0,0,"BG.jpg",0,0
//Break Periods
//Storyboard Layer 0 (Background)
//Storyboard Layer 1 (Fail)
//Storyboard Layer 2 (Pass)
//Storyboard Layer 3 (Foreground)
//Storyboard Sound Samples
//Background Colour Transformations
3,100,163,162,255

[TimingPoints]
250,333.333333333333,4,2,1,50,1,0
9583,-100,4,2,1,30,0,0
10916,-100,4,2,1,65,0,0
61583,-100,4,2,1,80,0,1
82916,-100,4,2,1,65,0,0

[Colours]
Combo1 : 247,134,243
Combo2 : 105,191,233
Combo3 : 129,225,121
Combo4 : 166,96,236

[HitObjects]
180,168,250,6,0,P|157:84|76:54,1,180,2|2,0:0|0:0,0:0:0:0:
84,152,1249,1,2,0:0:0:0:
116,244,1583,2,0,P|201:260|266:203,1,180,2|2,0:0|0:0,0:0:0:0:
304,112,2583,1,2,0:0:0:0:
400,136,2916,6,0,P|402:91|382:51,2,89.9999999999999,2|0|2,0:0|0:0|0:0,0:0:0:0:
444,224,3916,1,0,0:0:0:0:
444,224,4249,2,0,P|476:196|492:144,2,89.9999999999999,2|0|2,0:0|0:0|0:0,0:0:0:0:
344,216,5249,1,2,0:0:0:0:
279,139,5583,6,0,P|193:137|144:208,1,180,2|2,0:0|0:0,0:0:0:0:
240,228,6583,1,2,0:0:0:0:
308,300,6916,2,0,L|408:292,1,89.9999999999999,2|0,0:0|0:0,0:0:0:0:
488,332,7583,2,0,P|496:288|476:228,1,89.9999999999999,2|0,0:0|0:0,0:0:0:0:
408,184,8249,6,0,P|323:165|287:86,1,180,2|2,0:0|0:0,0:0:0:0:
388,84,9249,1,2,0:0:0:0:
388,84,9583,2,0,L|492:96,2,89.9999999999999,8|8|0,0:0|0:0|0:0,0:0:0:0:
256,232,10916,6,0,L|256:376,2,135,4|8|8,0:0|0:0|0:0,0:0:0:0:
196,96,12416,2,0,P|256:72|317:97,1,135,2|2,0:0|0:0,0:0:0:0:
388,168,13249,1,8,0:0:0:0:
488,156,13583,6,0,L|492:12,2,135,2|8|8,0:0|0:0|0:0,0:0:0:0:
456,304,15083,2,0,P|410:256|344:257,1,135,2|2,0:0|0:0,0:0:0:0:
256,300,15916,1,8,0:0:0:0:
167,257,16249,6,0,P|101:256|55:304,2,135,2|8|8,0:0|0:0|0:0,0:0:0:0:
292,336,17749,2,0,B|276:292|276:292|288:204,1,135,2|2,0:0|0:0,0:0:0:0:
316,108,18583,1,8,0:0:0:0:
240,48,18916,6,0,P|297:13|362:22,2,135,2|8|8,0:0|0:0|0:0,0:0:0:0:
208,195,20416,2,0,P|157:238|91:233,1,135,2|2,0:0|0:0,0:0:0:0:
128,140,21249,1,8,0:0:0:0:
219,99,21583,6,0,P|291:148|294:235,1,180,4|2,0:0|0:0,0:0:0:0:
220,300,22583,1,8,0:0:0:0:
140,244,22916,2,0,L|0:232,2,135,2|2|8,0:0|0:0|0:0,0:0:0:0:
220,300,24249,6,0,P|307:300|365:235,1,180,2|2,0:0|0:0,0:0:0:0:
356,136,25249,1,8,0:0:0:0:
344,36,25583,2,0,L|484:52,2,135,2|2|8,0:0|0:0|0:0,0:0:0:0:
267,100,26916,6,0,P|204:158|119:139,1,180,4|2,0:0|0:0,0:0:0:0:
180,60,27916,1,8,0:0:0:0:
268,100,28249,2,0,L|292:288,1,180,2|2,0:0|0:0,0:0:0:0:
356,352,29249,1,8,0:0:0:0:
400,264,29583,6,0,L|376:76,1,180,2|2,0:0|0:0,0:0:0:0:
292,36,30583,1,8,0:0:0:0:
224,108,30916,2,0,P|140:133|72:80,1,180,2|2,0:0|0:0,0:0:0:0:
160,36,31916,1,8,0:0:0:0:
224,108,32249,6,0,B|292:108|292:108|332:152|396:136,1,180,4|2,0:0|0:0,0:0:0:0:
480,88,33249,1,8,0:0:0:0:
488,188,33583,2,0,P|496:232|492:284,1,89.9999999999999,2|8,0:0|0:0,0:0:0:0:
428,352,34249,2,0,L|336:344,1,89.9999999999999,2|8,0:0|0:0,0:0:0:0:
240,360,34916,6,0,B|232:320|260:280|260:280|256:228|200:204,1,180,2|2,0:0|0:0,0:0:0:0:
128,148,35916,1,8,0:0:0:0:
36,112,36249,2,0,P|99:52|185:66,1,180,2|2,0:0|0:0,0:0:0:0:
256,136,37249,1,8,0:0:0:0:
326,66,37583,6,0,P|412:52|476:112,1,180,4|2,0:0|0:0,0:0:0:0:
384,144,38583,1,8,0:0:0:0:
328,224,38916,2,0,P|296:196|284:152,2,89.9999999999999,2|8|2,0:0|0:0|0:0,0:0:0:0:
427,235,39916,1,8,0:0:0:0:
427,235,40249,6,0,P|380:307|293:318,1,180,4|2,0:0|0:0,0:0:0:0:
216,256,41249,1,8,0:0:0:0:
120,288,41583,2,0,L|100:108,1,180,2|2,0:0|0:0,0:0:0:0:
164,32,42583,1,8,0:0:0:0:
216,116,42916,6,0,P|298:87|377:126,1,180,4|2,0:0|0:0,0:0:0:0:
464,179,43916,1,8,0:0:0:0:
464,179,44249,2,0,P|476:137|466:94,2,89.9999999999999,2|8|2,0:0|0:0|0:0,0:0:0:0:
380,232,45249,1,8,0:0:0:0:
288,192,45583,6,0,P|203:183|149:251,1,180,2|2,0:0|0:0,0:0:0:0:
72,320,46583,1,8,0:0:0:0:
24,232,46916,2,0,L|16:92,2,135,2|2|8,0:0|0:0|0:0,0:0:0:0:
124,220,48249,6,0,L|116:124,1,89.9999999999999,4|8,0:0|0:0,0:0:0:0:
176,52,48916,2,0,P|220:40|272:48,1,89.9999999999999,2|8,0:0|0:0,0:0:0:0:
340,104,49583,2,0,P|424:125|497:77,1,180,2|2,0:0|0:0,0:0:0:0:
408,32,50583,1,8,0:0:0:0:
340,104,50916,6,0,L|320:284,1,180,2|2,0:0|0:0,0:0:0:0:
256,356,51916,1,8,0:0:0:0:
191,282,52249,2,0,L|172:104,1,180,2|2,0:0|0:0,0:0:0:0:
80,140,53249,1,8,0:0:0:0:
80,140,53583,6,0,L|92:248,1,89.9999999999999,4|8,0:0|0:0,0:0:0:0:
76,328,54249,2,0,P|119:323|159:299,1,89.9999999999999,2|8,0:0|0:0,0:0:0:0:
220,224,54916,2,0,B|292:224|292:224|332:264|392:252,1,180,2|2,0:0|0:0,0:0:0:0:
368,156,55916,1,8,0:0:0:0:
388,60,56249,6,0,B|328:48|288:88|288:88|216:88,1,180,2|2,0:0|0:0,0:0:0:0:
144,156,57249,1,8,0:0:0:0:
52,192,57583,2,0,L|64:288,1,89.9999999999999,2|8,0:0|0:0,0:0:0:0:
128,356,58249,2,0,P|172:364|220:344,1,89.9999999999999,2|8,0:0|0:0,0:0:0:0:
288,283,58916,6,0,P|393:197|449:321,1,315,8|8,3:0|3:0,0:0:0:0:
32,164,61583,6,0,L|176:152,1,135,4|2,0:0|0:0,0:0:0:0:
256,116,62416,1,2,0:0:0:0:
331,171,62749,2,0,P|348:236|336:302,1,135,2|8,0:0|0:0,0:0:0:0:
252,352,63583,2,0,L|160:344,1,89.9999999999999,2|8,0:0|0:0,0:0:0:0:
80,300,64249,6,0,B|56:272|60:224|60:224|84:172,1,135,2|2,0:0|0:0,0:0:0:0:
144,96,65083,1,2,0:0:0:0:
228,152,65416,2,0,L|372:140,1,135,2|8,0:0|0:0,0:0:0:0:
448,92,66249,2,0,P|460:128|452:184,1,89.9999999999999,2|8,0:0|0:0,0:0:0:0:
384,248,66916,6,0,P|297:245|248:316,1,180,2|2,0:0|0:0,0:0:0:0:
348,332,67916,1,8,0:0:0:0:
447,320,68249,2,0,P|480:239|434:165,1,180,2|2,0:0|0:0,0:0:0:0:
344,128,69249,1,8,0:0:0:0:
256,172,69583,6,0,L|164:164,1,89.9999999999999,2|8,0:0|0:0,0:0:0:0:
76,128,70249,2,0,P|80:172|64:228,1,89.9999999999999,2|8,0:0|0:0,0:0:0:0:
0,275,70916,2,0,P|86:281|135:353,1,180,2|2,0:0|0:0,0:0:0:0:
236,356,71916,1,8,0:0:0:0:
328,316,72249,6,0,B|356:280|356:280|364:184,1,135,4|2,0:0|0:0,0:0:0:0:
308,112,73083,1,2,0:0:0:0:
224,163,73416,2,0,P|158:168|106:127,1,135,2|8,0:0|0:0,0:0:0:0:
36,196,74249,2,0,L|48:288,1,89.9999999999999,2|8,0:0|0:0,0:0:0:0:
123,356,74916,6,0,P|170:310|235:320,1,135,2|2,0:0|0:0,0:0:0:0:
332,344,75749,1,2,0:0:0:0:
416,300,76083,2,0,B|440:260|440:260|448:172,1,135,2|8,0:0|0:0,0:0:0:0:
364,120,76916,2,0,P|328:108|272:112,1,89.9999999999999,2|8,0:0|0:0,0:0:0:0:
196,167,77583,6,0,P|108:176|48:104,1,180,2|2,0:0|0:0,0:0:0:0:
148,88,78583,1,8,0:0:0:0:
196,168,78916,2,0,L|216:352,1,180,2|2,0:0|0:0,0:0:0:0:
312,364,79916,1,8,0:0:0:0:
404,328,80249,6,0,L|384:144,1,180,2|2,0:0|0:0,0:0:0:0:
316,80,81249,1,8,0:0:0:0:
228,124,81583,2,0,P|145:152|71:106,1,180,2|2,0:0|0:0,0:0:0:0:
156,56,82583,1,8,0:0:0:0:
256,192,82916,12,4,85583,0:0:0:0:
44,184,86916,6,0,P|106:243|191:224,1,180,2|2,0:0|0:0,0:0:0:0:
236,136,87916,1,4,0:0:0:0:
