osu file format v4

[General]
AudioFilename: kodou.mp3
AudioLeadIn: 0
AudioHash: 933ca03c36cfd8e412b4cb95897f4008
PreviewTime: -1
SampleSet: Normal
EditorBookmarks: 8312,38970,39936,40864,41792,42410,62204,63441

[Metadata]
Title:Kodou VerB
Artist:BACK-ON
Creator:EiJi
Version:Hard

[Difficulty]
HPDrainRate:5
CircleSize:5
OverallDifficulty:5
SliderMultiplier: 1.2
SliderTickRate: 2

[Events]
//Background and Video events
0,-1,"kodou.jpg"
//Break Periods
2,20342,23891
2,50032,52654
2,71992,73530
2,131373,132757
//Storyboard Layer 0 (Background)
//Storyboard Layer 1 (Failing)
//Storyboard Layer 2 (Passing)
//Storyboard Layer 3 (Foreground)
//Storyboard Sound Samples
//Background Colour Transformations
3,0,163,162,255

[TimingPoints]
349,309.278350515464,4,1,1

[HitObjects]
88,200,9008,1,0
168,200,9318,1,0
248,200,9627,1,0
328,200,9936,1,0
408,200,10245,2,0,L|408:200|408:64,2,120
240,200,11483,6,0,L|240:200|104:200,2,120
320,200,12410,2,0,L|320:200|384:200,1,60
424,200,12720,2,0,L|424:200|320:120,2,120
272,120,13957,6,0,L|272:120|232:256,1,120
152,232,14575,2,0,L|152:232|128:296,3,60
136,328,15194,2,0,L|136:328|272:328,2,120
160,152,16431,5,0
240,152,16740,1,0
320,152,17050,2,0,L|320:152|408:264|304:312,2,240
80,80,19214,5,0
128,144,19524,1,0
152,176,19678,1,0
176,208,19833,2,0,L|176:208|272:320,1,120
72,96,25091,5,0
376,232,26328,1,0
240,136,26946,6,0,L|240:136|248:64,3,60
200,72,27565,1,0
112,72,27874,1,0
104,240,28493,5,0
104,320,28802,1,0
184,320,29111,1,0
184,232,29421,5,0
184,232,29575,1,0
184,232,29730,1,0
184,232,29885,1,0
184,232,30039,1,0
264,232,30349,1,0
272,64,30967,5,0
184,64,31276,1,0
96,64,31586,1,0
88,232,32204,5,0
168,232,32513,1,0
248,232,32823,1,0
384,136,33441,5,0
384,136,33596,1,0
384,136,33751,1,0
296,136,34060,1,0
216,232,34524,5,0
176,232,34678,1,0
176,144,34988,2,0,L|176:144|432:144,1,240
424,56,35916,5,0
384,56,36070,1,0
344,56,36225,2,0,L|344:56|208:56,2,120
272,200,37423,6,0,L|272:200|392:280,1,120
408,240,37887,2,0,L|408:240|504:152,1,120
456,160,38351,1,0
416,160,38506,1,0
376,160,38660,2,0,L|376:160|248:160,2,120
416,64,39936,6,0,L|416:64|248:160|80:160,1,360
80,240,41173,1,0
80,320,41483,1,0
160,320,41792,2,0,L|160:320|288:328|376:232,1,240
416,184,42720,1,0
248,184,43338,5,0
80,184,43957,1,0
80,264,44266,2,0,L|80:264|208:264,2,120
160,264,45194,1,0
240,264,45503,5,0
280,264,45658,1,0
320,264,45812,1,0
400,264,46122,5,0
400,224,46276,1,0
400,184,46431,1,0
400,96,46740,6,0,L|400:96|264:112|160:112,1,240
72,112,47668,1,0
72,192,47977,5,0
72,232,48132,1,0
72,272,48287,1,0
152,272,48596,5,0
192,272,48751,1,0
232,272,48905,1,0
312,272,49214,2,0,L|312:272|312:144,2,120
104,192,53854,5,0
184,192,54163,1,0
264,192,54472,1,0
344,192,54781,2,0,L|344:192|424:368,2,180
224,192,56328,5,0
224,104,56637,1,0
224,16,56946,1,0
304,16,57256,1,0
304,96,57565,1,0
304,136,57720,2,0,L|304:136|304:336,1,180
223,270,58802,6,0,L|223:270|104:271,2,120
224,232,59730,6,0,L|224:232|104:232,1,120
104,192,60194,2,0,L|104:192|288:192,1,180
368,200,60967,2,0,L|368:200|368:344,3,120
280,320,62204,2,0,L|280:320|80:320|16:216|88:152|176:152,1,480
232,160,63751,5,0
312,160,64060,1,0
392,160,64369,1,0
472,168,64678,2,0,L|472:168|352:312,2,180
304,160,66225,6,0,L|304:160|160:160,2,120
304,240,67153,2,0,L|304:240|304:376,1,120
344,360,67617,2,0,L|344:360|344:224,1,120
344,200,68080,1,0
344,32,68699,6,0,L|344:32|208:64,2,120
336,112,69627,2,0,L|336:112|392:208|464:224,2,180
248,112,70864,2,0,L|248:112|144:160|104:152|48:72,1,240
136,88,71792,1,0
80,96,74730,5,0
80,136,74885,1,0
80,176,75039,1,0
80,216,75194,1,0
80,296,75503,5,0
120,296,75658,1,0
160,296,75812,1,0
160,208,76122,5,0
160,168,76276,1,0
160,128,76431,1,0
240,128,76740,5,0
368,128,77204,5,0
368,168,77359,1,0
368,208,77513,1,0
368,248,77668,6,0,L|368:248|368:320,8,60
256,192,79678,6,0,L|256:192|256:168,2,30
256,155,79988,6,0,L|256:155|256:81,2,60
256,154,80452,6,0,L|256:154|322:154,2,60
160,152,81070,5,0
160,193,81225,1,0
160,233,81379,1,0
344,240,82307,5,0
344,200,82462,1,0
344,160,82617,1,0
384,160,82771,5,0
384,200,82926,1,0
384,240,83080,1,0
424,240,83235,5,0
424,200,83390,1,0
424,160,83544,1,0
424,120,83699,5,0
424,80,83854,2,0,L|424:80|320:152,2,120
256,120,85091,6,0,L|256:120|192:176,3,60
168,160,85709,2,0,L|168:160|168:264,1,90
232,256,86173,2,0,L|232:256|304:256,1,60
376,256,86637,2,0,L|376:256|432:192|408:136,1,120
336,160,87256,6,0,L|336:160|336:88,5,60
296,104,88184,2,0,L|296:104|192:104,1,90
144,104,88647,1,0
104,104,88802,1,0
104,184,89111,6,0,L|104:184|104:312,1,120
232,304,89885,6,0,L|232:304|312:304,2,60
232,216,90503,2,0,L|232:216|224:136|168:96,1,120
152,112,90967,1,0
112,112,91122,2,0,L|112:112|112:192,1,60
104,256,91586,6,0,L|104:256|104:344|144:344,1,120
216,344,92204,6,0,L|216:344|352:344,1,120
376,344,92668,1,0
416,344,92823,2,0,L|416:344|416:200,1,120
416,184,93287,1,0
416,120,93519,2,0,L|416:120|304:120,1,90
120,152,94910,6,0,L|120:152|240:96,2,120
152,96,96457,6,0,L|152:96|272:96,4,120
256,192,97849,12,0,99318
88,192,99936,5,0
168,192,100245,1,0
168,104,100555,1,0
248,104,100864,5,0
328,104,101173,1,0
328,184,101483,1,0
328,224,101637,6,0,L|328:224|192:232,1,120
256,192,102101,12,0,104266
160,152,104807,2,0,L|160:152|288:144,1,120
320,144,105271,1,0
384,320,106431,5,0
296,320,106740,1,0
208,320,107050,1,0
120,328,107359,1,0
32,328,107668,5,0
32,328,107823,1,0
32,240,108132,1,0
32,152,108441,1,0
32,72,108751,1,0
112,72,109060,2,0,L|112:72|312:72,1,180
376,80,109833,6,0,L|376:80|320:208|368:320,2,240
256,192,111379,12,0,112926
136,120,113235,6,0,L|136:120|256:80,2,120
136,200,114163,2,0,L|136:200|328:184,2,180
288,256,115709,6,0,L|288:256|376:144,2,120
200,256,116637,2,0,L|200:256|200:136,1,120
200,96,117101,2,0,L|200:96|384:96,1,180
376,264,118184,6,0,L|376:264|240:288,3,120
256,200,119421,2,0,L|256:200|256:128,1,60
128,152,120039,6,0,L|128:152|248:104,3,120
160,80,121276,1,0
160,160,121586,2,0,L|160:160|160:344|272:344|272:144,1,480
272,72,123132,5,0
352,80,123441,1,0
352,160,123751,1,0
264,160,124060,2,0,L|264:160|208:72|112:112,2,180
424,200,125606,5,0
336,200,125916,1,0
248,200,126225,1,0
160,200,126534,1,0
72,200,126843,5,0
72,200,126998,1,0
72,112,127307,5,0
72,112,127462,1,0
224,48,128080,6,0,L|224:48|360:104,2,120
192,128,129008,2,0,L|192:128|368:192,2,180
168,208,130245,2,0,L|168:208|416:296,1,240
480,288,131173,1,0
256,192,133957,12,0,134575
256,192,134575,12,0,135194
256,192,136431,12,0,138905
256,192,138905,12,0,139524
256,192,139524,12,0,140142
256,192,140142,12,0,140761
256,192,140761,12,0,141379
256,192,141379,12,0,142926
112,120,143854,2,0,L|112:120|200:224|320:240,2,240
168,56,145400,2,0,L|168:56|288:104,2,120
168,136,146328,2,0,L|168:136|168:280|248:336,6,240
248,136,150349,2,0,L|248:136|248:272,2,120
256,192,151276,12,0,152823
96,112,153751,5,0
96,192,154060,1,0
176,192,154369,1,0
176,112,154678,1,0
320,104,155297,5,0
368,176,155606,1,0
416,240,155916,1,0
256,304,156534,5,0
168,304,156843,1,0
80,304,157153,1,0
88,136,157771,5,0
152,192,158080,1,0
216,248,158390,1,0
328,120,159008,5,0
328,200,159318,1,0
328,280,159627,1,0
192,176,160245,5,0
136,112,160555,1,0
80,48,160864,1,0
64,216,161483,5,0
64,296,161792,1,0
144,296,162101,1,0
312,304,162720,5,0
360,232,163029,1,0
408,160,163338,1,0
320,160,163647,5,0
80,280,164885,5,0
352,128,166122,5,0
224,240,166740,1,0
80,152,167359,5,0
160,152,167668,1,0
240,152,167977,5,0
240,152,168132,1,0
240,152,168287,1,0
240,152,168441,1,0
