osu file format v5

[General]
AudioFilename: Tales of the World Radiant of Mythology OP.mp3
AudioLeadIn: 0
PreviewTime: -1
Countdown: 0
SampleSet: Normal
StackLeniency: 0.7
Mode: 0
LetterboxInBreaks: 1

[Editor]
Bookmarks: 13884,16464,19044,22269,26139
DistanceSpacing: 1.10000002384186
BeatDivisor: 4
GridSize: 8

[Metadata]
Title:Flyaway
Artist:BACK-ON
Creator:ztrot
Version:Hard
Source:Tales of the World Radiant of Mythology 2
Tags:tales of the world BACK-ON fly away

[Difficulty]
HPDrainRate:7
CircleSize:5
OverallDifficulty:8
SliderMultiplier:2
SliderTickRate:2

[Events]
//Background and Video events
0,0,"TotWRM2 op pic.jpg"
Video,961,"Tales of the World Radiant of Mythology OP.avi"
//Break Periods
//Storyboard Layer 0 (Background)
//Storyboard Layer 1 (Fail)
//Storyboard Layer 2 (Pass)
//Storyboard Layer 3 (Foreground)
//Storyboard Sound Samples
//Background Colour Transformations
3,100,163,162,255

[TimingPoints]
10851,645.022575790153,4,1,0,60,1,0
52616,-100,4,2,0,60,0,0
62936,-100,4,1,0,60,0,0
63097,-100,4,1,0,60,0,1

[Colours]
Combo1 : 128,0,128
Combo2 : 187,0,0
Combo3 : 5,5,240
Combo4 : 255,128,255

[HitObjects]
72,48,10850,1,0
8,136,11173,1,0
72,224,11496,1,4
184,224,11818,1,0
296,224,12141,1,2
360,136,12463,1,0
360,136,12624,1,0
296,48,12947,1,2
456,40,13431,5,0
496,144,13753,1,0
456,248,14076,2,4,B|392:328|256:304,1,200
152,296,15043,1,0
152,296,15204,1,2
88,200,15527,1,2
184,64,16011,5,0
296,64,16333,1,0
320,64,16414,1,0
344,64,16494,1,0
368,64,16575,1,0
392,64,16656,2,4,B|472:152|392:264,1,200
288,248,17623,1,0
288,248,17784,1,2
176,248,18107,1,2
64,48,18591,5,0
176,48,18913,1,0
288,48,19236,2,4,B|408:48|472:160,1,200
456,248,20203,1,0
456,248,20365,1,2
376,320,20687,1,2
208,320,21171,5,0
96,320,21493,1,0
256,264,21816,1,0
48,264,22138,1,8
208,200,22461,1,0
96,200,22783,1,8
152,96,23106,5,0
152,208,23428,1,8
152,264,23590,1,0
152,320,23751,1,0
264,320,24073,1,8
376,320,24396,1,0
376,208,24718,1,8
376,152,24880,1,0
376,96,25041,1,0
264,96,25364,5,8
208,96,25525,1,0
264,96,25686,1,0
208,192,26009,1,8
264,192,26170,1,0
208,192,26331,1,4
416,248,26976,6,0,B|504:160|408:64,2,200,0|4|0
24,24,28911,5,4
24,360,29556,1,0
488,360,30201,1,4
488,24,30846,1,0
256,192,31491,1,4
32,192,31814,5,0
32,192,31894,1,0
32,192,31975,1,0
32,192,32056,1,0
32,192,32136,1,0
144,192,32459,1,8
144,80,32781,1,0
256,80,33104,1,8
312,80,33265,1,0
424,80,33588,1,0
424,136,33749,1,8
424,256,34071,1,0
136,256,34394,5,8
248,256,34716,1,0
304,160,35039,1,8
192,160,35361,1,0
248,64,35684,1,8
248,120,35845,1,0
352,88,36168,1,0
408,88,36329,1,8
480,176,36651,1,0
408,264,36974,1,8
312,320,37296,6,0,B|208:320,1,100,0|8
168,280,37780,1,0
168,224,37941,1,0
200,120,38264,1,8
312,120,38586,2,0,B|392:160|280:208,1,100,0|8
312,248,39070,1,0
200,248,39393,1,0
200,248,39473,1,0
200,248,39554,1,4
104,200,39877,6,0,B|56:248|112:288,2,100,0|8|0
168,112,40844,1,0
168,168,41005,1,0
256,232,41328,1,0
368,232,41650,5,0
416,216,41812,1,0
432,160,41973,1,0
432,128,42053,1,0
432,96,42134,1,0
336,40,42457,6,0,B|232:0|120:48,1,200,4|0
240,112,43424,1,8
240,224,43747,1,4
128,224,44069,1,8
72,320,44392,5,0
184,320,44714,1,8
296,320,45037,1,4
384,256,45359,1,8
384,144,45682,1,0
296,72,46004,1,8
208,144,46327,1,4
208,256,46649,5,8
120,328,46972,1,0
32,264,47294,1,8
32,152,47617,1,4
152,112,47939,2,0,B|88:160|176:216,3,100,8|2|8|2
248,152,49229,1,8
248,152,49391,1,0
304,152,49552,5,0
416,152,49874,1,8
416,264,50197,1,4
304,264,50519,1,8
192,264,50842,2,0,B|136:224|200:176,2,100,0|0|2
104,192,51809,1,0
104,136,51971,1,0
104,80,52132,1,4
368,216,52777,6,0,B|416:120|352:24,3,200
296,120,55035,5,0
232,120,55196,1,0
184,80,55357,2,0,B|136:128|200:176,2,100
296,120,56325,1,0
296,120,56486,1,0
472,80,56970,6,8,B|528:112|464:184,2,100
40,80,58260,6,8,B|-16:112|48:184,2,100
472,256,59550,6,8,B|520:296|456:344,2,100
256,192,60517,12,0,62452
200,48,62775,5,0
312,48,63097,1,4
312,264,63742,5,8
200,264,64065,1,0
200,264,64226,1,0
256,168,64549,1,8
416,192,65032,6,0,B|464:240|400:296,4,100,0|0|4|0|8
416,80,66645,1,0
416,136,66806,1,0
320,80,67129,1,8
152,80,67612,5,0
88,168,67935,1,0
112,168,68016,1,0
136,168,68096,1,0
160,168,68177,1,0
184,168,68258,2,0,B|240:208|152:264,3,100,4|0|0|0
120,248,69386,5,0
120,80,69709,1,8
288,80,70193,5,8
400,80,70515,1,0
344,176,70838,1,12
400,80,71160,1,0
344,176,71483,1,8
288,80,71805,1,8
288,80,71966,1,8
240,176,72289,1,12
312,320,72773,5,0
200,320,73095,1,0
360,264,73418,1,0
152,264,73740,1,8
312,208,74063,1,0
200,208,74385,1,8
256,264,74708,5,0
256,152,75030,1,8
256,40,75353,5,0
256,96,75514,1,0
256,152,75675,1,8
256,264,75998,1,0
352,216,76320,1,8
256,152,76643,1,0
256,96,76804,1,0
256,40,76965,1,8
360,80,77288,2,0,B|416:40|464:104,2,100,0|0|4
176,272,78578,6,0,B|256:376|360:256,1,200,0|12
256,136,79707,1,0
256,248,80029,1,0
256,248,80190,1,0
256,136,80513,1,12
40,192,81158,6,0,B|112:264|136:72|200:216,1,200,0|8
360,208,82287,1,0
256,160,82609,1,0
256,160,82771,1,0
256,272,83093,5,4
256,48,83738,1,4
