osu file format v5

[General]
AudioFilename: Tales of the World Radiant of Mythology OP.mp3
AudioLeadIn: 0
PreviewTime: -1
Countdown: 0
SampleSet: Normal
StackLeniency: 0.5
Mode: 0
LetterboxInBreaks: 1

[Editor]
Bookmarks: 13884,16464,19044,22269,26139
DistanceSpacing: 0.699999988079071
BeatDivisor: 4
GridSize: 8

[Metadata]
Title:Flyaway
Artist:BACK-ON
Creator:ztrot
Version:Fly Away!!!
Source:Tales of the World Radiant of Mythology 2
Tags:tales of the world BACK-ON fly away

[Difficulty]
HPDrainRate:6
CircleSize:5
OverallDifficulty:8
SliderMultiplier:2.4
SliderTickRate:2

[Events]
//Background and Video events
0,0,"TotWRM2 op pic.jpg"
Video,961,"Tales of the World Radiant of Mythology OP.avi"
//Break Periods
//Storyboard Layer 0 (Background)
//Storyboard Layer 1 (Fail)
//Storyboard Layer 2 (Pass)
//Storyboard Layer 3 (Foreground)
//Storyboard Sound Samples
//Background Colour Transformations
3,100,163,162,255

[TimingPoints]
10851,322.511287895076,4,1,0,60,1,0
52293,-100,4,2,0,60,0,0
62936,-100,4,1,0,60,0,0
63097,-100,4,1,0,60,0,1

[Colours]
Combo1 : 128,0,128
Combo2 : 187,0,0
Combo3 : 5,5,240
Combo4 : 255,128,255

[HitObjects]
160,96,10850,5,8
352,96,11173,1,4
64,224,11496,5,0
96,160,11657,1,0
160,128,11818,1,0
224,160,11979,1,0
256,224,12141,2,0,B|256:288|192:320,1,120,4|0
160,224,12463,1,0
160,224,12624,1,8
352,96,12947,1,12
352,96,13431,5,8
160,96,13753,1,4
448,224,14076,5,0
416,160,14237,1,0
352,128,14398,1,0
288,160,14559,1,0
256,224,14721,2,0,B|256:288|320:320,1,120,4|0
352,224,15043,1,0
352,224,15204,1,8
160,96,15527,1,12
256,96,16011,5,4
288,192,16333,1,0
256,224,16414,1,0
224,192,16494,1,4
96,192,16656,1,8
128,256,16817,1,0
192,288,16978,1,0
256,320,17139,1,4
320,288,17301,1,8
384,256,17462,1,0
416,192,17623,1,4
352,96,17784,5,8
160,96,18107,1,12
256,96,18591,6,0,B|256:160|160:160,1,120
170,224,18913,2,0,B|256:224|256:288,1,120
256,286,19236,2,0,B|256:224|341:224,1,120,4|4
341,159,19558,2,0,B|256:160|256:96,1,120
160,96,19881,2,0,B|64:160|160:192|256:224|96:352,1,240,8|0
359,298,20365,2,0,B|256:224|352:192|448:160|352:96,2,240,8|8|4
256,288,21171,5,2
256,96,21493,1,6
256,192,21655,5,0
256,192,21816,1,2
160,96,21977,1,0
256,192,22138,1,8
352,96,22300,1,0
256,192,22461,1,2
352,288,22622,1,0
256,192,22783,1,8
160,288,22945,1,0
96,192,23106,5,2
128,112,23267,1,8
192,32,23428,1,2
256,96,23590,1,8
320,32,23751,1,2
384,112,23912,1,8
416,192,24073,1,8
384,288,24235,5,0
256,288,24396,1,2
128,288,24557,1,0
192,192,24718,1,10
320,192,24880,1,0
256,96,25041,1,2
256,96,25202,1,0
256,96,25364,5,10
192,192,25525,1,2
320,192,25686,1,2
256,320,26009,5,14
256,320,26170,1,6
256,320,26331,1,6
416,112,26976,6,0,B|352:208|256:-48|128:208,1,240,8|0
128,192,27460,1,2
192,272,27621,2,0,B|256:368|352:112|480:368,1,240,8|0
416,192,28105,1,2
352,192,28266,2,8,B|224:192,3,120
256,64,28911,5,4
160,64,29072,1,0
96,128,29234,1,0
96,224,29395,1,0
160,288,29556,1,0
256,64,29879,5,8
256,64,30201,5,4
352,64,30362,1,0
416,128,30524,1,0
416,224,30685,1,0
352,288,30846,1,0
96,192,31169,5,10
416,192,31491,1,6
256,192,31814,1,2
256,192,31975,1,6
416,64,32459,5,8
288,128,32620,1,0
416,192,32781,1,0
96,64,33104,1,8
224,128,33265,1,0
96,192,33426,1,0
224,256,33588,1,0
288,128,33749,1,8
416,192,33910,1,0
288,128,34071,1,0
160,256,34394,5,8
96,128,34555,1,0
32,256,34716,1,0
352,256,35039,5,8
416,128,35200,1,0
480,256,35361,1,0
416,128,35523,5,0
288,128,35684,1,8
160,128,35845,1,0
352,128,36168,1,0
352,128,36329,1,8
96,128,36651,1,4
208,276,36974,6,8,B|252:347|312:268,1,120
256,192,37296,1,4
208,108,37458,2,0,B|252:37|312:116,2,120,0|8|0
256,192,37941,1,8
384,192,38103,5,0
384,64,38264,1,8
256,192,38425,1,0
128,288,38586,1,4
128,64,38909,1,8
128,64,39070,1,0
384,288,39393,1,0
384,288,39554,1,8
256,288,39715,5,0
128,288,39877,1,8
128,176,40038,1,0
128,64,40199,1,8
256,64,40360,1,0
384,64,40522,1,8
384,176,40683,1,0
384,64,40844,1,8
256,64,41005,6,4,B|176:128|352:240|224:304,1,240
256,64,41650,5,0
256,64,41812,2,4,B|336:128|160:240|288:304,1,240
256,192,42457,5,2
336,144,42618,1,0
256,96,42779,1,0
176,144,42940,1,2
176,240,43102,1,2
256,288,43263,1,0
336,240,43424,1,2
128,96,43747,1,6
256,320,44069,5,4
256,320,44392,1,0
256,320,44714,1,0
256,192,45037,5,2
176,144,45198,1,0
256,96,45359,1,0
336,144,45520,1,2
336,240,45682,1,2
256,288,45843,1,0
176,240,46004,1,2
384,96,46327,1,6
192,64,46811,6,0,B|192:192,1,120,0|8
320,64,47133,2,0,B|320:192,1,120,0|8
256,64,47456,1,0
256,128,47617,1,2
256,192,47778,1,0
256,256,47939,1,2
224,320,48101,1,0
288,320,48262,1,2
256,64,48584,1,6
224,320,48907,1,6
256,192,49229,12,4,52132
384,128,52454,6,0,L|352:64|288:192,2,120,2|0|2
256,192,53099,1,8
256,320,53422,1,2
128,128,53745,6,0,L|160:64|224:192,2,120,2|0|2
192,256,54390,5,10
256,192,54551,1,0
320,256,54712,1,10
320,96,55035,1,10
256,32,55196,1,0
192,96,55357,1,10
160,192,55680,6,2,L|96:224|32:192,2,120
256,32,56325,2,2,L|256:160,2,120,2|2|6
352,192,56970,6,0,L|416:224|480:192,4,120,8|0|8|0|8
256,288,57937,1,4
160,192,58260,6,0,L|96:224|32:192,4,120,8|0|8|0|8
256,96,59227,1,4
256,192,59550,5,8
256,192,59711,1,0
256,192,59872,1,8
256,192,60033,1,0
256,192,60195,1,8
256,192,60517,1,4
320,288,60840,5,2
256,288,61001,1,0
192,288,61162,1,4
256,96,61484,1,2
256,192,61525,12,0,62291
128,96,62452,5,4
256,192,62775,1,4
384,96,63097,5,12
448,160,63259,1,0
384,224,63420,1,0
320,160,63581,2,4,L|192:160,1,120
128,224,63904,1,8
64,160,64065,1,0
128,96,64226,1,8
320,160,64549,1,8
384,288,65032,5,12
256,192,65355,1,12
128,288,65677,5,12
64,224,65839,1,0
128,160,66000,1,0
192,224,66161,2,4,L|320:224,1,120
384,160,66484,1,8
448,224,66645,1,0
384,288,66806,1,8
192,224,67129,1,8
160,64,67612,5,2
224,96,67774,1,0
288,96,67935,1,2
352,64,68096,1,0
388,128,68258,2,0,B|420:192|356:288|228:288,1,240,0|8
125,128,68903,2,0,B|93:192|157:288|285:288,1,240,0|8
257,288,69386,2,0,B|257:32,1,240,8|4
256,96,70193,5,8
320,160,70354,1,0
256,224,70515,1,8
192,160,70676,1,0
128,224,70838,1,4
192,288,70999,1,0
256,224,71160,1,4
320,288,71321,1,0
384,224,71483,1,4
128,224,71805,1,8
128,224,71966,1,8
256,96,72289,1,12
256,320,72773,5,8
256,320,73095,1,2
256,320,73256,1,2
304,272,73418,5,2
208,272,73579,1,0
360,224,73740,1,0
152,224,73901,1,0
400,160,74063,1,2
112,160,74224,1,0
376,96,74385,1,0
136,96,74546,1,0
328,48,74708,1,2
184,48,74869,1,0
256,24,75030,1,2
256,112,75192,1,0
256,200,75353,1,2
384,256,75675,5,2
128,256,75837,1,0
352,192,75998,1,2
160,192,76159,1,0
320,128,76320,1,2
192,128,76482,1,0
256,96,76643,1,2
256,96,76804,1,0
256,96,76965,1,0
256,96,77127,1,2
256,96,77288,5,2
256,320,77610,1,6
256,256,77772,1,6
256,192,77933,1,6
256,192,78417,12,4,79223
256,192,79384,12,4,80513
256,192,80674,12,4,81803
256,192,81964,12,4,83738
