osu file format v5

[General]
AudioFilename: Tales of the World Radiant of Mythology OP.mp3
AudioLeadIn: 0
PreviewTime: -1
Countdown: 0
SampleSet: Normal
StackLeniency: 0.7
Mode: 0
LetterboxInBreaks: 1

[Editor]
Bookmarks: 13884,16464,19044,22269,26139
DistanceSpacing: 0.699999988079071
BeatDivisor: 4
GridSize: 8

[Metadata]
Title:Flyaway
Artist:BACK-ON
Creator:ztrot
Version:Easy
Source:Tales of the World Radiant of Mythology 2
Tags:tales of the world BACK-ON fly away

[Difficulty]
HPDrainRate:3
CircleSize:3
OverallDifficulty:2
SliderMultiplier:1.8
SliderTickRate:2

[Events]
//Background and Video events
0,0,"TotWRM2 op pic.jpg"
Video,961,"Tales of the World Radiant of Mythology OP.avi"
//Break Periods
2,32372,35772
//Storyboard Layer 0 (Background)
//Storyboard Layer 1 (Fail)
//Storyboard Layer 2 (Pass)
//Storyboard Layer 3 (Foreground)
//Storyboard Sound Samples
//Background Colour Transformations
3,100,163,162,255

[TimingPoints]
10851,645.022575790153,4,1,0,60,1,0
52616,-100,4,2,0,60,0,0
62936,-100,4,1,0,60,0,0
63097,-100,4,1,0,60,0,1
84222,-100,4,1,0,0,0,0

[Colours]
Combo1 : 128,0,128
Combo2 : 187,0,0
Combo3 : 5,5,240
Combo4 : 255,128,255

[HitObjects]
56,48,10850,1,0
56,112,11173,1,0
56,176,11496,1,4
128,272,12141,5,4
224,272,12624,1,0
288,272,12947,1,2
288,176,13431,5,0
288,112,13753,1,0
288,48,14076,2,4,B|400:32|384:200,1,180
384,256,15204,1,0
320,256,15527,1,2
224,256,16011,5,0
160,256,16333,1,0
96,256,16656,2,4,B|11:186|99:98,1,180
168,40,17784,1,0
232,40,18107,1,2
328,40,18591,5,0
392,40,18913,1,0
456,40,19236,2,4,B|544:128|432:224,1,180
360,192,20365,1,0
296,192,20687,1,6
200,192,21171,5,0
136,192,21493,1,0
88,144,21816,6,0,B|256:40|432:152,3,360
240,344,26976,6,0,B|112:168|248:0,1,360
336,88,28911,2,0,B|432:168|328:256,5,180
56,280,37296,6,0,B|144:344|264:264,2,180
56,184,39070,1,0
80,128,39393,1,0
152,72,39877,6,0,B|264:32|368:96,3,180
320,200,42457,6,0,B|232:264|144:192,1,180
152,136,43424,1,0
216,136,43747,1,0
152,240,44392,5,0
256,304,45037,1,0
360,240,45682,1,0
360,176,46004,1,0
360,112,46327,1,0
256,56,46972,5,0
192,56,47294,1,0
128,56,47617,1,0
80,96,47939,2,0,B|48:176|120:208,3,90
208,184,49552,5,0
320,240,50197,1,0
432,184,50842,2,0,B|456:128|416:96,2,90
432,312,52132,1,0
304,312,52777,6,0,B|352:216|288:120,3,180
256,88,55035,5,0
192,112,55357,2,0,B|144:160|208:208,2,90
192,48,56325,1,0
256,48,56647,1,0
320,48,56970,6,0,B|376:80|312:128,2,90
240,136,58260,6,0,B|184:176|256:224,2,90
320,232,59550,6,0,B|368:272|304:320,2,90
256,192,60517,12,4,63097
240,168,63742,5,0
240,72,64226,1,0
240,8,64549,1,0
320,56,65032,6,0,B|368:88|304:160,4,90,0|0|4|0|0
416,112,66806,1,0
480,112,67129,1,0
448,200,67612,5,0
448,264,67935,1,0
408,312,68258,2,0,B|368:368|312:288,2,90
368,224,69386,1,0
304,224,69709,1,0
328,128,70193,6,0,B|256:40|160:144,2,180
256,192,71966,1,0
256,256,72289,1,0
176,312,72773,5,0
112,312,73095,1,0
48,312,73418,6,0,B|8:208|56:56|216:24,4,360
176,312,79223,6,0,B|264:360|360:304,5,180,4|0|4|0|4|0
256,192,83093,12,0,84383
