osu file format v13

[General]
AudioFilename: Back-On - Chain (Tv Size).mp3
AudioLeadIn: 0
PreviewTime: 34973
Countdown: 0
SampleSet: Normal
StackLeniency: 0.7
Mode: 0
LetterboxInBreaks: 0
WidescreenStoryboard: 0

[Editor]
DistanceSpacing: 1.2
BeatDivisor: 2
GridSize: 4
TimelineZoom: 1

[Metadata]
Title:Chain (TV Size)
TitleUnicode:Chain (TV Size)
Artist:BACK-ON
ArtistUnicode:BACK-ON
Creator:[Nepgear]
Version:B Class
Source:Air Gear
Tags:Air Gear Ikki Ats Chain Back on
BeatmapID:565995
BeatmapSetID:245608

[Difficulty]
HPDrainRate:2
CircleSize:3
OverallDifficulty:2
ApproachRate:3
SliderMultiplier:0.600000005960464
SliderTickRate:1

[Events]
//Background and Video events
Video,0,"Video.avi"
0,0,"Kawapaper_Air_Gear_0000023_1600x1200.jpg",0,0
//Break Periods
//Storyboard Layer 0 (Background)
//Storyboard Layer 1 (Fail)
//Storyboard Layer 2 (Pass)
//Storyboard Layer 3 (Foreground)
//Storyboard Sound Samples

[TimingPoints]
3669,326.086956521739,4,1,0,40,1,0
34973,-100,4,1,0,50,0,0
55842,-83.3333333333333,4,1,0,50,0,1
76712,-100,4,1,0,40,0,0
78668,-100,4,2,0,30,0,0
79321,-100,4,1,0,60,0,0

[Colours]
Combo1 : 224,188,175
Combo2 : 148,237,174
Combo3 : 145,145,255
Combo4 : 51,255,255

[HitObjects]
232,48,3669,6,0,P|288:64|320:132,1,120.000001192093,4|8,0:0|0:0,0:0:0:0:
356,196,4647,1,0,0:0:0:0:
316,276,4973,2,0,P|285:326|229:342,1,120.000001192093,0|8,0:0|0:0,0:0:0:0:
88,324,6277,6,0,P|80:260|32:212,1,120.000001192093,0|8,0:0|0:0,0:0:0:0:
72,128,7255,1,0,0:0:0:0:
156,80,7582,2,0,P|212:108|264:88,1,120.000001192093,0|8,0:0|0:0,0:0:0:0:
388,116,8886,6,0,P|444:148|428:228,1,120.000001192093,4|8,0:0|0:0,0:0:0:0:
448,272,9864,1,0,0:0:0:0:
376,276,10190,2,0,P|320:244|315:193,1,120.000001192093,0|8,0:0|0:0,0:0:0:0:
216,300,11495,6,0,B|168:284|168:284|144:260|144:260|112:244,1,120.000001192093,4|8,0:0|0:0,0:0:0:0:
72,184,12473,1,0,0:0:0:0:
100,116,12799,2,0,P|140:52|196:36,1,120.000001192093,0|12,0:0|0:0,0:0:0:0:
320,68,14103,5,4,0:0:0:0:
376,168,14755,1,8,0:0:0:0:
296,240,15408,2,0,B|288:312|224:328,1,120.000001192093,0|8,0:0|0:0,0:0:0:0:
76,320,16712,5,0,0:0:0:0:
144,192,17364,2,0,B|104:192|104:192|60:204|60:204|24:204,2,120.000001192093,8|0|8,0:0|0:0|0:0,0:0:0:0:
280,140,19321,2,8,P|304:192|280:248,1,120.000001192093,0|8,0:0|0:0,0:0:0:0:
160,324,20625,1,0,0:0:0:0:
44,240,21277,1,8,0:0:0:0:
56,96,21929,6,0,P|112:76|180:104,1,120.000001192093,0|8,0:0|0:0,0:0:0:0:
196,236,23234,1,0,0:0:0:0:
284,120,23886,1,8,0:0:0:0:
380,228,24538,6,2,B|417:172|373:104,1,120.000001192093,6|8,0:0|0:0,0:0:0:0:
244,64,25842,2,0,P|212:152|268:288,1,240.000002384186
396,336,27799,1,8,0:0:0:0:
252,348,28451,2,0,P|216:320|128:308,1,120.000001192093,0|8,0:0|0:0,0:0:0:0:
72,180,29755,6,0,P|56:124|80:60,1,120.000001192093,0|8,0:0|0:0,0:0:0:0:
212,112,31060,2,0,B|316:112,2,60.0000005960464,0|0|8,0:0|0:0|0:0,0:0:0:0:
172,248,32364,2,0,P|228:228|292:244,1,120.000001192093,0|8,0:0|0:0,0:0:0:0:
172,328,33669,2,0,B|112:364|48:324,1,120.000001192093,0|4,0:0|0:0,0:0:0:0:
68,188,34973,5,4,0:0:0:0:
176,96,35625,1,10,0:0:0:0:
316,60,36277,2,0,B|400:96|448:168|440:256,1,240.000002384186,0|0,0:0|0:0,0:0:0:0:
316,316,38234,1,10,0:0:0:0:
172,316,38886,6,0,P|112:256|124:96,1,240.000002384186
248,56,40842,1,10,0:0:0:0:
376,120,41495,1,0,0:0:0:0:
348,260,42147,2,0,B|412:308,2,60.0000005960464,8|0|0,0:0|0:0|0:0,0:0:0:0:
212,208,43451,1,10,0:0:0:0:
152,76,44103,6,0,P|96:60|32:80,2,120.000001192093,0|8|4,0:0|0:0|0:0,0:0:0:0:
232,196,46060,2,0,P|173:212|117:196,1,120.000001192093,10|0,0:0|0:0,0:0:0:0:
92,340,47364,1,8,0:0:0:0:
232,304,48016,2,0,B|244:332|280:352,2,60.0000005960464,10|0|10,0:0|0:0|0:0,0:0:0:0:
368,252,49321,5,0,0:0:0:0:
440,128,49973,1,10,0:0:0:0:
340,28,50625,2,0,B|220:28,1,119.999997768402,4|10,0:0|0:0,0:0:0:0:
116,128,51929,1,0,0:0:0:0:
220,228,52582,2,0,B|340:228,1,119.999997768402,10|4,0:0|0:0,0:0:0:0:
392,108,53886,1,10,0:0:0:0:
256,192,54212,12,4,55842,0:0:0:0:
320,108,56495,6,0,P|348:176|312:244,1,143.99999703598,8|0,0:0|0:0,0:0:0:0:
168,152,57799,1,8,0:0:0:0:
64,292,58451,1,0,0:0:0:0:
236,308,59103,2,0,B|308:320|308:320|384:304,1,143.99999703598,8|0,0:0|0:0,0:0:0:0:
480,164,60408,1,8,0:0:0:0:
316,216,61060,6,0,B|244:204|244:204|176:164,1,143.99999703598,0|8,0:0|0:0,0:0:0:0:
12,172,62364,1,0,0:0:0:0:
124,40,63016,1,8,0:0:0:0:
296,48,63668,2,0,B|380:92|440:48,1,143.99999703598,0|8,0:0|0:0,0:0:0:0:
292,152,64973,2,0,P|208:128|132:156,1,143.99999703598,0|8,0:0|0:0,0:0:0:0:
256,284,66277,6,0,B|152:332|156:248|44:296,2,215.99999555397,4|0|4,0:0|0:0|0:0,0:0:0:0:
424,236,68886,1,0,0:0:0:0:
388,68,69538,1,8,0:0:0:0:
272,196,70190,6,0,P|196:200|128:148,1,143.99999703598,0|8,0:0|0:0,0:0:0:0:
24,36,71495,1,0,0:0:0:0:
196,40,72147,1,8,0:0:0:0:
96,180,72799,6,0,P|52:224|64:304,1,143.99999703598,0|8,0:0|0:0,0:0:0:0:
228,348,74103,1,0,0:0:0:0:
392,292,74755,1,8,0:0:0:0:
468,136,75408,2,0,B|452:76|376:52|340:64,1,143.99999703598
248,156,76712,6,0,B|44:156,2,180.000001788139
392,140,79321,5,4,0:0:0:0:
288,40,79973,1,8,0:0:0:0:
168,100,80625,2,2,P|140:152|76:188,1,120.000001192093
140,320,81929,5,4,0:0:0:0:
276,272,82582,1,8,0:0:0:0:
268,128,83234,2,2,P|304:72|360:52,1,120.000001192093
428,176,84538,5,4,0:0:0:0:
332,284,85190,1,8,0:0:0:0:
192,320,85842,2,2,B|72:320,1,120.000001192093
156,204,87147,5,4,0:0:0:0:
288,144,87799,1,8,0:0:0:0:
176,56,88451,1,0,0:0:0:0:
40,108,89103,2,0,B|8:148|28:212,1,90.0000008940696
