osu file format v13

[General]
AudioFilename: Flyaway - Back On Remix.mp3
AudioLeadIn: 0
PreviewTime: -1
Countdown: 1
SampleSet: None
StackLeniency: 0.2
Mode: 2
LetterboxInBreaks: 1
WidescreenStoryboard: 0

[Editor]
DistanceSpacing: 0.8
BeatDivisor: 4
GridSize: 8
TimelineZoom: 1

[Metadata]
Title:Flyaway
TitleUnicode:Flyaway
Artist:BACK -ON-
ArtistUnicode:BACK -ON-
Creator:Kevin97
Version:FLY
Source:
Tags:
BeatmapID:560094
BeatmapSetID:242699

[Difficulty]
HPDrainRate:7
CircleSize:3
OverallDifficulty:9
ApproachRate:9
SliderMultiplier:2
SliderTickRate:1

[Events]
//Background and Video events
//Break Periods
2,76002,83559
//Storyboard Layer 0 (Background)
//Storyboard Layer 1 (Fail)
//Storyboard Layer 2 (Pass)
//Storyboard Layer 3 (Foreground)
//Storyboard Sound Samples

[TimingPoints]
588,428.571428571429,4,1,0,100,1,0
91338,-55.5555555555556,4,1,0,100,0,0
93159,-50,4,1,0,100,0,0

[HitObjects]
256,192,55445,12,0,62302,0:0:0:0:
256,192,64016,5,0,0:0:0:0:
32,192,65730,1,0,0:0:0:0:
480,192,66588,1,0,0:0:0:0:
256,192,67445,2,0,B|176:192|176:192|176:136|312:136|312:136|312:296|312:296|112:296,1,600
344,144,69159,6,0,L|480:144,2,100,0|0|0,0:0|0:0|0:0,0:0:0:0:
264,144,69695,1,0,0:0:0:0:
184,144,69802,1,0,0:0:0:0:
104,144,69909,1,0,0:0:0:0:
24,144,70016,1,0,0:0:0:0:
104,144,70123,1,0,0:0:0:0:
184,144,70230,1,0,0:0:0:0:
24,144,70338,1,0,0:0:0:0:
104,144,70445,1,0,0:0:0:0:
184,144,70552,1,0,0:0:0:0:
264,144,70659,1,0,0:0:0:0:
184,144,70766,1,0,0:0:0:0:
384,232,70873,6,0,L|488:328,1,100
240,232,71302,2,0,L|328:312,1,100
40,256,71730,6,0,P|64:152|120:104,1,150
472,128,72159,6,0,P|448:232|392:280,1,150
40,256,72588,6,0,P|64:152|56:144,1,100
96,144,72909,1,0,0:0:0:0:
136,120,73016,1,0,0:0:0:0:
168,136,73123,1,0,0:0:0:0:
184,176,73230,1,0,0:0:0:0:
224,192,73338,1,0,0:0:0:0:
264,160,73445,1,0,0:0:0:0:
184,160,73552,1,0,0:0:0:0:
112,160,73659,1,0,0:0:0:0:
264,160,73766,1,0,0:0:0:0:
32,160,73873,1,0,0:0:0:0:
112,160,73980,1,0,0:0:0:0:
184,160,74088,1,0,0:0:0:0:
264,160,74195,1,0,0:0:0:0:
472,168,74302,6,0,B|432:200|432:200|480:256|312:272|312:272|336:216|336:216|208:232,1,400
104,240,75266,1,0,0:0:0:0:
0,240,75373,1,0,0:0:0:0:
104,240,75480,1,0,0:0:0:0:
208,224,75588,1,0,0:0:0:0:
304,168,75695,1,0,0:0:0:0:
384,88,75802,1,0,0:0:0:0:
256,192,84159,5,0,0:0:0:0:
256,192,84373,1,0,0:0:0:0:
32,40,84588,2,0,L|240:40,1,200
152,40,85338,5,0,0:0:0:0:
360,40,85552,1,0,0:0:0:0:
256,192,85873,5,0,0:0:0:0:
256,192,86087,1,0,0:0:0:0:
480,344,86302,2,0,L|272:344,1,200
360,344,87052,5,0,0:0:0:0:
152,344,87266,1,0,0:0:0:0:
256,192,87588,5,0,0:0:0:0:
256,192,87802,1,0,0:0:0:0:
120,192,88016,6,0,B|32:192|32:192|144:192,1,200
32,192,88659,1,0,0:0:0:0:
360,192,88766,6,0,B|456:192|456:192|480:192,1,100
256,192,89302,5,0,0:0:0:0:
256,192,89516,1,0,0:0:0:0:
392,192,89730,6,0,B|480:192|480:192|368:192,1,200
480,192,90373,1,0,0:0:0:0:
152,192,90480,6,0,B|56:192|56:192|32:192,1,100
256,192,91016,5,0,0:0:0:0:
256,192,91230,1,0,0:0:0:0:
56,48,91445,6,0,L|136:48,1,80.9999975280763
312,240,91659,6,0,L|392:240,1,80.9999975280763
456,48,91873,6,0,L|376:48,1,80.9999975280763
56,336,92088,6,0,L|136:336,1,80.9999975280763
400,128,92302,6,0,L|496:128,1,80.9999975280763
320,224,92516,6,0,L|416:224,1,80.9999975280763
232,304,92730,6,0,L|328:304,1,80.9999975280763
328,128,92945,2,0,L|224:128,1,80.9999975280763
56,48,93159,2,0,L|176:48,1,90
366,48,93373,2,0,L|456:48,1,90
146,48,93588,2,0,L|56:48,1,90
456,48,93802,2,0,L|336:48,1,90
96,120,94016,6,0,P|112:240|176:336,1,200
150,307,94338,1,0,0:0:0:0:
416,120,94445,6,0,P|400:240|336:336,1,200
32,192,94873,5,0,0:0:0:0:
32,192,95088,2,0,L|160:192,1,100
480,192,95302,1,0,0:0:0:0:
480,192,95516,2,0,L|352:192,1,100
32,192,95730,1,0,0:0:0:0:
32,192,95945,2,0,L|160:192,1,100
480,192,96159,1,0,0:0:0:0:
480,192,96373,2,0,L|352:192,1,100
32,192,96587,1,0,0:0:0:0:
256,192,96802,12,0,98302,0:0:0:0:
104,128,98516,6,0,L|224:128,1,100
16,128,98730,2,0,P|40:232|128:288,1,200
256,288,99052,1,0,0:0:0:0:
184,288,99159,1,0,0:0:0:0:
328,288,99266,1,0,0:0:0:0:
184,288,99373,1,0,0:0:0:0:
48,288,99480,1,0,0:0:0:0:
128,288,99588,1,0,0:0:0:0:
208,288,99695,1,0,0:0:0:0:
288,288,99802,1,0,0:0:0:0:
48,288,99909,1,0,0:0:0:0:
408,288,100016,6,0,P|440:184|432:80,1,200
