osu file format v14

[General]
AudioFilename: BABYMETAL - Road of Resistance.mp3
AudioLeadIn: 0
PreviewTime: 124459
Countdown: 0
SampleSet: None
StackLeniency: 0.5
Mode: 0
LetterboxInBreaks: 0
WidescreenStoryboard: 0

[Editor]
DistanceSpacing: 1.03
BeatDivisor: 4
GridSize: 4
TimelineZoom: 3.399999

[Metadata]
Title:Road of Resistance
TitleUnicode:Road of Resistance
Artist:BABYMETAL
ArtistUnicode:BABYMETAL
Creator:Monstrata
Version:Rebellion
Source:
Tags:dragonforce herman li sam totman ktsune suzuka nakamoto yui mizuno moa kikuchi su-metal yuimetal moametal
BeatmapID:869222
BeatmapSetID:399372

[Difficulty]
HPDrainRate:6.5
CircleSize:4.5
OverallDifficulty:9
ApproachRate:9.5
SliderMultiplier:1
SliderTickRate:1

[Events]
//Background and Video events
0,0,"resistance.jpg",0,0
//Break Periods
2,47354,53507
//Storyboard Layer 0 (Background)
//Storyboard Layer 1 (Fail)
//Storyboard Layer 2 (Pass)
//Storyboard Layer 3 (Foreground)
//Storyboard Sound Samples

[TimingPoints]
1091,301.507537688442,4,1,5,50,1,0
4710,-142.857142857143,4,3,1,70,0,0
7064,291.26213592233,4,3,1,70,1,0
7064,-142.857142857143,4,3,1,70,0,0
8520,293.398533007335,4,3,1,70,1,8
9400,298.507462686567,4,3,1,70,1,0
9400,-133.333333333333,4,3,1,70,0,0
11743,291.26213592233,4,3,1,70,1,0
11743,-125,4,3,1,70,0,0
12908,292.682926829268,4,3,1,70,1,0
12908,-125,4,3,1,70,0,0
14078,-117.647058823529,4,3,1,70,0,0
15249,296.73590504451,4,3,0,70,1,0
15249,-111.111111111111,4,3,0,70,0,0
16422,294.117647058824,4,3,1,70,1,0
17598,292.682926829268,4,3,1,70,1,0
17598,-90.9090909090909,4,3,1,70,0,0
18183,-90.9090909090909,4,3,0,70,0,0
18573,-90.9090909090909,4,2,0,5,0,0
18768,-90.9090909090909,4,3,1,70,0,0
19793,310.880829015544,4,3,1,70,1,8
19948,287.081339712919,4,3,1,70,1,0
19948,-90.9090909090909,4,3,1,70,0,0
20378,292.682926829268,4,3,1,70,1,8
20378,-90.9090909090909,4,3,1,70,0,0
21109,292.682926829268,4,3,1,70,1,0
21109,-90.9090909090909,4,3,1,70,0,0
22865,-90.9090909090909,4,3,0,70,0,0
23157,-90.9090909090909,4,3,1,70,0,0
23450,-83.3333333333333,4,3,1,70,0,0
28133,-76.9230769230769,4,3,1,70,0,0
32230,300,4,3,1,70,1,8
32230,-76.9230769230769,4,3,1,70,0,0
32529,292.682926829268,4,3,1,70,1,8
32529,-76.9230769230769,4,3,1,70,0,0
32822,292.682926829268,4,3,1,70,1,0
32822,-76.9230769230769,4,3,1,70,0,0
33992,-71.4285714285714,4,3,1,70,0,0
37504,290.556900726392,4,3,1,70,1,0
37504,-71.4285714285714,4,3,1,70,0,0
38666,292.682926829268,4,3,1,70,1,0
38666,-71.4285714285714,4,3,1,70,0,0
39836,-62.5,4,3,1,50,0,0
41600,324.324324324324,4,3,1,50,1,8
41600,-62.5,4,3,1,50,0,0
41924,401.33779264214,4,3,1,50,1,8
41924,-71.4285714285714,4,3,1,50,0,0
42325,292.682926829268,4,3,1,70,1,0
45837,-100,4,3,1,50,0,0
46129,-100,4,3,1,40,0,0
46422,-100,4,3,1,30,0,0
46715,-100,4,3,1,20,0,0
47007,-100,4,3,1,10,0,0
47154,-100,4,3,1,50,0,0
54032,-100,4,3,1,25,0,0
54325,-100,4,3,1,35,0,0
54617,-100,4,3,1,45,0,0
54910,-100,4,3,1,55,0,0
55056,-100,4,3,1,10,0,0
55203,-55.5555555555556,4,3,1,70,0,0
57544,-55.5555555555556,4,3,1,85,0,1
76276,-55.5555555555556,4,3,1,75,0,0
103202,-55.5555555555556,4,3,0,70,0,0
103276,-55.5555555555556,4,3,1,75,0,0
113446,-55.5555555555556,4,1,5,70,0,0
113739,-55.5555555555556,4,3,1,75,0,0
123690,-55.5555555555556,4,3,0,70,0,0
123763,-55.5555555555556,4,3,1,70,0,0
124276,-55.5555555555556,4,3,0,70,0,0
124861,-55.5555555555556,4,3,1,70,0,0
125446,-55.5555555555556,4,3,2,85,0,1
158227,-83.3333333333333,4,3,1,70,0,1
160568,-55.5555555555556,4,2,0,60,0,1
161154,-55.5555555555556,4,1,5,40,0,1
161739,-55.5555555555556,4,3,2,50,0,1
162910,-55.5555555555556,4,3,2,70,0,0
172276,-55.5555555555556,4,3,2,85,0,1
176959,-41.6666666666667,4,3,2,90,0,1
179300,-50,4,3,2,70,0,1
181056,-50,4,3,0,70,0,1
181203,-50,4,3,2,70,0,1
181349,-50,4,3,0,70,0,1
181495,-50,4,3,2,70,0,1
181642,-111.111111111111,4,1,5,70,0,0
189837,-83.3333333333333,4,3,1,85,0,0
189910,-83.3333333333333,4,3,1,70,0,0
191007,-62.5,4,3,2,55,0,0
195690,-58.8235294117647,4,3,2,70,0,0
200373,-58.8235294117647,4,3,2,80,0,0
209739,-55.5555555555556,4,3,2,80,0,0
227885,-55.5555555555556,4,1,5,70,0,0
227959,-55.5555555555556,4,3,2,80,0,0
237837,-55.5555555555556,4,3,2,65,0,0
244861,-55.5555555555556,4,3,2,70,0,0
247203,-55.5555555555556,4,3,2,80,0,0
256568,-41.6666666666667,4,3,2,80,0,1
258910,-35.7142857142857,4,3,2,90,0,1
260959,-50,4,3,2,90,0,1
261251,-151.057401812689,4,2,5,70,0,0
264763,-125,4,3,1,70,0,0
265349,-100,4,3,1,70,0,0
265934,-76.9230769230769,4,3,1,70,0,0
267105,-66.6666666666667,4,3,1,70,0,0
267690,-57.1428571428571,4,3,2,70,0,0
269446,-57.1428571428571,4,3,0,70,0,0
269520,-57.1428571428571,4,3,2,70,0,0
270617,-50,4,3,2,85,0,1
277642,-41.6666666666667,4,3,2,85,0,1
287885,-41.6666666666667,4,3,0,85,0,1
288178,-50,4,3,2,80,0,1
288763,-50,4,3,0,80,0,1
288837,-50,4,3,2,80,0,1
289056,-55.5555555555556,4,3,2,80,0,1
292568,-55.5555555555556,4,3,0,70,0,1
293007,-55.5555555555556,4,3,2,70,0,1
293446,-62.5,4,3,1,70,0,1
293739,-76.9230769230769,4,3,1,70,0,1
294032,-125,4,1,5,70,0,1
294617,-111.111111111111,4,3,2,70,0,1
294910,283.018867924528,4,3,2,70,1,1
294910,-111.111111111111,4,3,2,70,0,1
295051,300,4,3,1,70,1,9
295202,307.692307692308,4,3,1,70,1,1
295202,-125,4,3,1,70,0,1
295356,287.081339712919,4,3,1,70,1,9
295643,355.029585798817,4,3,0,70,1,9
295643,-133.333333333333,4,3,0,70,0,1
295998,392.156862745098,4,3,1,70,1,9
296194,441.176470588235,4,3,1,70,1,9
296194,-133.333333333333,4,3,1,70,0,1
296414,472.44094488189,4,3,1,70,1,9
296650,800,4,3,1,70,1,1
296650,-83.3333333333333,4,3,1,70,0,1
297450,703.812316715542,4,3,1,70,1,9
298152,736.196319018405,4,3,2,70,1,9
298520,745.341614906832,4,3,2,70,1,9
298893,916.030534351145,4,3,2,70,1,9
299351,1111.11111111111,4,3,2,70,1,9
299906,337.078651685393,4,3,1,70,1,1
309344,-100,4,3,1,100,0,0

[Colours]
Combo1 : 184,114,114
Combo2 : 159,131,190
Combo3 : 109,167,88
Combo4 : 82,107,173

[HitObjects]
256,192,1091,12,2,4106,0:0:0:0:
116,132,4710,6,0,P|143:89|190:68,2,104.999996795654,4|0|0,0:0|0:0|0:0,0:0:0:0:
110,285,6217,1,0,0:0:0:0:
114,289,6519,2,0,P|153:296|194:286,1,69.9999978637696
253,256,7064,6,0,P|221:330|222:361,2,104.999996795654,4|0|0,0:2|0:0|0:0,0:0:0:0:
396,153,9400,6,0,P|364:120|288:109,2,112.500004291535,4|0|0,0:0|0:0|0:0,0:0:0:0:
227,278,10892,2,0,P|267:282|313:277,2,75.0000028610231
161,229,11743,6,0,P|187:281|173:338,2,120,4|0|0,0:2|0:0|0:0,0:0:0:0:
63,166,12908,2,0,L|9:177,1,40
124,71,13200,1,0,1:0:0:0:
141,150,13347,1,2,2:3:0:0:
220,133,13493,1,8,1:3:0:0:
355,48,13786,2,0,L|394:52,1,40,8|0,0:0|0:0,0:0:0:0:
474,59,14078,6,0,P|451:109|416:130,1,85.0000016212464,4|0,0:0|0:0,0:0:0:0:
342,130,14517,2,0,B|352:165|352:165|336:230,1,85.0000016212464
272,269,14956,2,0,L|228:273,2,28.3333338737488,8|0|0,0:0|0:0|0:0,0:0:0:0:
356,299,15249,6,0,P|393:308|484:251,2,134.999995880127,10|8|0,0:0|0:3|0:0,0:0:0:0:
482,166,16422,6,0,L|474:276,1,100,4|0,0:0|0:0,0:0:0:0:
393,206,16863,2,0,P|327:200|273:238,1,100
238,294,17304,1,0,0:0:0:0:
181,79,17598,6,0,P|169:94|159:109,1,36.6666677856446,8|0,0:0|0:0,0:0:0:0:
87,113,17793,1,0,0:0:0:0:
87,113,17890,2,0,P|83:131|83:149,1,36.6666677856446,10|0,0:0|0:0,0:0:0:0:
22,188,18085,1,0,0:0:0:0:
22,188,18183,2,0,P|28:205|36:221,1,36.6666677856446,8|0,0:0|0:0,0:0:0:0:
3,285,18378,1,0,0:0:0:0:
3,285,18476,2,0,P|17:296|32:306,1,36.6666677856446,8|0,0:0|2:0,0:0:0:0:
167,252,18768,6,0,P|209:218|263:219,1,110.000003356934,4|0,0:2|0:0,0:0:0:0:
238,297,19207,2,0,P|258:246|305:220,1,110.000003356934
321,300,19646,2,0,L|375:276,1,55.0000016784668
388,143,19948,6,0,L|381:201,1,55.0000016784668,8|0,0:0|0:0,0:0:0:0:
464,161,20235,1,2,0:0:0:0:
341,78,20378,2,0,L|350:136,1,55.0000016784668,8|0,0:0|0:0,0:0:0:0:
419,75,20670,1,2,0:0:0:0:
278,26,20817,2,0,L|301:80,1,55.0000016784668,8|0,0:0|0:0,0:0:0:0:
353,3,21109,6,0,P|430:-14|509:34,2,165.000005035401,2|2|0,0:0|0:0|0:0,0:0:0:0:
272,76,22133,1,0,0:0:0:0:
272,76,22206,1,0,0:0:0:0:
272,76,22279,6,0,L|313:72,3,27.5000008392334,8|0|0|0,0:0|0:0|0:0|0:0,0:0:0:0:
286,159,22572,6,0,L|323:141,3,27.5000008392334,8|0|0|0,0:0|0:0|0:0|0:0,0:0:0:0:
327,232,22865,6,0,L|355:202,3,27.5000008392334,8|0|0|0,0:0|0:0|0:0|0:0,0:0:0:0:
390,286,23157,6,0,L|407:248,3,27.5000008392334,8|0|0|0,0:0|0:0|0:0|0:0,0:0:0:0:
327,331,23450,6,0,P|269:342|213:323,1,119.999996337891
174,340,23816,1,0,0:0:0:0:
174,340,23889,2,0,P|115:351|59:332,1,119.999996337891,2|8,0:0|0:0,0:0:0:0:
77,250,24328,1,0,0:0:0:0:
77,250,24401,1,0,0:0:0:0:
77,250,24474,1,0,0:0:0:0:
93,166,24621,6,0,P|121:178|142:199,1,59.9999981689454,4|0,0:1|0:0,0:0:0:0:
196,72,24913,2,0,L|201:150,1,59.9999981689454
316,72,25206,2,0,L|311:150,1,59.9999981689454
418,166,25499,2,0,P|390:178|369:199,1,59.9999981689454
295,311,25791,6,0,P|327:278|413:295,1,119.999996337891,8|0,0:0|0:0,0:0:0:0:
428,309,26157,1,0,0:0:0:0:
428,309,26230,2,0,P|440:263|523:235,1,119.999996337891,10|8,0:0|0:0,0:0:0:0:
512,318,26669,1,0,0:0:0:0:
512,318,26743,1,0,0:0:0:0:
512,318,26816,1,0,0:0:0:0:
462,381,26962,6,0,L|329:375,1,119.999996337891,4|0,0:1|0:0,0:0:0:0:
295,311,27401,1,0,0:0:0:0:
295,311,27474,1,0,0:0:0:0:
295,311,27548,1,2,0:0:0:0:
292,219,27694,2,0,P|346:244|372:297,1,119.999996337891,8|0,0:0|0:0,0:0:0:0:
182,364,28133,6,0,B|206:334|206:334|306:308,1,129.999994049073,4|8,0:2|0:0,0:0:0:0:
143,239,28572,2,0,L|182:364,1,129.999994049073,2|0,0:0|0:0,0:0:0:0:
229,252,29011,1,0,0:0:0:0:
229,252,29084,1,0,0:0:0:0:
229,252,29157,1,0,0:0:0:0:
97,346,29304,6,0,L|9:328,1,64.9999970245363,4|0,0:1|0:0,0:0:0:0:
8,226,29596,2,0,P|31:249|62:260,1,64.9999970245363
142,189,29889,2,0,L|79:177,1,64.9999970245363
53,69,30182,2,0,P|75:91|106:102,1,64.9999970245363
186,6,30474,5,4,0:2:0:0:
186,6,30548,1,0,0:0:0:0:
186,6,30621,2,0,L|123:19,1,64.9999970245363,2|0,0:0|0:0,0:0:0:0:
185,112,30913,2,0,L|248:99,1,64.9999970245363,2|0,0:0|0:0,0:0:0:0:
325,83,31206,1,2,0:0:0:0:
265,175,31352,1,8,0:0:0:0:
271,198,31425,1,0,0:0:0:0:
285,218,31498,1,0,0:0:0:0:
305,231,31571,1,0,0:0:0:0:
328,236,31645,6,0,B|381:242|381:242|429:224|445:162,1,129.999994049073,4|0,0:1|0:0,0:0:0:0:
325,83,32084,1,0,0:0:0:0:
325,83,32157,1,0,0:0:0:0:
325,83,32230,2,0,L|262:70,1,64.9999970245363,8|0,0:0|0:0,0:0:0:0:
185,112,32529,2,0,L|122:99,1,64.9999970245363,8|2,0:0|0:0,0:0:0:0:
45,141,32822,6,0,L|64:295,1,129.999994049073,4|8,0:2|0:0,0:0:0:0:
41,359,33261,2,0,P|83:310|146:297,1,129.999994049073,2|2,0:0|0:0,0:0:0:0:
242,309,33700,1,8,0:0:0:0:
242,309,33773,1,0,0:0:0:0:
242,309,33846,1,0,0:0:0:0:
289,384,33992,6,0,L|428:365,1,139.999995727539,4|0,0:1|0:0,0:0:0:0:
476,146,34578,2,0,L|337:165,1,139.999995727539
138,58,35163,6,0,P|179:55|233:78,1,69.9999978637696,4|0,0:2|0:0,0:0:0:0:
287,89,35456,1,8,0:0:0:0:
169,146,35602,2,0,L|204:239,1,69.9999978637696,2|0,0:0|0:0,0:0:0:0:
184,294,35895,1,2,0:0:0:0:
264,272,36041,1,8,0:0:0:0:
264,272,36114,1,0,0:0:0:0:
264,272,36187,1,0,0:0:0:0:
323,363,36334,6,0,P|375:375|451:310,1,139.999995727539,4|0,0:1|0:0,0:0:0:0:
367,290,36773,1,2,0:0:0:0:
367,290,36846,1,0,0:0:0:0:
367,290,36919,1,8,0:0:0:0:
237,361,37065,2,0,L|81:357,1,139.999995727539,2|0,0:0|0:0,0:0:0:0:
45,213,37504,5,4,0:2:0:0:
55,235,37576,1,0,0:0:0:0:
72,253,37649,1,0,0:0:0:0:
94,265,37721,1,0,0:0:0:0:
119,268,37794,1,8,0:0:0:0:
153,177,37939,2,0,L|222:169,1,69.9999978637696,2|0,0:0|0:0,0:0:0:0:
313,158,38230,1,2,0:0:0:0:
257,85,38375,1,8,0:0:0:0:
257,85,38448,1,0,0:0:0:0:
257,85,38520,1,0,0:0:0:0:
277,242,38666,6,0,P|325:248|401:185,1,139.999995727539,4|0,0:1|0:0,0:0:0:0:
348,73,39105,1,2,0:0:0:0:
348,73,39178,1,0,0:0:0:0:
348,73,39251,1,8,0:0:0:0:
313,158,39397,1,2,0:0:0:0:
433,108,39544,2,0,L|517:95,1,69.9999978637696
257,85,39836,6,0,L|162:99,1,80,4|0,0:0|0:0,0:0:0:0:
97,109,40129,1,8,0:0:0:0:
198,236,40275,2,0,L|232:147,1,80,4|0,0:0|0:0,0:0:0:0:
257,85,40568,1,8,0:0:0:0:
118,248,40714,6,0,P|141:292|192:315,1,80,4|0,0:0|0:0,0:0:0:0:
277,224,41007,1,8,0:0:0:0:
67,185,41153,2,0,P|40:225|45:281,1,80,4|0,0:0|0:0,0:0:0:0:
165,308,41446,1,8,0:0:0:0:
257,85,41600,6,0,P|208:81|162:113,1,80,4|0,0:0|0:0,0:0:0:0:
1,172,41924,6,0,P|36:171|68:186,1,69.9999978637696,4|0,0:0|0:0,0:0:0:0:
132,381,42325,5,12,0:0:0:0:
256,192,42398,12,0,47154,1:0:0:0:
256,192,54032,12,0,55056,0:0:0:0:
105,188,55203,5,2,0:0:0:0:
125,196,55276,1,0,0:0:0:0:
143,210,55349,1,0,0:0:0:0:
157,227,55422,1,0,0:0:0:0:
165,248,55495,1,8,0:0:0:0:
57,359,55642,1,2,0:0:0:0:
54,337,55715,1,0,0:0:0:0:
57,315,55788,1,0,0:0:0:0:
66,294,55861,1,0,0:0:0:0:
80,277,55934,1,8,0:0:0:0:
230,314,56081,2,0,L|135:338,1,89.9999972534181,6|0,0:2|0:0,0:0:0:0:
245,233,56373,6,0,L|311:249,3,44.999998626709,8|0|0|0,0:0|0:0|0:0|0:0,0:0:0:0:
254,134,56666,2,0,L|303:181,3,44.999998626709,8|0|0|0,0:0|0:0|0:0|0:0,0:0:0:0:
311,52,56959,2,0,L|329:117,3,44.999998626709,8|0|0|0,0:0|0:0|0:0|0:0,0:0:0:0:
401,9,57251,2,0,L|384:75,3,44.999998626709,8|0|0|0,0:0|0:0|0:0|0:0,0:0:0:0:
435,236,57544,6,0,L|470:357,1,89.9999972534181,4|0,0:2|0:0,0:0:0:0:
497,171,57838,1,8,0:0:0:0:
373,301,57984,1,2,0:0:0:0:
410,150,58129,1,0,0:0:0:0:
435,236,58276,1,2,0:0:0:0:
472,85,58422,1,8,0:0:0:0:
348,215,58568,1,0,0:0:0:0:
385,64,58715,6,0,P|417:13|466:-1,1,89.9999972534181,4|0,0:2|0:0,0:0:0:0:
497,171,59007,1,8,0:0:0:0:
323,129,59154,1,2,0:0:0:0:
373,301,59300,1,8,0:0:0:0:
410,150,59445,1,2,0:0:0:0:
286,280,59593,1,8,0:0:0:0:
460,322,59740,1,0,0:0:0:0:
261,194,59885,6,0,P|214:224|196:279,1,89.9999972534181,4|0,0:2|0:0,0:0:0:0:
311,365,60178,1,8,0:0:0:0:
348,215,60324,1,2,0:0:0:0:
224,345,60471,1,0,0:0:0:0:
201,349,60544,1,0,0:0:0:0:
179,347,60617,1,2,0:0:0:0:
158,340,60690,1,0,0:0:0:0:
139,327,60763,1,8,0:0:0:0:
286,280,60910,1,0,0:0:0:0:
115,242,61056,6,0,P|68:272|50:327,1,89.9999972534181,4|0,0:2|0:0,0:0:0:0:
199,253,61349,1,8,0:0:0:0:
151,79,61495,2,0,L|127:-7,1,89.9999972534181,4|0,0:2|0:0,0:0:0:0:
88,143,61788,1,2,0:0:0:0:
261,194,61934,2,0,L|347:216,1,89.9999972534181,8|0,0:0|0:0,0:0:0:0:
376,49,62227,5,2,0:0:0:0:
349,57,62300,1,0,0:0:0:0:
326,73,62373,1,0,1:0:0:0:
309,95,62446,1,0,1:0:0:0:
300,122,62520,1,8,0:0:0:0:
300,150,62592,1,0,0:0:0:0:
308,177,62666,1,8,0:0:0:0:
325,199,62739,1,0,0:0:0:0:
348,216,62812,5,2,0:0:0:0:
351,188,62885,1,0,0:0:0:0:
368,166,62958,1,0,1:0:0:0:
393,155,63031,1,0,1:0:0:0:
421,157,63104,1,8,0:0:0:0:
443,174,63177,1,0,0:0:0:0:
455,199,63251,1,8,0:0:0:0:
453,226,63324,1,0,0:0:0:0:
435,248,63398,5,2,0:0:0:0:
417,227,63471,1,0,0:0:0:0:
392,214,63544,1,0,1:0:0:0:
364,212,63617,1,0,1:0:0:0:
338,221,63690,1,8,0:0:0:0:
317,239,63763,1,0,0:0:0:0:
304,264,63837,1,8,0:0:0:0:
302,292,63910,1,0,0:0:0:0:
311,318,63983,5,2,0:0:0:0:
330,298,64056,1,0,0:0:0:0:
354,283,64129,1,0,1:0:0:0:
381,276,64202,1,0,1:0:0:0:
409,275,64275,1,8,0:0:0:0:
436,282,64348,1,0,0:0:0:0:
460,295,64422,1,8,0:0:0:0:
481,315,64495,1,0,0:0:0:0:
495,339,64568,5,6,0:0:0:0:
478,342,64641,1,0,0:0:0:0:
462,346,64714,1,2,0:0:0:0:
445,349,64787,1,0,0:0:0:0:
422,367,64861,5,8,0:0:0:0:
406,363,64934,1,0,0:0:0:0:
389,360,65007,1,8,0:0:0:0:
373,356,65080,1,0,0:0:0:0:
349,338,65154,5,6,0:0:0:0:
333,342,65227,1,0,0:0:0:0:
316,345,65300,1,2,0:0:0:0:
300,349,65373,1,0,0:0:0:0:
276,367,65446,5,8,0:0:0:0:
260,363,65519,1,0,0:0:0:0:
243,360,65592,1,8,0:0:0:0:
227,356,65665,1,0,0:0:0:0:
203,338,65739,5,10,0:0:0:0:
186,342,65812,1,0,0:0:0:0:
170,340,65885,1,0,0:0:0:0:
156,331,65958,1,0,0:0:0:0:
147,317,66031,1,10,0:0:0:0:
144,300,66104,1,0,0:0:0:0:
149,284,66178,1,0,0:0:0:0:
159,272,66251,1,0,0:0:0:0:
174,264,66324,5,10,0:0:0:0:
155,236,66397,1,0,0:0:0:0:
151,202,66470,1,0,0:0:0:0:
162,171,66543,1,0,0:0:0:0:
186,148,66617,5,10,0:0:0:0:
227,166,66690,1,0,0:0:0:0:
272,171,66763,1,0,0:0:0:0:
316,161,66836,1,0,0:0:0:0:
354,139,66909,5,4,0:2:0:0:
169,59,67056,2,0,P|129:76|101:111,1,89.9999972534181,8|0,0:0|0:0,0:0:0:0:
174,264,67349,1,2,0:0:0:0:
174,264,67422,1,0,0:0:0:0:
174,264,67495,1,8,0:0:0:0:
186,148,67642,1,0,0:0:0:0:
290,276,67788,1,8,0:0:0:0:
302,160,67934,1,0,0:0:0:0:
123,200,68081,5,4,0:2:0:0:
352,223,68227,2,0,P|376:183|376:136,1,89.9999972534181,8|0,0:0|0:0,0:0:0:0:
249,97,68520,1,2,0:0:0:0:
249,97,68593,1,0,0:0:0:0:
249,97,68666,1,8,0:0:0:0:
290,276,68812,1,0,0:0:0:0:
302,160,68958,1,8,0:0:0:0:
226,326,69105,1,0,0:0:0:0:
135,84,69251,5,4,0:2:0:0:
58,250,69398,2,0,P|94:277|139:280,1,89.9999972534181,8|0,0:0|0:0,0:0:0:0:
186,148,69690,1,2,0:0:0:0:
290,276,69837,1,8,0:0:0:0:
306,260,69910,1,0,0:0:0:0:
325,249,69983,1,0,0:0:0:0:
347,245,70056,1,0,0:0:0:0:
370,246,70129,1,8,0:0:0:0:
302,160,70276,1,0,0:0:0:0:
226,326,70423,5,4,0:2:0:0:
186,148,70568,1,8,0:0:0:0:
290,276,70715,1,0,0:0:0:0:
249,97,70861,2,0,L|263:-17,1,89.9999972534181,4|0,0:2|0:0,0:0:0:0:
135,84,71154,1,2,0:0:0:0:
239,212,71301,1,8,0:0:0:0:
249,97,71446,1,0,0:0:0:0:
121,201,71593,5,8,0:0:0:0:
127,228,71666,1,0,0:0:0:0:
140,252,71739,1,0,0:0:0:0:
160,273,71812,1,0,0:0:0:0:
184,287,71885,1,0,0:0:0:0:
211,295,71958,1,0,0:0:0:0:
239,296,72032,1,2,0:0:0:0:
266,289,72105,1,0,0:0:0:0:
290,276,72178,5,8,0:0:0:0:
317,273,72251,1,0,0:0:0:0:
342,285,72324,1,8,0:0:0:0:
358,308,72397,1,0,0:0:0:0:
359,335,72470,1,2,0:0:0:0:
346,360,72543,1,0,0:0:0:0:
322,374,72617,1,2,0:0:0:0:
295,374,72690,1,0,0:0:0:0:
271,360,72763,5,8,0:0:0:0:
244,349,72836,1,0,0:0:0:0:
217,344,72909,1,2,0:0:0:0:
189,347,72982,1,0,0:0:0:0:
162,356,73055,1,0,1:0:0:0:
135,364,73128,1,0,0:0:0:0:
107,366,73202,1,8,0:0:0:0:
80,361,73275,1,0,0:0:0:0:
54,350,73349,5,0,1:0:0:0:
31,333,73422,1,0,0:0:0:0:
17,309,73495,1,2,0:0:0:0:
14,282,73568,1,0,0:0:0:0:
22,255,73641,1,8,0:0:0:0:
39,233,73714,1,0,0:0:0:0:
64,220,73788,1,2,0:0:0:0:
92,217,73861,1,0,0:0:0:0:
118,226,73934,5,8,0:0:0:0:
214,38,74081,1,2,0:0:0:0:
278,239,74227,1,2,0:0:0:0:
131,64,74373,5,8,0:0:0:0:
194,265,74520,1,2,0:0:0:0:
291,78,74666,1,2,0:0:0:0:
90,142,74812,5,8,0:0:0:0:
318,161,74959,1,8,0:0:0:0:
214,38,75105,5,2,0:0:0:0:
211,71,75178,1,0,0:0:0:0:
208,105,75251,1,0,0:0:0:0:
205,138,75324,1,0,0:0:0:0:
202,172,75398,5,8,0:0:0:0:
232,158,75471,1,0,0:0:0:0:
266,158,75544,1,0,0:0:0:0:
295,174,75617,1,0,0:0:0:0:
314,201,75690,5,4,0:2:0:0:
271,212,75763,1,0,0:0:0:0:
243,246,75836,1,0,0:0:0:0:
240,290,75909,1,0,0:0:0:0:
265,327,75982,1,0,0:0:0:0:
306,342,76055,1,0,0:0:0:0:
349,330,76129,1,0,0:0:0:0:
375,295,76202,1,0,0:0:0:0:
376,251,76276,6,0,L|170:310,1,179.999994506836,4|0,0:0|0:0,0:0:0:0:
202,172,76715,1,2,0:0:0:0:
376,251,76861,1,8,0:0:0:0:
338,133,77007,1,2,0:0:0:0:
240,290,77154,1,8,0:0:0:0:
257,102,77300,1,2,0:0:0:0:
321,321,77446,6,0,P|362:338|406:334,1,89.9999972534181,8|0,0:0|0:0,0:0:0:0:
289,211,77739,1,2,0:0:0:0:
191,369,77885,2,0,L|69:355,1,89.9999972534181,10|0,0:0|0:0,0:0:0:0:
202,172,78178,1,2,0:0:0:0:
240,290,78324,1,8,0:0:0:0:
338,133,78471,1,2,0:0:0:0:
153,251,78617,6,0,B|63:241|63:241|19:218|16:162,1,179.999994506836,4|0,0:0|0:0,0:0:0:0:
112,10,79056,1,2,0:0:0:0:
202,172,79202,1,8,0:0:0:0:
312,32,79349,1,2,0:0:0:0:
157,91,79495,1,8,0:0:0:0:
338,133,79642,1,2,0:0:0:0:
183,192,79788,6,0,P|122:191|89:170,1,89.9999972534181,8|0,0:0|0:0,0:0:0:0:
248,112,80081,1,2,0:0:0:0:
339,280,80227,2,0,P|400:279|433:258,1,89.9999972534181,8|0,0:0|0:0,0:0:0:0:
274,200,80520,1,2,0:0:0:0:
183,368,80666,1,8,0:0:0:0:
183,192,80812,1,2,0:0:0:0:
274,376,80959,5,8,0:0:0:0:
339,280,81105,1,2,0:0:0:0:
349,260,81178,1,0,0:0:0:0:
360,240,81251,1,0,0:0:0:0:
228,284,81398,2,0,L|126:287,1,89.9999972534181,2|0,0:0|0:0,0:0:0:0:
274,200,81690,1,2,0:0:0:0:
323,379,81837,1,8,3:3:0:0:
354,381,81910,1,8,3:3:0:0:
386,372,81983,1,8,3:3:0:0:
412,350,82056,1,0,3:3:0:0:
427,320,82129,5,12,3:3:0:0:
368,132,82276,1,2,0:0:0:0:
339,280,82422,1,0,0:0:0:0:
402,103,82568,1,2,0:0:0:0:
274,200,82715,1,0,0:0:0:0:
436,74,82861,1,2,0:0:0:0:
240,102,83007,1,8,0:0:0:0:
470,45,83154,1,2,0:0:0:0:
244,0,83300,5,4,0:2:0:0:
221,1,83373,1,0,0:0:0:0:
200,7,83446,1,0,0:0:0:0:
180,18,83519,1,0,0:0:0:0:
163,33,83592,1,8,0:0:0:0:
150,52,83665,1,0,0:0:0:0:
142,72,83739,1,0,0:0:0:0:
138,94,83812,1,0,0:0:0:0:
139,117,83885,5,8,0:0:0:0:
118,107,83958,1,0,0:0:0:0:
96,108,84031,1,0,0:0:0:0:
77,119,84104,1,0,0:0:0:0:
65,138,84177,1,2,0:0:0:0:
64,160,84250,1,0,0:0:0:0:
74,180,84324,1,2,0:0:0:0:
92,193,84397,1,0,0:0:0:0:
114,197,84470,5,4,0:2:0:0:
201,179,84617,1,2,0:0:0:0:
194,200,84690,1,0,0:0:0:0:
188,222,84763,1,0,0:0:0:0:
274,200,84910,1,8,0:0:0:0:
278,204,84983,1,0,0:0:0:0:
282,208,85056,2,0,L|351:194,3,44.999998626709,0|0|2|0,0:0|0:0|0:0|0:0,0:0:0:0:
425,278,85349,2,0,L|381:270,3,44.999998626709,8|0|0|0,0:0|0:0|0:0|0:0,0:0:0:0:
242,146,85642,6,0,L|437:185,1,179.999994506836,4|0,0:0|0:0,0:0:0:0:
348,75,86081,1,2,0:0:0:0:
313,252,86227,1,8,0:0:0:0:
242,146,86373,1,2,0:0:0:0:
113,307,86520,1,8,0:0:0:0:
119,180,86666,1,2,0:0:0:0:
231,351,86812,5,8,0:0:0:0:
194,213,86959,1,0,0:0:0:0:
113,307,87105,1,2,0:0:0:0:
313,252,87251,2,0,L|415:222,1,89.9999972534181,8|0,0:0|0:0,0:0:0:0:
348,75,87544,1,2,0:0:0:0:
242,146,87690,1,8,0:0:0:0:
233,18,87837,1,2,0:0:0:0:
466,162,87983,6,0,B|489:112|489:112|476:23|388:14,1,179.999994506836,4|0,0:0|0:0,0:0:0:0:
348,75,88422,1,2,0:0:0:0:
450,252,88568,1,8,0:0:0:0:
466,162,88715,1,2,0:0:0:0:
313,252,88861,1,8,0:0:0:0:
297,162,89008,1,2,0:0:0:0:
434,342,89154,5,8,0:0:0:0:
382,193,89300,1,0,0:0:0:0:
330,342,89446,1,2,0:0:0:0:
466,162,89593,2,0,P|432:116|384:103,1,89.9999972534181,8|0,0:0|0:0,0:0:0:0:
297,162,89885,1,2,0:0:0:0:
434,342,90032,1,8,0:0:0:0:
382,193,90178,1,2,0:0:0:0:
226,342,90324,5,8,0:0:0:0:
209,252,90471,1,2,0:0:0:0:
209,252,90544,1,0,0:0:0:0:
209,252,90617,1,0,0:0:0:0:
330,342,90763,2,0,L|449:359,1,89.9999972534181,8|0,0:0|0:0,0:0:0:0:
313,252,91056,1,2,0:0:0:0:
139,311,91202,1,8,0:0:0:0:
116,314,91275,1,8,0:0:0:0:
94,317,91348,1,8,0:0:0:0:
72,321,91421,1,0,0:0:0:0:
49,324,91495,5,8,0:0:0:0:
98,147,91642,1,2,0:0:0:0:
139,311,91788,1,0,0:0:0:0:
187,133,91934,1,2,0:0:0:0:
74,236,92081,5,0,0:0:0:0:
122,58,92227,1,2,0:0:0:0:
163,222,92373,1,0,0:0:0:0:
211,44,92521,1,2,0:0:0:0:
8,170,92666,5,10,0:0:0:0:
2,197,92739,1,0,0:0:0:0:
2,225,92812,1,0,0:0:0:0:
7,253,92885,1,0,0:0:0:0:
16,279,92958,1,0,0:0:0:0:
30,304,93031,1,0,0:0:0:0:
49,324,93105,5,2,0:0:0:0:
69,304,93178,1,0,0:0:0:0:
95,290,93251,1,0,0:0:0:0:
125,286,93324,1,0,0:0:0:0:
154,293,93397,1,0,0:0:0:0:
179,309,93470,1,0,0:0:0:0:
198,332,93544,5,2,0:0:0:0:
212,302,93617,1,0,0:0:0:0:
240,283,93690,1,0,0:0:0:0:
273,280,93763,1,0,0:0:0:0:
303,294,93837,6,0,P|349:311|412:297,1,89.9999972534181,8|0,0:0|0:0,0:0:0:0:
447,233,94129,1,2,0:0:0:0:
323,139,94276,2,0,P|331:186|375:233,1,89.9999972534181,8|0,0:0|0:0,0:0:0:0:
447,233,94568,1,2,0:0:0:0:
390,73,94715,1,8,0:0:0:0:
372,59,94788,1,0,0:0:0:0:
351,49,94861,1,8,0:0:0:0:
329,45,94934,1,0,0:0:0:0:
307,46,95007,6,0,P|259:69|233:114,1,89.9999972534181,2|0,0:0|0:0,0:0:0:0:
159,150,95300,2,0,P|143:109|149:65,1,89.9999972534181
84,210,95593,2,0,P|119:237|164:244,1,89.9999972534181,8|0,0:0|0:0,0:0:0:0:
246,286,95885,2,0,P|219:321|178:339,1,89.9999972534181
323,236,96178,6,0,L|521:272,1,179.999994506836,2|0,0:0|1:0,0:0:0:0:
350,82,96617,2,0,L|420:280,1,179.999994506836,8|2,0:0|0:0,0:0:0:0:
234,219,97056,2,0,L|352:240,1,89.9999972534181,10|0,0:0|0:0,0:0:0:0:
198,134,97349,6,0,P|162:161|193:302,1,179.999994506836,2|0,0:0|1:0,0:0:0:0:
253,61,97788,1,2,0:0:0:0:
253,61,97934,2,0,B|211:33|166:47,1,89.9999972534181,8|0,0:0|0:0,0:0:0:0:
234,219,98227,2,0,L|352:240,1,89.9999972534181,2|0,0:0|0:0,0:0:0:0:
350,82,98520,6,0,P|314:109|297:150,1,89.9999972534181,2|0,0:0|0:0,0:0:0:0:
385,166,98812,1,0,1:0:0:0:
409,4,98959,2,0,L|294:3,1,89.9999972534181,8|0,0:0|0:0,0:0:0:0:
253,61,99251,1,2,0:0:0:0:
447,103,99398,1,8,0:0:0:0:
460,120,99471,1,0,0:0:0:0:
469,141,99544,1,8,0:0:0:0:
472,163,99617,1,8,0:0:0:0:
470,185,99690,6,0,P|460:243|492:291,1,89.9999972534181,8|0,0:0|0:0,0:0:0:0:
429,288,99910,1,0,0:0:0:0:
429,288,99983,2,0,L|305:300,1,89.9999972534181,0|0,1:0|0:0,0:0:0:0:
308,264,100202,1,0,0:0:0:0:
308,264,100276,2,0,L|184:276,1,89.9999972534181,0|0,1:0|0:0,0:0:0:0:
187,240,100495,1,0,0:0:0:0:
187,240,100569,2,0,L|63:252,1,89.9999972534181,0|0,1:0|0:0,0:0:0:0:
66,216,100788,1,0,0:0:0:0:
66,216,100861,5,2,0:0:0:0:
105,135,101007,1,0,0:0:0:0:
110,132,101080,1,0,0:0:0:0:
116,129,101153,1,0,1:0:0:0:
122,127,101226,1,0,0:0:0:0:
129,126,101299,1,0,0:0:0:0:
135,126,101372,1,0,0:0:0:0:
141,126,101446,1,8,0:0:0:0:
148,127,101519,1,0,0:0:0:0:
154,129,101592,1,0,0:0:0:0:
160,131,101665,1,0,0:0:0:0:
166,134,101738,1,8,0:0:0:0:
171,137,101811,1,0,0:0:0:0:
176,141,101885,1,0,0:0:0:0:
181,146,101958,1,0,0:0:0:0:
185,151,102032,5,8,1:3:0:0:
209,134,102105,1,0,0:0:0:0:
239,131,102178,1,0,0:0:0:0:
266,142,102251,1,0,0:0:0:0:
285,165,102324,1,0,0:0:0:0:
291,194,102397,1,0,0:0:0:0:
283,223,102471,5,2,0:0:0:0:
255,233,102544,1,0,0:0:0:0:
237,256,102617,1,0,0:0:0:0:
234,286,102690,1,0,0:0:0:0:
248,312,102763,1,8,0:0:0:0:
273,327,102836,1,0,0:0:0:0:
303,326,102910,5,2,0:0:0:0:
331,316,102983,1,0,0:0:0:0:
360,316,103056,1,0,0:0:0:0:
389,324,103129,1,0,0:0:0:0:
412,342,103202,5,8,0:0:0:0:
402,316,103275,1,0,0:0:0:0:
396,288,103348,1,0,0:0:0:0:
399,260,103421,1,0,0:0:0:0:
409,234,103494,1,8,0:0:0:0:
418,208,103567,1,0,0:0:0:0:
422,180,103641,1,0,0:0:0:0:
418,152,103714,1,0,0:0:0:0:
408,125,103788,5,2,0:0:0:0:
376,134,103861,1,0,0:0:0:0:
345,121,103934,1,0,0:0:0:0:
330,92,104007,1,0,0:0:0:0:
337,60,104080,5,2,0:0:0:0:
46,306,104373,6,0,L|147:332,1,89.9999972534181,2|0,0:0|0:0,0:0:0:0:
67,179,104666,2,0,P|87:218|123:245,1,89.9999972534181,8|0,0:0|0:0,0:0:0:0:
137,81,104959,2,0,P|134:125|152:166,1,89.9999972534181,8|0,0:0|0:0,0:0:0:0:
344,191,105251,1,0,0:0:0:0:
260,83,105398,1,0,0:0:0:0:
236,274,105544,6,0,L|337:300,1,89.9999972534181,2|0,0:0|0:0,0:0:0:0:
491,233,105837,2,0,L|404:256,1,89.9999972534181,8|0,0:0|0:0,0:0:0:0:
257,169,106129,2,0,L|358:195,1,89.9999972534181,8|0,0:0|0:0,0:0:0:0:
322,22,106422,1,0,0:0:0:0:
175,150,106568,1,0,0:0:0:0:
402,46,106715,6,0,L|454:32,3,44.999998626709,2|0|0|0,0:0|0:0|0:0|0:0,0:0:0:0:
495,126,107007,2,0,L|452:115,3,44.999998626709,8|0|0|0,0:0|0:0|0:0|0:0,0:0:0:0:
401,206,107300,6,0,L|444:194,3,44.999998626709,2|0|0|0,0:0|0:0|0:0|0:0,0:0:0:0:
495,285,107593,2,0,L|451:273,3,44.999998626709,8|0|0|0,0:0|0:0|0:0|0:0,0:0:0:0:
401,364,107885,6,0,L|445:352,3,44.999998626709,2|0|0|0,0:0|0:0|0:0|0:0,0:0:0:0:
335,260,108178,2,0,L|347:304,3,44.999998626709,8|0|0|0,0:0|0:0|0:0|0:0,0:0:0:0:
270,332,108471,5,2,0:0:0:0:
254,337,108544,1,0,0:0:0:0:
237,341,108617,1,0,0:0:0:0:
220,342,108690,1,0,0:0:0:0:
203,340,108763,1,8,0:0:0:0:
187,336,108836,1,0,0:0:0:0:
171,330,108910,1,8,0:0:0:0:
157,322,108983,1,0,0:0:0:0:
143,311,109056,6,0,P|91:317|51:355,1,89.9999972534181,2|0,0:0|0:0,0:0:0:0:
78,162,109349,2,0,L|52:249,1,89.9999972534181,8|0,0:0|0:0,0:0:0:0:
103,75,109642,2,0,P|141:96|164:134,1,89.9999972534181,8|0,0:0|0:0,0:0:0:0:
256,52,109934,1,0,0:0:0:0:
256,142,110081,1,0,0:0:0:0:
409,75,110227,6,0,P|371:96|348:134,1,89.9999972534181,2|0,0:0|0:0,0:0:0:0:
460,249,110520,2,0,L|434:162,1,89.9999972534181,8|0,0:0|0:0,0:0:0:0:
400,315,110812,2,0,P|440:336|485:335,1,89.9999972534181,8|0,0:0|0:0,0:0:0:0:
373,232,111105,1,0,0:0:0:0:
314,298,111251,1,0,0:0:0:0:
348,147,111398,6,0,P|432:167|460:249,1,179.999994506836,2|0,0:0|0:0,0:0:0:0:
409,75,111837,1,8,0:0:0:0:
256,142,111983,1,2,0:0:0:0:
250,163,112056,1,0,0:0:0:0:
245,185,112129,1,0,0:0:0:0:
239,207,112202,1,0,0:0:0:0:
234,229,112275,1,0,0:0:0:0:
239,250,112349,1,0,0:0:0:0:
244,272,112422,1,0,0:0:0:0:
250,294,112495,1,0,0:0:0:0:
254,317,112568,5,4,1:2:0:0:
263,287,112641,1,0,0:0:0:0:
290,270,112714,1,0,0:0:0:0:
321,275,112787,1,0,0:0:0:0:
342,299,112860,1,8,0:0:0:0:
342,331,112933,1,0,0:0:0:0:
321,355,113007,1,0,0:0:0:0:
290,360,113081,1,0,0:0:0:0:
261,346,113154,1,2,0:0:0:0:
231,336,113227,1,0,0:0:0:0:
199,334,113300,1,0,0:0:0:0:
168,341,113373,1,0,0:0:0:0:
142,359,113446,5,6,0:0:0:0:
341,19,113739,6,0,L|449:49,1,89.9999972534181,4|0,1:2|0:0,0:0:0:0:
368,111,113959,1,0,0:0:0:0:
368,111,114032,2,0,L|476:141,1,89.9999972534181,8|0,0:0|0:0,0:0:0:0:
395,203,114251,1,0,0:0:0:0:
395,203,114324,2,0,L|503:233,1,89.9999972534181,8|0,0:0|0:0,0:0:0:0:
422,295,114544,1,0,0:0:0:0:
422,295,114617,1,8,0:0:0:0:
454,135,114764,1,8,0:0:0:0:
333,276,114910,6,0,P|338:324|370:363,1,89.9999972534181,4|0,1:2|0:0,0:0:0:0:
221,263,115202,1,8,0:0:0:0:
199,255,115275,1,0,0:0:0:0:
177,251,115348,1,0,0:0:0:0:
155,252,115421,1,0,0:0:0:0:
133,258,115494,1,8,0:0:0:0:
112,264,115567,1,0,0:0:0:0:
89,266,115641,1,0,0:0:0:0:
67,262,115714,1,0,0:0:0:0:
46,255,115788,2,0,P|17:219|13:174,1,89.9999972534181,8|0,0:0|0:0,0:0:0:0:
108,100,116081,6,0,L|88:206,1,89.9999972534181,4|0,1:2|0:0,0:0:0:0:
221,263,116373,1,8,0:0:0:0:
205,175,116519,1,0,0:0:0:0:
152,320,116666,1,8,0:0:0:0:
174,315,116739,1,0,0:0:0:0:
196,310,116812,1,0,0:0:0:0:
218,306,116885,1,0,0:0:0:0:
240,301,116958,1,8,0:0:0:0:
262,296,117031,1,0,0:0:0:0:
284,292,117105,1,0,0:0:0:0:
306,287,117178,1,0,0:0:0:0:
328,282,117251,6,0,L|430:320,1,89.9999972534181,8|0,1:3|0:0,0:0:0:0:
481,255,117544,1,2,0:0:0:0:
312,193,117690,2,0,P|272:211|245:246,1,89.9999972534181,8|0,1:3|0:0,0:0:0:0:
167,201,117983,1,2,0:0:0:0:
296,104,118129,1,8,0:0:0:0:
318,106,118202,1,0,0:0:0:0:
340,108,118275,1,0,0:0:0:0:
363,110,118348,1,0,0:0:0:0:
385,112,118422,5,4,0:0:0:0:
375,80,118495,1,0,0:0:0:0:
385,48,118568,1,0,0:0:0:0:
410,27,118641,1,0,0:0:0:0:
444,24,118714,1,2,0:0:0:0:
472,41,118787,1,0,0:0:0:0:
487,70,118861,5,8,0:0:0:0:
483,103,118934,1,0,0:0:0:0:
461,127,119007,1,0,0:0:0:0:
443,156,119080,1,0,0:0:0:0:
437,189,119153,1,2,0:0:0:0:
444,222,119226,1,0,0:0:0:0:
463,250,119299,5,8,0:0:0:0:
485,274,119373,1,0,0:0:0:0:
489,307,119446,1,0,0:0:0:0:
474,336,119520,1,0,0:0:0:0:
446,353,119593,5,12,0:0:0:0:
412,350,119666,1,0,0:0:0:0:
387,329,119739,1,0,0:0:0:0:
377,297,119812,1,0,0:0:0:0:
387,266,119885,1,2,0:0:0:0:
389,232,119959,1,0,0:0:0:0:
373,203,120032,5,8,0:0:0:0:
344,187,120105,1,0,0:0:0:0:
311,190,120178,1,0,0:0:0:0:
285,211,120251,1,0,0:0:0:0:
274,242,120325,1,2,0:0:0:0:
280,273,120398,1,0,0:0:0:0:
304,297,120471,5,8,0:0:0:0:
317,327,120544,1,0,0:0:0:0:
307,359,120617,1,0,0:0:0:0:
279,377,120690,1,0,0:0:0:0:
247,372,120763,5,4,0:0:0:0:
246,329,120836,1,0,0:0:0:0:
214,298,120909,1,0,1:0:0:0:
170,299,120982,1,0,1:0:0:0:
139,330,121055,1,8,0:0:0:0:
108,361,121129,1,0,0:0:0:0:
64,361,121202,1,0,1:0:0:0:
32,331,121275,1,0,1:0:0:0:
31,287,121348,5,8,0:0:0:0:
62,254,121422,1,0,1:0:0:0:
106,251,121495,1,0,1:0:0:0:
143,275,121568,1,0,0:0:0:0:
188,279,121642,1,4,1:2:0:0:
225,255,121715,1,0,0:0:0:0:
240,214,121788,1,0,0:0:0:0:
225,172,121861,1,0,0:0:0:0:
187,150,121934,5,4,1:2:0:0:
164,112,122007,1,0,0:0:0:0:
165,67,122080,1,0,1:0:0:0:
190,30,122153,1,0,1:0:0:0:
230,12,122226,1,8,1:3:0:0:
274,19,122299,1,0,1:0:0:0:
308,48,122373,1,0,1:0:0:0:
321,90,122446,1,0,1:0:0:0:
309,133,122520,5,4,1:2:0:0:
317,176,122593,1,0,1:0:0:0:
350,206,122666,1,0,1:0:0:0:
394,209,122739,1,0,1:0:0:0:
431,185,122812,2,0,P|442:134|398:82,1,89.9999972534181,10|0,1:3|1:0,0:0:0:0:
241,94,123105,5,8,0:0:0:0:
277,345,123251,1,8,0:0:0:0:
99,162,123397,1,2,0:0:0:0:
350,206,123543,1,2,0:0:0:0:
122,318,123690,5,8,0:0:0:0:
80,302,123763,1,0,0:0:0:0:
45,273,123836,1,0,0:0:0:0:
20,236,123909,1,0,0:0:0:0:
9,193,123982,1,8,0:0:0:0:
11,148,124055,1,0,0:0:0:0:
28,106,124129,1,0,0:0:0:0:
56,72,124202,1,0,0:0:0:0:
94,48,124275,5,8,0:0:0:0:
277,345,124568,5,8,0:0:0:0:
303,0,124861,5,8,0:0:0:0:
77,262,125154,5,8,0:0:0:0:
414,180,125446,6,0,P|442:215|449:259,1,89.9999972534181,4|8,0:0|0:0,0:0:0:0:
398,334,125739,1,0,0:0:0:0:
273,243,125885,2,0,P|317:237|359:253,1,89.9999972534181,8|0,0:0|0:0,0:0:0:0:
426,91,126178,1,8,0:0:0:0:
342,126,126324,1,2,0:0:0:0:
320,131,126397,1,0,0:0:0:0:
297,132,126470,1,0,0:0:0:0:
276,127,126543,1,0,0:0:0:0:
256,116,126617,6,0,P|214:100|170:106,1,89.9999972534181
205,189,126910,1,2,0:0:0:0:
307,43,127056,2,0,P|351:36|392:52,1,89.9999972534181,8|0,0:0|0:0,0:0:0:0:
342,126,127349,1,8,0:0:0:0:
135,23,127495,1,2,0:0:0:0:
108,43,127568,1,0,0:0:0:0:
89,71,127641,1,0,0:0:0:0:
85,103,127714,1,0,0:0:0:0:
87,137,127788,6,0,L|180:104,1,89.9999972534181,4|8,0:2|0:0,0:0:0:0:
307,43,128081,1,0,0:0:0:0:
294,191,128227,1,8,0:0:0:0:
294,191,128300,1,0,0:0:0:0:
294,191,128373,2,0,P|339:205|391:188,1,89.9999972534181,0|8,0:0|0:0,0:0:0:0:
256,116,128666,1,2,0:0:0:0:
251,149,128739,1,0,0:0:0:0:
246,182,128812,1,0,0:0:0:0:
242,216,128885,1,0,0:0:0:0:
237,249,128959,6,0,P|191:277|132:272,1,89.9999972534181,0|8,0:0|0:0,0:0:0:0:
170,191,129251,1,2,0:0:0:0:
323,278,129398,1,8,0:0:0:0:
323,278,129471,1,0,0:0:0:0:
323,278,129544,2,0,L|412:266,1,89.9999972534181,0|8,0:0|0:0,0:0:0:0:
417,153,129837,1,2,0:0:0:0:
403,122,129910,1,0,0:0:0:0:
400,88,129983,1,0,0:0:0:0:
407,55,130056,1,0,0:0:0:0:
424,27,130129,6,0,L|515:39,1,89.9999972534181,4|0,0:2|0:0,0:0:0:0:
417,153,130422,1,0,0:0:0:0:
264,77,130568,2,0,L|354:89,1,89.9999972534181,8|0,0:0|0:0,0:0:0:0:
407,245,130861,1,8,0:0:0:0:
214,215,131007,1,2,0:0:0:0:
191,213,131080,1,0,0:0:0:0:
170,206,131153,1,0,0:0:0:0:
151,194,131226,1,0,0:0:0:0:
135,178,131300,5,2,0:0:0:0:
174,303,131446,1,8,0:0:0:0:
209,124,131593,1,0,0:0:0:0:
67,248,131739,1,8,0:0:0:0:
294,292,131885,1,2,0:0:0:0:
319,280,131958,1,0,0:0:0:0:
341,263,132031,1,8,0:0:0:0:
357,240,132104,1,0,0:0:0:0:
367,213,132177,1,0,0:0:0:0:
368,185,132250,1,0,0:0:0:0:
362,158,132324,1,0,0:0:0:0:
349,133,132397,1,2,0:0:0:0:
330,113,132471,6,0,L|219:122,1,89.9999972534181,4|8,0:2|0:0,0:0:0:0:
186,189,132763,1,2,0:0:0:0:
368,31,132910,2,0,L|479:40,1,89.9999972534181,8|2,0:0|0:0,0:0:0:0:
512,107,133202,1,8,0:0:0:0:
277,39,133349,1,2,0:0:0:0:
254,40,133422,1,0,0:0:0:0:
232,42,133495,1,0,0:0:0:0:
209,44,133568,1,0,0:0:0:0:
187,46,133641,5,4,0:2:0:0:
293,194,133788,1,8,0:0:0:0:
368,31,133934,1,2,0:0:0:0:
471,177,134081,1,8,0:0:0:0:
284,90,134227,1,2,0:0:0:0:
262,94,134300,1,0,0:0:0:0:
241,103,134373,1,8,0:0:0:0:
223,117,134446,1,8,0:0:0:0:
208,133,134519,1,8,0:0:0:0:
197,153,134592,1,8,0:0:0:0:
190,174,134666,1,8,0:0:0:0:
188,197,134739,1,0,0:0:0:0:
194,220,134812,6,0,P|217:266|267:292,1,89.9999972534181,4|8,0:2|0:0,0:0:0:0:
378,180,135105,2,0,P|333:176|293:194,1,89.9999972534181,0|8,0:0|0:0,0:0:0:0:
325,364,135398,1,0,0:0:0:0:
331,343,135471,1,0,0:0:0:0:
338,321,135544,1,8,0:0:0:0:
344,300,135617,1,0,0:0:0:0:
350,278,135690,2,0,L|394:272,3,44.999998626709,2|0|0|0,0:0|0:0|0:0|0:0,0:0:0:0:
261,317,135983,6,0,L|171:306,1,89.9999972534181,0|8,0:0|0:0,0:0:0:0:
158,137,136276,2,0,L|193:220,1,89.9999972534181,2|8,0:0|0:0,0:0:0:0:
54,317,136568,1,2,0:0:0:0:
67,299,136641,1,0,0:0:0:0:
81,281,136714,1,8,0:0:0:0:
94,263,136787,1,0,0:0:0:0:
108,245,136861,2,0,L|85:191,3,44.999998626709,0|0|8|0,0:0|0:0|0:0|0:0,0:0:0:0:
68,126,137154,5,2,0:0:0:0:
74,98,137227,1,0,0:0:0:0:
89,75,137300,1,8,0:0:0:0:
111,57,137373,1,0,0:0:0:0:
136,46,137446,1,0,0:0:0:0:
164,44,137519,1,0,0:0:0:0:
192,50,137593,1,8,0:0:0:0:
215,65,137666,1,0,0:0:0:0:
234,86,137739,5,2,0:0:0:0:
252,107,137812,1,0,0:0:0:0:
275,124,137885,1,0,0:0:0:0:
300,136,137958,1,0,0:0:0:0:
328,142,138031,1,2,0:0:0:0:
356,143,138104,1,0,0:0:0:0:
383,138,138178,1,0,0:0:0:0:
409,127,138251,1,0,0:0:0:0:
433,112,138324,5,2,0:0:0:0:
421,137,138397,1,0,0:0:0:0:
414,164,138470,1,8,0:0:0:0:
415,192,138543,1,0,0:0:0:0:
423,219,138616,1,0,0:0:0:0:
432,246,138689,1,0,0:0:0:0:
433,274,138763,1,8,0:0:0:0:
428,302,138836,1,0,0:0:0:0:
417,328,138910,5,2,0:0:0:0:
396,309,138983,1,0,0:0:0:0:
371,297,139056,1,0,0:0:0:0:
344,291,139129,1,0,0:0:0:0:
316,293,139202,1,2,0:0:0:0:
289,302,139275,1,0,0:0:0:0:
265,317,139349,1,0,0:0:0:0:
246,337,139422,1,0,0:0:0:0:
233,362,139495,6,0,P|176:385|120:371,1,89.9999972534181,4|8,0:2|0:0,0:0:0:0:
81,273,139788,2,0,L|71:347,3,44.999998626709,0|0|8|0,0:0|0:0|0:0|0:0,0:0:0:0:
230,180,140081,2,0,L|223:135,3,44.999998626709,2|0|8|0,0:0|0:0|0:0|0:0,0:0:0:0:
147,216,140373,1,0,0:0:0:0:
164,245,140446,1,0,0:0:0:0:
191,265,140519,1,8,0:0:0:0:
223,272,140592,1,0,0:0:0:0:
257,267,140665,5,2,0:0:0:0:
74,96,140812,1,0,0:0:0:0:
81,273,140959,1,2,0:0:0:0:
307,160,141105,1,0,0:0:0:0:
102,184,141251,1,8,0:0:0:0:
334,246,141398,1,2,0:0:0:0:
273,47,141544,1,8,0:0:0:0:
257,267,141690,1,2,0:0:0:0:
449,52,141837,5,2,0:0:0:0:
420,43,141910,1,0,0:0:0:0:
390,41,141983,1,8,0:0:0:0:
361,48,142056,1,0,0:0:0:0:
332,56,142129,1,0,0:0:0:0:
302,55,142202,1,0,0:0:0:0:
273,47,142276,5,8,0:0:0:0:
255,71,142349,1,0,0:0:0:0:
231,88,142422,1,2,0:0:0:0:
202,98,142495,1,0,0:0:0:0:
172,98,142568,1,0,0:0:0:0:
144,90,142641,1,0,0:0:0:0:
118,74,142715,5,2,0:0:0:0:
122,107,142788,1,0,0:0:0:0:
127,140,142861,1,8,0:0:0:0:
132,174,142934,1,0,0:0:0:0:
137,207,143007,5,10,0:0:0:0:
168,194,143080,1,0,0:0:0:0:
201,201,143153,1,0,0:0:0:0:
224,225,143226,1,0,0:0:0:0:
230,257,143299,1,10,0:0:0:0:
216,288,143372,1,0,0:0:0:0:
188,305,143446,1,0,0:0:0:0:
155,304,143519,1,0,0:0:0:0:
128,285,143593,5,10,0:0:0:0:
167,281,143666,1,0,0:0:0:0:
206,276,143739,1,0,0:0:0:0:
246,272,143812,1,0,0:0:0:0:
285,268,143885,1,2,0:0:0:0:
324,264,143958,1,0,0:0:0:0:
363,260,144032,1,0,0:0:0:0:
402,256,144105,1,0,0:0:0:0:
441,252,144178,6,0,L|430:335,3,44.999998626709,6|0|8|0,0:0|0:0|0:0|0:0,0:0:0:0:
360,383,144471,2,0,L|355:339,3,44.999998626709,0|0|8|0,0:0|0:0|0:0|0:0,0:0:0:0:
279,251,144763,2,0,L|273:295,3,44.999998626709,2|0|8|0,0:0|0:0|0:0|0:0,0:0:0:0:
207,356,145056,1,0,0:0:0:0:
186,364,145129,1,0,0:0:0:0:
163,366,145202,1,8,0:0:0:0:
141,361,145275,1,0,0:0:0:0:
122,350,145349,6,0,L|54:362,3,44.999998626709,4|0|8|0,1:2|0:0|0:0|0:0,0:0:0:0:
168,272,145642,2,0,L|236:284,3,44.999998626709,0|0|8|0,0:0|0:0|0:0|0:0,0:0:0:0:
122,194,145934,2,0,L|54:206,3,44.999998626709,2|0|8|0,0:0|0:0|0:0|0:0,0:0:0:0:
168,116,146227,1,0,0:0:0:0:
190,119,146300,1,0,0:0:0:0:
212,123,146373,1,8,0:0:0:0:
234,127,146446,1,0,0:0:0:0:
256,131,146520,6,0,L|385:108,1,89.9999972534181,4|8,1:2|0:0,0:0:0:0:
256,48,146812,1,0,0:0:0:0:
256,214,146959,2,0,L|385:191,1,89.9999972534181,8|2,0:0|0:0,0:0:0:0:
168,116,147251,1,8,0:0:0:0:
168,272,147398,1,0,0:0:0:0:
191,296,147471,1,0,0:0:0:0:
221,311,147544,1,8,0:0:0:0:
254,317,147617,1,0,0:0:0:0:
287,313,147690,6,0,L|416:290,1,89.9999972534181,4|8,1:2|0:0,0:0:0:0:
256,214,147983,1,0,0:0:0:0:
198,384,148129,2,0,L|68:361,1,89.9999972534181,8|2,0:0|0:0,0:0:0:0:
168,272,148422,1,8,0:0:0:0:
314,384,148568,1,0,0:0:0:0:
347,378,148641,1,0,0:0:0:0:
380,372,148714,1,2,0:0:0:0:
413,366,148787,1,0,0:0:0:0:
446,360,148861,6,0,L|490:369,3,44.999998626709,4|0|8|0,1:2|0:0|0:0|0:0,0:0:0:0:
435,270,149154,1,0,0:0:0:0:
362,325,149300,2,0,L|317:334,3,44.999998626709,8|0|2|0,0:0|0:0|0:0|0:0,0:0:0:0:
423,179,149593,1,8,0:0:0:0:
349,234,149739,1,0,0:0:0:0:
315,232,149812,1,0,0:0:0:0:
285,217,149885,1,8,0:0:0:0:
261,193,149958,1,0,0:0:0:0:
249,162,150032,6,0,L|259:118,3,44.999998626709,4|0|8|0,1:2|0:0|0:0|0:0,0:0:0:0:
172,230,150324,2,0,L|162:187,3,44.999998626709,0|0|8|0,0:0|0:0|0:0|0:0,0:0:0:0:
247,303,150617,1,4,1:2:0:0:
269,305,150690,1,0,0:0:0:0:
291,308,150763,1,8,0:0:0:0:
313,311,150836,1,0,0:0:0:0:
336,334,150910,1,0,0:0:0:0:
358,331,150983,1,0,0:0:0:0:
380,328,151056,1,8,0:0:0:0:
402,325,151129,1,0,0:0:0:0:
425,322,151202,6,0,L|495:330,3,44.999998626709,4|0|0|0,1:2|0:0|0:0|0:0,0:0:0:0:
509,245,151495,1,2,0:0:0:0:
402,245,151642,2,0,L|332:255,3,44.999998626709,8|0|0|0,0:0|0:0|0:0|0:0,0:0:0:0:
318,168,151934,1,2,0:0:0:0:
425,168,152081,1,8,0:0:0:0:
452,149,152154,1,0,0:0:0:0:
468,119,152227,1,0,0:0:0:0:
468,86,152300,1,0,0:0:0:0:
452,56,152373,6,0,L|385:39,3,44.999998626709,4|0|8|0,1:2|0:0|0:0|0:0,0:0:0:0:
283,80,152666,2,0,L|339:80,3,44.999998626709,0|0|8|0,0:0|0:0|0:0|0:0,0:0:0:0:
202,44,152959,5,2,0:0:0:0:
176,59,153032,1,0,0:0:0:0:
157,82,153105,1,8,0:0:0:0:
148,110,153178,1,0,0:0:0:0:
148,140,153251,1,0,0:0:0:0:
159,168,153324,1,0,0:0:0:0:
179,191,153398,1,0,0:0:0:0:
197,213,153471,1,0,0:0:0:0:
204,241,153544,6,0,L|97:257,1,89.9999972534181,4|8,1:2|0:0,0:0:0:0:
318,168,153837,2,0,L|425:184,1,89.9999972534181,0|8,0:0|0:0,0:0:0:0:
202,44,154129,2,0,L|95:60,1,89.9999972534181,2|8,0:0|0:0,0:0:0:0:
24,119,154422,1,0,0:0:0:0:
47,118,154495,1,0,0:0:0:0:
69,122,154568,1,8,0:0:0:0:
89,132,154641,1,0,0:0:0:0:
105,147,154715,6,0,L|149:140,3,44.999998626709,2|0|0|0,0:0|0:0|0:0|0:0,0:0:0:0:
102,264,155007,2,0,L|57:257,3,44.999998626709,2|0|0|0,0:0|0:0|0:0|0:0,0:0:0:0:
13,367,155300,1,8,0:0:0:0:
38,358,155373,1,0,0:0:0:0:
66,353,155446,1,0,0:0:0:0:
96,354,155519,1,0,0:0:0:0:
124,361,155592,1,8,0:0:0:0:
151,368,155665,1,0,0:0:0:0:
179,370,155739,1,0,0:0:0:0:
207,367,155812,1,0,0:0:0:0:
235,358,155885,5,4,0:2:0:0:
216,327,155958,1,0,0:0:0:0:
211,291,156031,1,8,0:0:0:0:
225,259,156104,1,0,0:0:0:0:
250,234,156177,1,0,0:0:0:0:
285,225,156250,1,0,0:0:0:0:
319,232,156324,1,8,0:0:0:0:
347,253,156397,1,0,0:0:0:0:
361,285,156471,5,2,0:0:0:0:
358,320,156544,1,0,0:0:0:0:
370,353,156617,1,8,0:0:0:0:
397,376,156690,1,0,0:0:0:0:
431,384,156763,1,2,0:0:0:0:
466,377,156836,1,0,0:0:0:0:
492,352,156910,1,8,0:0:0:0:
504,319,156983,1,0,0:0:0:0:
499,285,157056,5,2,0:0:0:0:
487,251,157129,1,0,0:0:0:0:
479,217,157202,1,8,0:0:0:0:
479,181,157275,1,8,0:0:0:0:
488,147,157348,1,8,0:0:0:0:
497,112,157421,1,0,0:0:0:0:
498,77,157495,1,8,0:0:0:0:
492,41,157568,1,0,0:0:0:0:
479,9,157641,5,0,1:0:0:0:
310,72,157788,1,0,1:0:0:0:
388,169,157934,1,2,0:0:0:0:
394,40,158081,1,2,0:0:0:0:
261,184,158227,6,0,P|175:193|119:128,1,179.999994506836,4|0,0:2|0:0,0:0:0:0:
209,110,158812,2,0,L|160:232,1,119.999996337891,4|0,0:2|0:0,0:0:0:0:
134,294,159251,1,0,0:0:0:0:
134,294,159398,6,0,P|192:243|297:283,1,179.999994506836,8|0,0:0|0:0,0:0:0:0:
364,284,159983,2,0,P|279:268|218:328,1,179.999994506836,8|0,0:0|0:0,0:0:0:0:
307,356,160568,6,0,L|384:379,1,44.999998626709,2|0,0:0|0:0,0:0:0:0:
462,311,160715,2,0,L|406:369,1,44.999998626709,2|0,0:0|0:0,0:0:0:0:
284,267,160861,6,0,L|364:269,1,44.999998626709,2|0,0:0|0:0,0:0:0:0:
437,222,161007,2,0,L|368:264,1,44.999998626709,2|0,0:0|0:0,0:0:0:0:
238,186,161154,6,0,L|292:170,1,44.999998626709,2|0,0:0|0:0,0:0:0:0:
436,128,161300,2,0,L|373:146,1,44.999998626709,2|0,0:0|0:0,0:0:0:0:
173,120,161446,6,0,L|243:81,1,44.999998626709,2|0,0:0|0:0,0:0:0:0:
459,38,161593,2,0,L|378:40,1,44.999998626709,2|0,0:0|0:0,0:0:0:0:
93,73,161739,5,8,0:1:0:0:
462,311,162032,1,8,0:1:0:0:
53,346,162324,5,8,0:0:0:0:
459,38,162617,1,8,0:0:0:0:
148,209,162910,5,4,0:2:0:0:
173,120,163056,1,8,0:0:0:0:
173,120,163129,1,0,0:0:0:0:
173,119,163202,2,0,P|211:97|255:95,1,89.9999972534181,0|8,0:0|0:0,0:0:0:0:
328,203,163495,1,0,0:0:0:0:
345,113,163642,1,8,0:0:0:0:
238,186,163788,1,0,0:0:0:0:
314,26,163934,1,8,0:0:0:0:
268,272,164081,5,2,2:3:0:0:
286,284,164154,1,2,2:3:0:0:
307,292,164227,1,8,2:3:0:0:
329,294,164300,1,0,2:3:0:0:
352,291,164373,1,0,2:3:0:0:
414,172,164520,1,8,0:0:0:0:
238,186,164666,1,0,0:0:0:0:
345,113,164812,1,8,0:0:0:0:
328,203,164959,1,0,0:0:0:0:
255,95,165105,1,8,0:0:0:0:
268,272,165251,5,2,2:3:0:0:
263,294,165324,1,2,2:3:0:0:
259,316,165397,1,8,2:3:0:0:
255,338,165470,1,0,2:3:0:0:
251,360,165543,1,0,2:3:0:0:
183,302,165690,1,8,0:0:0:0:
337,331,165837,1,0,0:0:0:0:
238,186,165983,1,8,0:0:0:0:
251,360,166129,1,0,0:0:0:0:
328,203,166276,1,8,0:0:0:0:
115,244,166422,5,0,2:3:0:0:
112,254,166495,1,0,2:3:0:0:
110,265,166568,1,8,2:3:0:0:
107,276,166641,1,0,2:3:0:0:
83,287,166715,5,0,2:3:0:0:
86,304,166788,1,0,2:3:0:0:
90,322,166861,1,8,2:3:0:0:
94,339,166934,1,0,2:3:0:0:
98,357,167007,5,2,0:0:0:0:
129,346,167080,1,0,0:0:0:0:
163,341,167153,1,8,0:0:0:0:
196,345,167226,1,0,0:0:0:0:
228,357,167299,1,2,0:0:0:0:
259,369,167372,1,0,0:0:0:0:
293,373,167446,1,0,0:0:0:0:
326,369,167519,1,0,0:0:0:0:
358,358,167592,5,4,1:2:0:0:
379,271,167739,1,8,0:0:0:0:
379,271,167812,1,0,0:0:0:0:
379,271,167885,2,0,L|474:254,1,89.9999972534181,0|8,0:0|0:0,0:0:0:0:
419,95,168178,1,0,0:0:0:0:
487,167,168325,1,8,0:0:0:0:
507,79,168471,1,0,0:0:0:0:
399,183,168617,1,8,0:0:0:0:
439,7,168763,5,2,2:3:0:0:
405,4,168836,1,2,2:3:0:0:
373,15,168909,1,8,2:3:0:0:
348,37,168982,1,0,2:3:0:0:
333,67,169055,1,0,2:3:0:0:
399,183,169202,1,8,0:0:0:0:
218,132,169349,1,0,0:0:0:0:
283,248,169495,1,8,0:0:0:0:
308,157,169642,1,0,0:0:0:0:
191,271,169788,1,8,0:0:0:0:
348,316,169934,5,4,1:2:0:0:
218,180,170081,1,8,0:0:0:0:
218,180,170154,1,0,0:0:0:0:
218,180,170227,1,0,0:0:0:0:
256,339,170373,1,8,0:0:0:0:
308,157,170520,1,2,2:3:0:0:
314,141,170593,1,0,2:3:0:0:
322,126,170666,1,8,2:3:0:0:
334,114,170739,1,0,2:3:0:0:
347,103,170812,1,8,2:3:0:0:
361,95,170885,1,0,0:0:0:0:
377,89,170959,1,0,0:0:0:0:
394,86,171032,1,0,0:0:0:0:
411,86,171105,6,0,L|399:42,1,44.999998626709,2|0,0:0|0:0,0:0:0:0:
456,185,171251,2,0,L|468:142,1,44.999998626709,2|0,0:0|0:0,0:0:0:0:
410,284,171398,2,0,L|398:240,1,44.999998626709,2|0,0:0|0:0,0:0:0:0:
456,382,171544,2,0,L|467:338,1,44.999998626709,2|0,0:0|0:0,0:0:0:0:
320,113,171690,6,0,L|300:184,1,44.999998626709,8|0,0:0|0:0,0:0:0:0:
161,384,171837,2,0,L|181:313,1,44.999998626709,8|0,0:0|0:0,0:0:0:0:
217,0,171983,2,0,L|244:97,1,89.9999972534181,8|0,0:1|0:0,0:0:0:0:
331,299,172276,5,2,0:0:0:0:
338,249,172349,1,0,0:0:0:0:
373,213,172422,1,2,0:0:0:0:
424,204,172495,1,0,0:0:0:0:
468,226,172568,1,2,0:0:0:0:
492,272,172641,1,0,0:0:0:0:
485,321,172715,1,2,0:0:0:0:
449,357,172788,1,0,0:0:0:0:
400,365,172861,5,8,0:0:0:0:
351,349,172934,1,0,0:0:0:0:
300,340,173007,1,8,0:0:0:0:
250,340,173080,1,0,0:0:0:0:
199,349,173153,1,8,0:0:0:0:
151,367,173226,1,0,0:0:0:0:
101,357,173300,1,8,0:0:0:0:
65,322,173373,1,0,0:0:0:0:
57,272,173446,5,0,0:0:0:0:
77,225,173519,1,0,0:0:0:0:
120,198,173592,1,2,0:0:0:0:
171,201,173665,1,0,0:0:0:0:
220,216,173739,1,2,0:0:0:0:
269,207,173812,1,0,0:0:0:0:
310,176,173885,1,2,0:0:0:0:
332,129,173958,1,0,0:0:0:0:
331,79,174031,5,8,0:0:0:0:
307,34,174105,1,0,0:0:0:0:
265,4,174178,1,8,0:0:0:0:
214,0,174251,1,0,0:0:0:0:
168,21,174324,1,8,0:0:0:0:
136,59,174397,1,0,0:0:0:0:
125,110,174470,1,8,0:0:0:0:
137,160,174544,1,0,0:0:0:0:
171,201,174617,5,2,0:0:0:0:
194,156,174690,1,0,0:0:0:0:
241,136,174763,1,2,0:0:0:0:
289,150,174836,1,0,0:0:0:0:
318,191,174909,1,2,0:0:0:0:
316,241,174982,1,0,0:0:0:0:
280,278,175056,1,2,0:0:0:0:
231,286,175129,1,0,0:0:0:0:
179,278,175202,5,8,0:0:0:0:
131,259,175275,1,0,0:0:0:0:
81,256,175348,1,8,0:0:0:0:
32,273,175422,1,0,0:0:0:0:
7,315,175495,1,8,0:0:0:0:
21,363,175568,1,0,0:0:0:0:
69,382,175641,1,8,0:0:0:0:
112,357,175715,1,0,0:0:0:0:
126,309,175788,5,2,0:0:0:0:
124,257,175861,1,0,0:0:0:0:
107,209,175934,1,2,0:0:0:0:
76,168,176007,1,0,0:0:0:0:
35,137,176081,1,2,0:0:0:0:
13,92,176154,1,0,0:0:0:0:
33,46,176227,1,2,0:0:0:0:
80,31,176300,1,0,0:0:0:0:
124,55,176373,6,0,B|182:87|236:50|236:50|273:72|273:72|315:19|401:56,1,269.999991760254,4|0,0:0|0:0,0:0:0:0:
459,354,176959,5,2,0:0:0:0:
406,322,177032,1,0,0:0:0:0:
347,310,177105,1,2,0:0:0:0:
286,318,177178,1,0,0:0:0:0:
233,347,177251,5,2,0:0:0:0:
177,366,177324,1,0,0:0:0:0:
118,353,177397,1,2,0:0:0:0:
75,311,177470,1,0,0:0:0:0:
61,252,177543,5,8,0:0:0:0:
79,195,177616,1,0,0:0:0:0:
125,157,177690,1,8,0:0:0:0:
185,148,177763,1,0,0:0:0:0:
242,169,177836,5,8,0:0:0:0:
287,209,177910,1,0,0:0:0:0:
346,218,177983,1,8,0:0:0:0:
404,201,178056,1,0,0:0:0:0:
448,158,178129,5,2,0:0:0:0:
454,97,178202,1,0,0:0:0:0:
427,44,178275,1,2,0:0:0:0:
374,16,178348,1,0,0:0:0:0:
314,21,178421,5,2,0:0:0:0:
266,60,178495,1,0,0:0:0:0:
245,116,178568,1,2,0:0:0:0:
261,174,178642,1,0,0:0:0:0:
251,233,178715,5,8,0:0:0:0:
210,278,178788,1,0,0:0:0:0:
154,302,178861,1,8,0:0:0:0:
95,286,178934,1,0,0:0:0:0:
60,236,179007,5,12,0:0:0:0:
352,122,179300,5,8,2:3:0:0:
389,119,179373,1,0,2:3:0:0:
425,129,179446,1,0,2:3:0:0:
456,150,179519,1,0,0:0:0:0:
478,180,179592,1,0,0:0:0:0:
385,219,179739,5,8,2:3:0:0:
355,217,179812,1,0,2:3:0:0:
327,225,179885,1,0,2:3:0:0:
302,241,179958,1,0,0:0:0:0:
285,265,180031,1,0,0:0:0:0:
462,280,180178,5,8,2:3:0:0:
153,112,180324,1,8,2:3:0:0:
153,112,180617,5,8,0:0:0:0:
59,147,180763,1,8,0:0:0:0:
17,238,180910,1,8,0:0:0:0:
52,331,181056,1,8,0:0:0:0:
143,373,181202,1,8,0:0:0:0:
237,338,181349,1,4,0:0:0:0:
279,247,181495,1,8,0:0:0:0:
243,152,181642,6,0,P|188:202|181:275,2,134.999995880127,4|0|0,0:2|0:0|0:0,0:0:0:0:
343,169,182812,2,0,P|363:303|233:336,1,269.999991760254,4|0,0:0|0:0,0:0:0:0:
147,238,183983,6,0,B|189:228|189:228|279:247,2,134.999995880127,4|0|0,0:2|0:0|0:0,0:0:0:0:
278,167,185154,1,4,0:0:0:0:
194,307,185446,5,8,0:3:0:0:
147,238,185593,1,8,0:3:0:0:
125,354,185739,1,4,0:3:0:0:
318,307,186032,5,8,0:3:0:0:
365,238,186179,1,8,0:3:0:0:
387,354,186324,6,0,P|429:368|508:322,2,134.999995880127,4|0|0,0:2|0:0|0:0,0:0:0:0:
281,231,187495,6,0,P|247:261|247:352,2,134.999995880127,4|0|0,0:2|0:0|0:0,0:0:0:0:
437,243,188666,6,0,L|318:307,2,134.999995880127,4|0|0,0:2|0:0|0:0,0:0:0:0:
441,159,189690,1,8,0:3:0:0:
444,74,189837,6,0,L|520:34,1,59.9999981689454,4|0,0:0|0:0,0:0:0:0:
367,114,190129,2,0,L|294:67,1,59.9999981689454,8|8,0:0|0:0,0:0:0:0:
243,30,190422,1,0,1:0:0:0:
239,44,190495,1,0,1:0:0:0:
232,58,190568,1,0,1:0:0:0:
224,70,190641,1,0,1:0:0:0:
214,81,190715,2,0,L|138:91,1,59.9999981689454,4|0,0:2|0:0,0:0:0:0:
52,155,191007,6,0,P|91:154|127:172,1,80,4|0,0:0|0:0,0:0:0:0:
158,254,191300,1,8,0:0:0:0:
289,190,191446,2,0,P|251:178|212:185,1,80,0|0,1:0|0:0,0:0:0:0:
71,241,191739,1,2,0:0:0:0:
245,267,191885,2,0,L|343:256,1,80,8|0,0:0|0:0,0:0:0:0:
401,107,192178,6,0,L|369:181,1,80,4|0,0:2|0:0,0:0:0:0:
468,327,192471,1,8,0:0:0:0:
415,255,192617,1,0,1:0:0:0:
289,345,192763,1,0,1:0:0:0:
378,336,192909,1,2,0:0:0:0:
201,189,193056,2,0,P|172:216|157:253,1,80,8|0,0:0|0:0,0:0:0:0:
86,97,193349,6,0,L|166:107,1,80,4|0,0:2|0:0,0:0:0:0:
219,36,193642,1,8,0:0:0:0:
54,23,193788,2,0,P|26:45|7:103,1,80,0|0,1:0|0:0,0:0:0:0:
136,29,194081,1,2,0:0:0:0:
262,107,194227,2,0,L|341:97,1,80,8|0,0:0|0:0,0:0:0:0:
219,36,194520,5,2,0:0:0:0:
86,97,194666,1,0,0:0:0:0:
262,107,194812,1,8,0:0:0:0:
129,168,194958,1,8,0:0:0:0:
304,177,195105,1,0,1:0:0:0:
171,238,195251,1,0,1:0:0:0:
346,247,195398,1,4,0:2:0:0:
213,308,195544,1,0,0:0:0:0:
388,317,195690,6,0,P|422:277|425:221,1,85.0000016212464,4|0,0:2|0:0,0:0:0:0:
304,177,195983,1,8,0:0:0:0:
213,308,196129,2,0,L|297:312,1,85.0000016212464,0|0,1:0|0:0,0:0:0:0:
346,247,196422,1,2,0:0:0:0:
171,237,196568,2,0,P|143:269|133:310,1,85.0000016212464,8|0,0:0|0:0,0:0:0:0:
215,72,196861,6,0,L|299:76,1,85.0000016212464,4|0,0:2|0:0,0:0:0:0:
131,68,197154,1,8,0:0:0:0:
209,218,197300,2,0,L|247:292,1,85.0000016212464,0|0,1:0|0:0,0:0:0:0:
170,143,197593,1,2,0:0:0:0:
79,285,197739,2,0,L|33:355,1,85.0000016212464,8|0,0:0|0:0,0:0:0:0:
42,211,198032,6,0,P|83:202|123:213,1,85.0000016212464,4|0,0:2|0:0,0:0:0:0:
254,146,198324,1,8,0:0:0:0:
131,68,198471,2,0,L|176:156,1,85.0000016212464,0|0,1:0|0:0,0:0:0:0:
293,220,198763,1,2,0:0:0:0:
381,78,198910,2,0,P|332:64|294:77,1,85.0000016212464,8|0,0:0|0:0,0:0:0:0:
249,291,199202,5,4,0:0:0:0:
337,149,199349,1,0,0:0:0:0:
131,68,199495,1,8,0:0:0:0:
293,220,199642,1,0,0:0:0:0:
343,3,199788,5,8,0:0:0:0:
323,28,199861,1,0,0:0:0:0:
313,58,199934,1,8,0:0:0:0:
311,89,200007,1,0,0:0:0:0:
318,120,200080,1,8,0:0:0:0:
337,149,200154,1,0,0:0:0:0:
358,171,200227,1,0,1:0:0:0:
387,183,200300,1,0,1:0:0:0:
418,188,200373,5,2,0:0:0:0:
293,219,200520,2,0,L|194:244,1,85.0000016212464,4|0,0:2|0:0,0:0:0:0:
81,138,200812,2,0,L|164:159,1,85.0000016212464,4|0,0:2|0:0,0:0:0:0:
323,28,201105,1,2,0:0:0:0:
271,140,201251,1,8,0:0:0:0:
271,140,201324,1,0,0:0:0:0:
271,140,201398,1,0,0:0:0:0:
240,48,201544,5,2,0:0:0:0:
343,110,201690,2,0,L|440:88,1,85.0000016212464,4|0,0:2|0:0,0:0:0:0:
293,219,201983,2,0,L|390:197,1,85.0000016212464,4|0,0:2|0:0,0:0:0:0:
177,150,202276,1,2,0:0:0:0:
114,253,202422,1,8,0:0:0:0:
114,253,202495,1,0,0:0:0:0:
114,253,202568,1,8,0:0:0:0:
117,88,202715,5,2,0:0:0:0:
197,233,202861,2,0,P|193:281|163:321,1,85.0000016212464,4|0,0:2|0:0,0:0:0:0:
28,218,203154,2,0,P|50:182|88:164,1,85.0000016212464,4|0,0:2|0:0,0:0:0:0:
260,130,203446,1,2,0:0:0:0:
114,253,203593,1,8,0:0:0:0:
114,253,203666,1,0,0:0:0:0:
114,253,203739,1,0,0:0:0:0:
117,88,203885,5,2,0:0:0:0:
279,256,204032,1,0,0:0:0:0:
282,91,204178,1,8,0:0:0:0:
197,318,204324,1,0,0:0:0:0:
383,252,204471,1,0,1:0:0:0:
194,197,204617,1,0,1:0:0:0:
314,353,204763,1,8,0:0:0:0:
308,156,204909,1,0,0:0:0:0:
114,253,205056,5,2,0:0:0:0:
383,251,205202,2,0,L|493:251,1,85.0000016212464,4|0,0:2|0:0,0:0:0:0:
215,77,205495,2,0,L|105:77,1,85.0000016212464,4|0,0:2|0:0,0:0:0:0:
279,256,205788,1,2,0:0:0:0:
337,56,205934,1,8,0:0:0:0:
337,56,206007,1,0,0:0:0:0:
337,56,206081,1,8,0:0:0:0:
114,253,206227,5,2,0:0:0:0:
308,156,206373,2,0,L|418:156,1,85.0000016212464,4|0,0:2|0:0,0:0:0:0:
165,356,206666,2,0,L|80:356,1,85.0000016212464,4|0,0:2|0:0,0:0:0:0:
194,197,206959,1,2,0:0:0:0:
314,353,207105,1,8,0:0:0:0:
314,353,207178,1,0,0:0:0:0:
314,353,207251,1,8,0:0:0:0:
215,77,207398,5,2,0:0:0:0:
113,252,207544,2,0,P|144:282|184:294,1,85.0000016212464,4|0,0:2|0:0,0:0:0:0:
378,115,207837,2,0,P|337:126|307:155,1,85.0000016212464,4|0,0:2|0:0,0:0:0:0:
418,348,208129,1,2,0:0:0:0:
482,120,208276,1,8,0:0:0:0:
482,120,208349,1,0,0:0:0:0:
482,120,208422,1,8,0:0:0:0:
194,197,208568,5,2,0:0:0:0:
178,194,208641,1,0,0:0:0:0:
162,192,208714,1,8,0:0:0:0:
146,190,208787,1,8,0:0:0:0:
130,187,208860,1,8,0:0:0:0:
115,185,208933,1,0,0:0:0:0:
99,183,209007,1,8,0:0:0:0:
83,181,209080,1,0,0:0:0:0:
67,178,209154,5,2,0:0:0:0:
89,164,209227,1,0,0:0:0:0:
101,141,209300,1,8,0:0:0:0:
100,115,209373,1,8,0:0:0:0:
85,93,209446,1,8,0:0:0:0:
61,82,209519,1,0,0:0:0:0:
35,86,209593,1,8,0:0:0:0:
15,102,209666,1,0,0:0:0:0:
6,126,209739,5,2,0:0:0:0:
179,113,209885,2,0,L|295:131,1,89.9999972534181,4|0,0:2|0:0,0:0:0:0:
333,271,210178,2,0,L|216:252,1,89.9999972534181,4|0,0:2|0:0,0:0:0:0:
424,138,210471,1,2,0:0:0:0:
447,154,210544,1,0,0:0:0:0:
464,176,210617,1,8,0:0:0:0:
474,202,210690,1,0,0:0:0:0:
477,230,210763,1,8,0:0:0:0:
471,258,210836,1,0,0:0:0:0:
457,282,210910,5,2,0:0:0:0:
344,130,211056,2,0,L|353:28,1,89.9999972534181,4|0,0:2|0:0,0:0:0:0:
168,251,211349,2,0,L|177:353,1,89.9999972534181,4|0,0:2|0:0,0:0:0:0:
11,272,211642,1,2,0:0:0:0:
32,254,211715,1,0,0:0:0:0:
58,241,211788,1,8,0:0:0:0:
85,234,211861,1,0,0:0:0:0:
113,233,211934,1,8,0:0:0:0:
141,238,212007,1,0,0:0:0:0:
167,250,212081,5,2,0:0:0:0:
343,130,212227,2,0,P|299:126|259:143,1,89.9999972534181,4|0,0:2|0:0,0:0:0:0:
287,320,212520,2,0,P|331:324|371:307,1,89.9999972534181,4|0,0:2|0:0,0:0:0:0:
343,130,212812,1,2,0:0:0:0:
333,161,212885,1,0,0:0:0:0:
324,193,212958,1,8,0:0:0:0:
314,225,213031,1,0,0:0:0:0:
305,257,213104,1,8,0:0:0:0:
295,289,213177,1,0,0:0:0:0:
287,320,213251,5,2,0:0:0:0:
246,153,213398,1,8,0:0:0:0:
383,296,213544,1,0,0:0:0:0:
274,58,213690,1,8,0:0:0:0:
167,214,213837,1,2,0:0:0:0:
370,33,213983,1,8,0:0:0:0:
154,115,214129,1,2,0:0:0:0:
287,320,214276,1,8,0:0:0:0:
343,130,214422,5,2,0:0:0:0:
98,305,214568,2,0,L|-7:292,1,89.9999972534181,4|0,0:2|0:0,0:0:0:0:
154,115,214861,2,0,L|243:126,1,89.9999972534181,4|0,0:2|0:0,0:0:0:0:
389,217,215154,6,0,L|448:225,1,44.999998626709,2|0,3:0|3:0,3:0:0:0:
396,45,215300,2,0,L|372:-10,1,44.999998626709,8|0,0:0|0:0,0:0:0:0:
290,215,215446,2,0,L|253:263,1,44.999998626709,8|0,0:0|0:0,0:0:0:0:
112,29,215593,5,2,0:0:0:0:
343,130,215739,2,0,P|400:132|440:119,1,89.9999972534181,4|0,0:2|0:0,0:0:0:0:
136,225,216032,2,0,P|105:273|97:314,1,89.9999972534181,4|0,0:2|0:0,0:0:0:0:
216,153,216324,6,0,L|283:139,1,44.999998626709,2|0,0:0|0:0,0:0:0:0:
45,220,216471,2,0,L|-22:206,1,44.999998626709,8|0,0:0|0:0,0:0:0:0:
112,29,216617,2,0,L|179:15,1,44.999998626709,8|0,0:0|0:0,0:0:0:0:
290,215,216763,5,2,0:0:0:0:
322,207,216836,1,0,0:0:0:0:
351,190,216909,1,8,0:0:0:0:
375,166,216982,1,0,0:0:0:0:
391,136,217055,1,0,0:0:0:0:
398,103,217128,1,0,0:0:0:0:
395,70,217202,1,8,0:0:0:0:
384,38,217275,1,0,0:0:0:0:
364,11,217348,5,2,0:0:0:0:
366,39,217422,1,0,0:0:0:0:
368,67,217495,1,8,0:0:0:0:
371,95,217568,1,0,0:0:0:0:
373,123,217641,1,0,0:0:0:0:
376,151,217714,1,0,0:0:0:0:
378,179,217788,1,8,0:0:0:0:
381,207,217861,1,0,0:0:0:0:
383,235,217934,5,2,0:0:0:0:
210,144,218081,2,0,P|166:139|104:162,1,89.9999972534181,8|0,0:0|0:0,0:0:0:0:
218,341,218373,1,8,0:0:0:0:
296,189,218520,1,2,0:0:0:0:
316,162,218593,1,0,0:0:0:0:
344,143,218666,1,0,0:0:0:0:
377,136,218739,1,0,0:0:0:0:
410,139,218812,1,2,0:0:0:0:
440,153,218885,1,0,0:0:0:0:
464,177,218959,1,0,0:0:0:0:
479,207,219032,1,0,0:0:0:0:
483,240,219105,5,8,0:1:0:0:
383,235,219251,1,0,0:0:0:0:
427,384,219398,1,8,0:0:0:0:
509,336,219544,1,0,0:0:0:0:
349,320,219690,2,0,P|298:314|221:331,1,89.9999972534181,2|0,0:0|0:0,0:0:0:0:
85,263,219983,2,0,P|130:269|175:265,1,89.9999972534181,8|0,0:0|0:0,0:0:0:0:
258,104,220276,5,8,0:1:0:0:
217,185,220422,1,0,0:0:0:0:
356,256,220568,1,8,0:0:0:0:
307,180,220715,1,0,0:0:0:0:
176,264,220861,1,2,0:0:0:0:
266,260,221008,1,0,0:0:0:0:
127,190,221154,2,0,P|96:226|93:292,1,89.9999972534181,8|0,0:0|0:0,0:0:0:0:
78,113,221446,6,0,L|168:109,1,89.9999972534181,8|0,0:1|0:0,0:0:0:0:
307,180,221739,2,0,L|396:175,1,89.9999972534181
296,27,222032,1,8,0:1:0:0:
279,41,222105,1,0,0:0:0:0:
266,60,222178,1,0,0:0:0:0:
258,81,222251,1,0,0:0:0:0:
257,103,222324,1,0,0:0:0:0:
345,101,222471,1,0,0:0:0:0:
188,20,222617,6,0,L|98:24,1,89.9999972534181,2|0,0:0|0:0,0:0:0:0:
127,190,222910,2,0,P|166:135|168:94,1,89.9999972534181,8|0,0:0|0:0,0:0:0:0:
37,195,223202,1,2,0:0:0:0:
176,265,223349,1,2,0:0:0:0:
78,113,223495,1,8,0:0:0:0:
0,276,223642,1,0,0:0:0:0:
217,185,223788,5,8,0:1:0:0:
189,353,223934,1,0,0:0:0:0:
114,200,224081,1,8,0:0:0:0:
264,279,224227,1,0,0:0:0:0:
96,304,224373,2,0,L|-17:292,1,89.9999972534181,2|0,0:0|0:0,0:0:0:0:
321,191,224666,2,0,L|434:179,1,89.9999972534181,8|0,0:0|0:0,0:0:0:0:
153,104,224959,5,8,0:1:0:0:
264,279,225105,1,0,0:0:0:0:
337,96,225251,1,8,0:0:0:0:
114,200,225398,1,0,0:0:0:0:
311,373,225544,1,2,0:0:0:0:
217,185,225690,1,0,0:0:0:0:
42,376,225837,2,0,L|155:364,1,89.9999972534181,8|0,0:0|0:0,0:0:0:0:
11,215,226129,5,4,0:2:0:0:
18,241,226202,1,0,0:0:0:0:
33,265,226275,1,0,0:0:0:0:
53,285,226348,1,0,0:0:0:0:
78,298,226421,1,8,0:0:0:0:
114,200,226568,1,4,1:2:0:0:
113,171,226641,1,0,0:0:0:0:
121,144,226714,1,0,0:0:0:0:
135,119,226787,1,0,0:0:0:0:
157,100,226860,1,8,0:0:0:0:
264,279,227007,1,4,1:2:0:0:
337,96,227153,1,0,0:0:0:0:
158,278,227300,6,0,L|107:292,1,44.999998626709,2|0,0:0|0:0,0:0:0:0:
387,191,227446,2,0,L|438:205,1,44.999998626709,2|0,0:0|0:0,0:0:0:0:
157,100,227593,2,0,L|106:114,1,44.999998626709,8|0,0:0|0:0,0:0:0:0:
387,9,227739,2,0,L|438:23,1,44.999998626709,8|0,0:0|0:0,0:0:0:0:
286,177,227885,5,2,0:0:0:0:
281,202,227958,1,0,0:0:0:0:
275,227,228031,1,0,0:0:0:0:
270,252,228104,1,0,0:0:0:0:
264,279,228178,5,4,0:2:0:0:
289,269,228251,1,0,0:0:0:0:
316,267,228324,1,0,0:0:0:0:
342,273,228397,1,0,0:0:0:0:
368,286,228471,5,2,0:0:0:0:
402,267,228544,1,0,0:0:0:0:
430,239,228617,1,8,0:0:0:0:
450,206,228690,1,0,0:0:0:0:
460,168,228763,1,0,0:0:0:0:
459,128,228836,1,0,0:0:0:0:
448,91,228910,1,8,0:0:0:0:
427,58,228983,1,0,0:0:0:0:
398,31,229056,5,2,0:0:0:0:
337,169,229202,1,8,0:0:0:0:
321,9,229349,1,2,0:0:0:0:
237,147,229495,1,8,0:0:0:0:
160,4,229642,5,0,1:0:0:0:
167,222,229788,1,8,0:0:0:0:
238,54,229934,1,2,0:0:0:0:
88,173,230081,2,0,P|75:224|97:281,1,89.9999972534181,4|0,0:2|0:0,0:0:0:0:
119,355,230373,1,8,0:0:0:0:
139,333,230446,1,0,0:0:0:0:
164,317,230519,1,0,0:0:0:0:
193,307,230592,1,0,0:0:0:0:
222,304,230665,1,8,0:0:0:0:
252,308,230738,1,0,0:0:0:0:
279,317,230812,6,0,L|344:309,1,44.999998626709,4|8,0:2|0:0,0:0:0:0:
167,222,230959,2,0,L|102:214,1,44.999998626709,4|8,0:2|0:0,0:0:0:0:
238,54,231105,1,2,0:0:0:0:
237,147,231251,1,8,0:0:0:0:
207,141,231324,1,0,0:0:0:0:
181,126,231397,1,2,0:0:0:0:
161,104,231470,1,0,0:0:0:0:
148,77,231543,1,8,0:0:0:0:
145,48,231616,1,0,0:0:0:0:
152,18,231690,1,2,0:0:0:0:
329,40,231837,1,8,0:0:0:0:
218,220,231983,5,4,0:2:0:0:
195,217,232056,1,0,0:0:0:0:
173,215,232129,1,8,0:0:0:0:
150,212,232202,1,8,0:0:0:0:
128,210,232275,1,8,0:0:0:0:
106,208,232348,1,0,0:0:0:0:
83,205,232422,1,8,0:0:0:0:
61,203,232495,1,0,0:0:0:0:
39,201,232568,5,2,0:0:0:0:
61,225,232641,1,0,0:0:0:0:
75,256,232714,1,0,0:0:0:0:
78,290,232787,1,0,0:0:0:0:
71,322,232861,2,0,L|160:332,1,89.9999972534181,2|0,0:0|0:0,0:0:0:0:
201,76,233154,6,0,P|129:123|127:209,1,179.999994506836,4|0,0:0|0:0,0:0:0:0:
51,79,233593,1,8,0:0:0:0:
208,168,233739,1,2,0:0:0:0:
237,183,233812,1,0,0:0:0:0:
271,187,233885,1,0,0:0:0:0:
303,179,233958,1,0,0:0:0:0:
331,160,234032,1,2,0:0:0:0:
350,132,234105,1,0,0:0:0:0:
378,113,234178,1,0,0:0:0:0:
410,105,234251,1,0,0:0:0:0:
443,108,234324,5,2,0:0:0:0:
469,129,234397,1,0,0:0:0:0:
483,160,234470,1,8,0:0:0:0:
483,193,234543,1,0,0:0:0:0:
467,223,234616,1,2,0:0:0:0:
440,243,234689,1,8,0:0:0:0:
408,249,234763,1,8,0:0:0:0:
374,253,234836,1,0,0:0:0:0:
343,265,234909,1,2,0:0:0:0:
316,286,234982,1,0,0:0:0:0:
296,312,235055,1,2,0:0:0:0:
283,343,235129,1,0,0:0:0:0:
258,366,235202,1,0,0:0:0:0:
226,380,235275,1,0,0:0:0:0:
193,384,235349,1,8,0:0:0:0:
162,376,235422,1,0,0:0:0:0:
137,354,235495,5,8,0:0:0:0:
130,310,235568,1,0,0:0:0:0:
103,274,235641,1,8,0:0:0:0:
62,257,235714,1,0,0:0:0:0:
17,260,235787,1,0,0:0:0:0:
47,348,235934,1,8,0:0:0:0:
160,201,236081,5,8,0:0:0:0:
193,171,236154,1,0,0:0:0:0:
237,164,236227,1,0,0:0:0:0:
278,180,236300,1,0,0:0:0:0:
305,215,236373,1,8,0:0:0:0:
332,250,236446,1,0,0:0:0:0:
373,266,236519,1,0,0:0:0:0:
417,258,236592,1,0,0:0:0:0:
450,229,236666,5,2,0:0:0:0:
445,206,236739,1,0,0:0:0:0:
441,184,236812,1,0,0:0:0:0:
437,162,236885,1,0,0:0:0:0:
409,139,236959,5,2,0:0:0:0:
413,116,237032,1,0,0:0:0:0:
417,94,237105,1,0,0:0:0:0:
421,72,237178,1,0,0:0:0:0:
425,50,237251,5,2,0:0:0:0:
391,70,237324,1,0,0:0:0:0:
354,84,237397,1,8,0:0:0:0:
316,91,237470,1,0,0:0:0:0:
276,90,237543,1,0,0:0:0:0:
237,79,237616,1,0,0:0:0:0:
203,60,237690,1,8,0:0:0:0:
173,35,237763,1,0,0:0:0:0:
149,4,237836,5,4,1:2:0:0:
134,152,239885,1,0,0:0:0:0:
136,163,239958,1,0,0:0:0:0:
138,174,240031,1,0,0:0:0:0:
141,185,240104,1,0,0:0:0:0:
143,196,240178,5,4,1:2:0:0:
285,123,242081,2,0,L|350:89,1,44.999998626709,8|0,0:0|0:0,0:0:0:0:
348,186,242227,1,0,0:0:0:0:
344,208,242300,1,0,0:0:0:0:
341,230,242373,1,0,0:0:0:0:
338,252,242446,1,0,0:0:0:0:
335,275,242519,5,8,0:1:0:0:
164,186,243398,1,0,0:0:0:0:
167,208,243471,1,0,0:0:0:0:
170,230,243544,1,0,0:0:0:0:
173,252,243617,1,0,0:0:0:0:
176,275,243690,5,4,1:2:0:0:
0,313,244422,2,0,L|26:375,1,44.999998626709,8|0,0:0|0:0,0:0:0:0:
64,251,244568,1,0,0:0:0:0:
93,245,244641,1,0,0:0:0:0:
123,248,244714,1,0,0:0:0:0:
151,258,244787,1,0,0:0:0:0:
176,275,244861,6,0,L|296:288,1,89.9999972534181,4|0,0:2|0:0,0:0:0:0:
318,211,245154,1,2,0:0:0:0:
102,111,245300,2,0,L|150:221,1,89.9999972534181,8|0,0:0|0:0,0:0:0:0:
228,201,245593,1,2,0:0:0:0:
65,28,245739,2,0,P|28:57|10:114,1,89.9999972534181,8|0,0:0|0:0,0:0:0:0:
265,284,246032,5,2,0:0:0:0:
190,117,246178,1,2,0:0:0:0:
124,349,246324,1,8,0:0:0:0:
318,211,246471,1,2,0:0:0:0:
102,111,246617,1,2,0:0:0:0:
265,284,246763,1,2,0:0:0:0:
151,37,246910,1,8,0:0:0:0:
86,265,247056,1,2,0:0:0:0:
331,57,247202,6,0,L|463:70,1,89.9999972534181,4|0,0:0|0:0,0:0:0:0:
355,292,247495,1,8,0:0:0:0:
190,117,247642,2,0,P|149:153|139:208,1,89.9999972534181,2|0,0:0|0:0,0:0:0:0:
302,366,247934,1,2,0:0:0:0:
280,128,248081,1,8,0:0:0:0:
176,275,248227,1,2,0:0:0:0:
408,218,248373,6,0,L|540:231,1,89.9999972534181,4|0,1:2|0:0,0:0:0:0:
244,44,248666,1,8,0:0:0:0:
265,284,248812,2,0,P|280:346|317:375,1,89.9999972534181,2|0,0:0|0:0,0:0:0:0:
280,128,249105,1,2,0:0:0:0:
176,275,249251,1,8,0:0:0:0:
190,117,249398,1,0,0:0:0:0:
355,292,249544,6,0,P|410:309|464:292,1,89.9999972534181,4|0,1:2|0:0,0:0:0:0:
370,139,249837,1,0,0:0:0:0:
176,275,249983,2,0,L|43:261,1,89.9999972534181,2|0,0:0|0:0,0:0:0:0:
102,111,250276,1,2,0:0:0:0:
265,284,250422,1,8,0:0:0:0:
190,117,250568,1,0,0:0:0:0:
122,347,250715,5,4,1:2:0:0:
318,211,250861,1,0,0:0:0:0:
151,37,251007,1,8,0:0:0:0:
176,275,251154,1,0,0:0:0:0:
370,139,251300,1,2,0:0:0:0:
102,111,251446,1,2,0:0:0:0:
211,357,251593,2,0,P|252:374|296:369,1,89.9999972534181,8|0,0:0|0:0,0:0:0:0:
280,128,251885,5,2,0:0:0:0:
260,139,251958,1,0,0:0:0:0:
245,155,252031,1,0,0:0:0:0:
233,175,252104,1,0,0:0:0:0:
227,196,252177,1,8,0:0:0:0:
226,218,252250,1,0,0:0:0:0:
231,241,252324,5,2,0:0:0:0:
208,241,252397,1,0,0:0:0:0:
188,251,252470,1,0,0:0:0:0:
175,269,252543,1,0,0:0:0:0:
170,291,252616,1,8,0:0:0:0:
176,312,252689,1,0,0:0:0:0:
191,329,252763,5,2,0:0:0:0:
211,320,252836,1,0,0:0:0:0:
234,318,252909,1,8,0:0:0:0:
256,321,252982,1,0,0:0:0:0:
276,331,253056,5,2,0:0:0:0:
305,353,253129,1,0,0:0:0:0:
341,361,253202,1,0,0:0:0:0:
378,354,253276,1,0,0:0:0:0:
408,332,253348,1,8,0:0:0:0:
426,300,253421,1,0,0:0:0:0:
429,263,253495,5,2,0:0:0:0:
398,242,253568,1,0,0:0:0:0:
375,212,253641,1,0,0:0:0:0:
365,177,253714,1,0,0:0:0:0:
367,140,253787,1,8,0:0:0:0:
383,106,253860,1,0,0:0:0:0:
409,79,253934,5,2,0:0:0:0:
387,48,254007,1,0,0:0:0:0:
354,29,254080,1,8,0:0:0:0:
316,25,254153,1,0,0:0:0:0:
280,37,254227,5,2,0:0:0:0:
300,76,254300,1,0,0:0:0:0:
303,121,254373,1,0,0:0:0:0:
285,162,254446,1,0,0:0:0:0:
252,192,254520,1,2,0:0:0:0:
213,212,254593,1,0,0:0:0:0:
188,249,254666,1,8,0:0:0:0:
185,293,254739,1,0,0:0:0:0:
206,333,254812,5,2,0:0:0:0:
243,357,254885,1,0,0:0:0:0:
287,359,254959,1,0,0:0:0:0:
327,338,255032,1,2,0:0:0:0:
350,300,255105,1,2,0:0:0:0:
351,256,255178,1,0,0:0:0:0:
330,217,255251,1,8,0:0:0:0:
293,193,255324,1,0,0:0:0:0:
273,153,255397,5,0,0:0:0:0:
278,109,255470,1,0,0:0:0:0:
304,73,255543,1,0,0:0:0:0:
345,56,255616,1,0,0:0:0:0:
389,63,255690,1,2,0:0:0:0:
423,91,255763,1,0,0:0:0:0:
437,133,255836,1,8,0:0:0:0:
426,177,255910,1,0,0:0:0:0:
395,210,255983,5,2,0:0:0:0:
371,247,256056,1,0,0:0:0:0:
374,291,256129,1,0,0:0:0:0:
402,325,256202,1,2,0:0:0:0:
444,337,256275,1,2,0:0:0:0:
486,321,256348,1,0,0:0:0:0:
510,283,256422,1,8,0:0:0:0:
508,239,256495,1,2,0:0:0:0:
480,205,256568,5,2,0:0:0:0:
429,236,256641,1,0,0:0:0:0:
370,244,256714,1,8,0:0:0:0:
313,228,256787,1,8,0:0:0:0:
267,190,256861,1,2,0:0:0:0:
240,137,256934,1,0,0:0:0:0:
234,78,257007,1,8,0:0:0:0:
196,33,257080,1,0,0:0:0:0:
139,17,257153,5,2,0:0:0:0:
83,35,257226,1,0,0:0:0:0:
46,81,257299,1,8,0:0:0:0:
41,140,257373,1,8,0:0:0:0:
70,191,257446,1,2,0:0:0:0:
121,219,257519,1,0,0:0:0:0:
143,274,257592,1,8,0:0:0:0:
125,330,257665,1,0,0:0:0:0:
75,361,257739,5,2,0:0:0:0:
20,342,257812,1,0,0:0:0:0:
0,289,257885,1,10,0:0:0:0:
16,235,257958,1,8,0:0:0:0:
71,213,258031,1,2,0:0:0:0:
124,238,258105,1,0,0:0:0:0:
181,254,258178,1,8,0:1:0:0:
238,239,258251,1,0,0:0:0:0:
281,199,258324,5,0,0:0:0:0:
298,142,258397,1,0,0:0:0:0:
285,84,258470,1,8,0:0:0:0:
244,40,258544,1,8,0:0:0:0:
188,23,258617,2,0,P|124:45|83:129,1,119.999996337891,6|0,0:0|0:0,0:0:0:0:
246,359,258910,5,8,0:0:0:0:
317,343,258983,1,0,0:0:0:0:
354,282,259056,1,8,0:0:0:0:
335,213,259129,1,0,0:0:0:0:
271,176,259202,1,2,0:0:0:0:
200,202,259276,1,0,0:0:0:0:
134,171,259349,5,8,0:0:0:0:
106,105,259422,1,0,0:0:0:0:
136,39,259495,1,8,0:0:0:0:
204,14,259568,1,0,0:0:0:0:
274,39,259641,1,2,0:0:0:0:
347,40,259715,1,0,0:0:0:0:
412,11,259788,5,10,1:3:0:0:
454,69,259861,1,0,0:0:0:0:
451,140,259934,1,8,0:0:0:0:
415,204,260007,1,0,0:0:0:0:
450,271,260081,5,10,0:0:0:0:
432,340,260153,1,0,0:0:0:0:
369,377,260226,1,8,0:0:0:0:
300,361,260299,1,0,0:0:0:0:
259,302,260372,5,8,1:3:0:0:
264,228,260446,1,0,0:0:0:0:
225,164,260519,1,2,0:0:0:0:
157,138,260592,1,0,0:0:0:0:
86,156,260666,5,8,1:3:0:0:
43,216,260738,1,0,0:0:0:0:
40,290,260812,1,8,0:0:0:0:
83,350,260885,1,0,0:0:0:0:
153,372,260959,6,0,P|194:362|249:318,1,100,10|0,0:0|0:0,0:0:0:0:
317,256,261178,1,0,0:0:0:0:
317,256,261251,6,0,B|189:256|217:296|181:357|94:355|49:292|48:215|97:160|179:159|222:218|209:256,1,463.399994626099,4|0,0:0|0:0,0:0:0:0:
45,175,263593,6,0,P|128:124|223:143,1,198.599997696899,4|0,0:0|0:0,0:0:0:0:
383,47,264763,6,0,L|374:103,1,40
303,117,265056,1,8,0:0:0:0:
316,196,265202,1,8,0:0:0:0:
329,273,265349,6,0,L|320:329,1,50,4|0,0:2|0:0,0:0:0:0:
238,208,265642,1,8,0:0:0:0:
316,196,265788,1,8,0:0:0:0:
394,182,265934,6,0,L|529:158,1,129.999994049073,2|0,0:2|0:0,0:0:0:0:
456,295,266373,2,0,L|327:272,1,129.999994049073,2|0,0:2|0:0,0:0:0:0:
174,219,266812,2,0,L|250:205,1,64.9999970245363,2|0,0:2|0:0,0:0:0:0:
0,384,267105,6,0,P|-7:347|1:311,1,75.0000028610231,4|0,0:1|0:0,0:0:0:0:
41,178,267398,1,8,0:0:0:0:
133,351,267544,1,2,0:0:0:0:
128,133,267690,6,0,L|143:82,3,43.7500004172325,4|0|0|0,0:0|0:0|0:0|0:0,0:0:0:0:
87,264,267983,2,0,L|73:308,3,43.7500004172325,8|0|0|0,0:0|0:0|0:0|0:0,0:0:0:0:
260,171,268276,5,2,0:0:0:0:
288,170,268349,1,0,0:0:0:0:
315,182,268422,1,8,0:0:0:0:
334,204,268495,1,0,0:0:0:0:
342,231,268568,1,0,0:0:0:0:
339,260,268641,1,0,0:0:0:0:
323,284,268715,5,8,0:0:0:0:
351,277,268788,1,0,0:0:0:0:
379,282,268861,1,2,0:0:0:0:
405,294,268934,1,0,0:0:0:0:
433,303,269007,1,8,0:0:0:0:
462,305,269080,1,0,0:0:0:0:
491,300,269154,5,8,0:0:0:0:
456,273,269227,1,0,0:0:0:0:
439,234,269300,1,0,0:0:0:0:
442,191,269373,1,0,0:0:0:0:
466,155,269446,5,8,0:0:0:0:
419,184,269519,1,0,0:0:0:0:
367,199,269592,1,0,0:0:0:0:
313,197,269665,1,0,0:0:0:0:
260,181,269738,1,8,0:0:0:0:
213,154,269811,1,0,0:0:0:0:
185,108,269885,1,0,0:0:0:0:
195,56,269958,1,0,0:0:0:0:
241,30,270032,5,2,0:0:0:0:
289,53,270104,1,0,0:0:0:0:
301,105,270177,1,2,0:0:0:0:
275,151,270250,1,2,0:0:0:0:
229,180,270324,1,8,0:0:0:0:
177,196,270397,1,0,0:0:0:0:
122,199,270470,1,2,0:0:0:0:
70,185,270543,1,0,0:0:0:0:
23,157,270617,6,0,P|9:92|49:32,1,100,4|8,0:0|0:0,0:0:0:0:
197,107,270910,2,0,P|150:120|103:106,1,100,0|8,0:0|0:0,0:0:0:0:
241,30,271203,1,2,0:0:0:0:
275,151,271349,1,8,0:0:0:0:
357,66,271495,1,2,0:0:0:0:
379,55,271568,1,0,0:0:0:0:
404,51,271642,1,8,0:0:0:0:
428,54,271714,1,0,0:0:0:0:
452,65,271788,6,0,L|464:113,3,50,4|0|8|0,1:2|0:0|0:0|0:0,0:0:0:0:
390,240,272081,2,0,L|403:192,3,50,0|0|8|0,0:0|0:0|0:0|0:0,0:0:0:0:
473,296,272373,5,2,0:0:0:0:
452,319,272446,1,0,0:0:0:0:
425,335,272519,1,8,0:0:0:0:
395,342,272592,1,8,0:0:0:0:
364,339,272665,1,2,0:0:0:0:
336,327,272738,1,0,0:0:0:0:
312,307,272812,1,8,0:0:0:0:
296,280,272885,1,0,0:0:0:0:
289,250,272959,5,6,0:0:0:0:
257,287,273032,1,0,0:0:0:0:
210,303,273105,1,8,0:0:0:0:
162,293,273178,1,8,0:0:0:0:
125,260,273251,1,2,0:0:0:0:
110,213,273324,1,0,0:0:0:0:
121,164,273398,1,8,0:0:0:0:
155,128,273471,1,0,0:0:0:0:
202,114,273544,5,2,0:0:0:0:
252,111,273617,1,0,0:0:0:0:
298,129,273690,1,8,0:0:0:0:
344,146,273763,1,0,0:0:0:0:
394,146,273837,1,2,0:0:0:0:
436,120,273910,1,0,0:0:0:0:
451,73,273983,1,0,0:0:0:0:
434,27,274056,1,0,0:0:0:0:
391,3,274129,5,4,1:2:0:0:
394,40,274202,1,0,0:0:0:0:
397,78,274275,1,8,0:0:0:0:
400,115,274348,1,8,0:0:0:0:
403,153,274421,1,2,0:0:0:0:
406,190,274494,1,0,0:0:0:0:
409,227,274568,1,8,0:0:0:0:
412,265,274641,1,0,0:0:0:0:
415,302,274715,5,2,0:0:0:0:
387,277,274788,1,0,0:0:0:0:
354,260,274861,1,8,0:0:0:0:
317,254,274934,1,0,0:0:0:0:
280,258,275007,1,2,0:0:0:0:
245,273,275080,1,0,0:0:0:0:
216,297,275154,1,0,0:0:0:0:
195,328,275227,1,0,0:0:0:0:
184,363,275300,6,0,L|327:353,1,100,4|8,0:0|0:0,0:0:0:0:
164,174,275593,1,0,0:0:0:0:
261,189,275739,1,8,0:0:0:0:
148,270,275885,1,2,0:0:0:0:
228,95,276032,1,8,0:0:0:0:
246,287,276178,1,2,0:0:0:0:
71,209,276324,1,8,0:0:0:0:
339,252,276471,5,4,1:2:0:0:
105,92,276617,1,8,0:0:0:0:
184,363,276763,1,2,0:0:0:0:
342,130,276910,1,8,0:0:0:0:
71,209,277056,1,2,0:0:0:0:
304,368,277202,1,8,0:0:0:0:
228,95,277349,1,2,0:0:0:0:
67,329,277495,1,8,0:0:0:0:
342,130,277642,5,4,0:0:0:0:
389,138,277715,1,0,0:0:0:0:
423,175,277788,1,8,0:0:0:0:
427,225,277861,1,8,0:0:0:0:
399,266,277934,1,2,0:0:0:0:
352,282,278007,1,0,0:0:0:0:
305,266,278081,1,8,0:0:0:0:
265,239,278154,1,0,0:0:0:0:
217,232,278227,5,2,0:0:0:0:
172,249,278300,1,0,0:0:0:0:
139,284,278373,1,8,0:0:0:0:
90,286,278446,1,0,0:0:0:0:
55,252,278519,1,2,0:0:0:0:
55,204,278592,1,0,0:0:0:0:
85,166,278666,1,8,0:0:0:0:
108,123,278739,1,0,0:0:0:0:
98,75,278812,5,8,0:1:0:0:
152,97,278885,1,0,0:0:0:0:
212,96,278958,1,8,0:0:0:0:
265,70,279031,1,0,0:0:0:0:
304,24,279105,1,0,0:0:0:0:
295,83,279178,1,0,0:0:0:0:
286,143,279251,1,8,0:0:0:0:
278,202,279324,1,0,0:0:0:0:
269,262,279398,5,8,0:1:0:0:
305,214,279471,1,0,0:0:0:0:
361,199,279544,1,8,0:0:0:0:
416,222,279617,1,0,0:0:0:0:
444,273,279690,1,8,0:0:0:0:
435,332,279763,1,8,0:0:0:0:
393,372,279837,1,8,0:0:0:0:
334,377,279910,1,8,0:0:0:0:
284,346,279983,6,0,L|152:364,1,119.999996337891,6|8,0:0|0:0,0:0:0:0:
98,75,280276,1,0,0:0:0:0:
210,251,280422,1,8,0:0:0:0:
267,264,280495,1,0,0:0:0:0:
320,239,280568,1,2,0:0:0:0:
344,186,280641,1,0,0:0:0:0:
329,129,280715,1,8,0:0:0:0:
305,76,280788,1,0,0:0:0:0:
328,22,280861,1,2,0:0:0:0:
383,3,280934,1,0,0:0:0:0:
434,30,281007,1,8,0:0:0:0:
449,89,281081,1,0,0:0:0:0:
413,137,281154,5,4,1:2:0:0:
355,146,281227,1,0,0:0:0:0:
326,196,281300,1,8,0:0:0:0:
346,251,281373,1,0,0:0:0:0:
397,278,281446,1,0,0:0:0:0:
408,335,281519,1,0,0:0:0:0:
370,379,281592,1,8,0:0:0:0:
312,377,281665,1,0,0:0:0:0:
278,330,281739,5,2,0:0:0:0:
282,271,281812,1,0,0:0:0:0:
244,227,281885,1,0,0:0:0:0:
186,222,281958,1,0,0:0:0:0:
142,260,282031,1,2,0:0:0:0:
137,318,282104,1,0,0:0:0:0:
174,363,282178,1,8,0:0:0:0:
232,367,282251,1,0,0:0:0:0:
278,330,282324,6,0,P|336:317|393:332,1,119.999996337891,4|8,0:0|0:0,0:0:0:0:
377,75,282617,1,0,0:0:0:0:
326,196,282763,1,8,0:0:0:0:
287,241,282836,1,0,0:0:0:0:
233,265,282909,1,2,0:0:0:0:
173,262,282982,1,0,0:0:0:0:
121,234,283055,1,8,0:0:0:0:
87,185,283128,1,0,0:0:0:0:
77,126,283202,1,2,0:0:0:0:
94,69,283275,1,0,0:0:0:0:
134,26,283348,1,8,0:0:0:0:
190,4,283421,1,0,0:0:0:0:
249,9,283494,5,4,1:2:0:0:
240,68,283568,1,0,0:0:0:0:
231,127,283641,1,8,0:0:0:0:
222,187,283714,1,0,0:0:0:0:
212,246,283788,1,0,0:0:0:0:
237,298,283861,1,0,0:0:0:0:
293,316,283934,1,8,0:0:0:0:
344,289,284007,1,0,0:0:0:0:
361,233,284081,5,2,0:0:0:0:
335,181,284154,1,0,0:0:0:0:
349,124,284227,1,8,0:0:0:0:
397,90,284300,1,0,0:0:0:0:
456,95,284373,1,2,0:0:0:0:
497,136,284446,1,0,0:0:0:0:
504,195,284519,1,8,0:0:0:0:
470,243,284592,1,0,0:0:0:0:
411,257,284666,6,0,L|258:238,1,119.999996337891,4|8,0:0|0:0,0:0:0:0:
249,9,284959,1,0,0:0:0:0:
420,171,285105,1,8,0:0:0:0:
452,123,285178,1,0,0:0:0:0:
444,65,285251,1,2,0:0:0:0:
398,27,285324,1,0,0:0:0:0:
340,30,285397,1,8,0:0:0:0:
298,71,285470,1,0,0:0:0:0:
294,130,285544,1,2,0:0:0:0:
331,175,285617,1,0,0:0:0:0:
324,233,285690,1,8,0:0:0:0:
281,273,285763,1,0,0:0:0:0:
223,274,285837,5,4,1:2:0:0:
181,234,285910,1,0,0:0:0:0:
177,180,285983,1,8,0:0:0:0:
207,129,286056,1,0,0:0:0:0:
194,72,286129,1,0,0:0:0:0:
146,38,286202,1,0,0:0:0:0:
88,46,286275,1,8,0:0:0:0:
51,92,286348,1,0,0:0:0:0:
55,150,286422,5,2,0:0:0:0:
101,188,286495,1,0,3:0:0:0:
157,182,286568,1,8,3:0:0:0:
197,145,286642,1,0,0:0:0:0:
247,125,286715,2,0,P|306:127|359:154,1,119.999996337891,2|8,0:0|0:0,0:0:0:0:
489,325,287007,5,6,0:0:0:0:
440,283,287080,1,0,0:0:0:0:
380,258,287153,1,0,0:0:0:0:
315,255,287226,1,0,0:0:0:0:
252,273,287299,1,8,0:0:0:0:
201,309,287372,1,0,0:0:0:0:
161,361,287446,5,6,0:0:0:0:
108,322,287520,1,0,0:0:0:0:
72,268,287593,1,0,0:0:0:0:
54,206,287666,1,0,0:0:0:0:
57,140,287739,1,8,0:0:0:0:
83,81,287812,1,0,0:0:0:0:
125,31,287885,2,0,P|212:62|340:13,1,179.999994506836,8|0,0:0|0:0,0:0:0:0:
382,14,288178,6,0,L|364:153,1,100,2|8,0:0|0:0,0:0:0:0:
384,151,288398,1,8,0:0:0:0:
399,189,288471,1,2,0:0:0:0:
475,106,288617,1,8,0:0:0:0:
292,195,288763,1,8,0:0:0:0:
243,203,288836,1,0,0:0:0:0:
196,187,288909,1,8,0:0:0:0:
163,150,288982,1,0,0:0:0:0:
151,102,289056,2,0,P|117:91|37:120,1,89.9999972534181,2|0,0:0|0:0,0:0:0:0:
340,102,289349,6,0,P|402:109|480:4,1,179.999994506836,4|0,0:0|0:0,0:0:0:0:
290,22,289788,1,8,0:0:0:0:
292,195,289934,2,0,L|325:314,1,89.9999972534181,2|0,0:0|0:0,0:0:0:0:
162,358,290227,2,0,L|226:294,1,89.9999972534181,2|0,0:0|0:0,0:0:0:0:
282,366,290446,1,8,0:0:0:0:
282,366,290520,6,0,L|369:389,1,89.9999972534181,2|0,0:0|0:0,0:0:0:0:
467,203,290812,2,0,P|423:213|386:245,1,89.9999972534181,2|0,0:0|0:0,0:0:0:0:
209,66,291105,2,0,P|239:98|286:114,1,89.9999972534181,8|0,0:0|0:0,0:0:0:0:
512,0,291398,2,0,L|424:22,1,89.9999972534181,8|0,0:0|0:0,0:0:0:0:
116,240,291690,6,0,L|203:217,1,89.9999972534181,4|0,0:0|0:0,0:0:0:0:
145,1,291983,1,8,0:0:0:0:
22,203,292129,1,8,0:0:0:0:
290,22,292276,2,0,P|331:37|362:69,1,89.9999972534181,4|0,0:2|0:0,0:0:0:0:
313,281,292568,1,8,0:0:0:0:
209,66,292715,1,8,0:0:0:0:
137,320,292861,6,0,L|313:280,1,179.999994506836,8|0,0:0|0:0,0:0:0:0:
290,175,293300,1,0,0:0:0:0:
261,181,293373,1,0,0:0:0:0:
232,188,293446,2,0,L|215:266,1,80,2|0,0:0|0:0,0:0:0:0:
320,169,293739,2,0,L|398:152,1,64.9999970245363,2|0,0:0|0:0,0:0:0:0:
343,32,294032,6,0,P|298:95|320:169,1,160,4|0,0:2|0:0,0:0:0:0:
428,244,294910,2,0,L|421:288,1,44.999998626709,0|2,0:0|0:0,0:0:0:0:
430,308,295126,1,0,0:0:0:0:
438,327,295202,2,0,L|429:384,1,40,8|0,0:0|0:0,0:0:0:0:
305,305,295643,6,0,P|260:299|221:318,1,75.0000028610231,8|0,0:0|0:0,0:0:0:0:
151,290,296194,2,0,L|157:335,1,37.5000014305115,8|0,0:0|0:0,0:0:0:0:
84,235,296650,6,0,P|120:209|196:216,1,119.999996337891,4|2,0:0|0:0,0:0:0:0:
313,255,298152,6,0,L|301:327,1,50,8|0,0:0|0:0,0:0:0:0:
228,158,298893,2,0,L|240:230,1,50,8|0,0:0|0:0,0:0:0:0:
289,90,299906,5,4,0:0:0:0:
256,192,299990,12,4,309344,0:3:0:0:
