osu file format v14

[General]
AudioFilename: BABYMETAL feat. DragonForce - Road of Resistance.mp3
AudioLeadIn: 0
PreviewTime: 124000
Countdown: 0
SampleSet: Soft
StackLeniency: 0.7
Mode: 3
LetterboxInBreaks: 0
SpecialStyle: 0
WidescreenStoryboard: 0

[Editor]
Bookmarks: 4220,54708,75781,94512,123781,157732,181147,218610,237342,260756
DistanceSpacing: 0.8
BeatDivisor: 4
GridSize: 16
TimelineZoom: 1.999998

[Metadata]
Title:Road of Resistance
TitleUnicode:Road of Resistance
Artist:BABYMETAL
ArtistUnicode:BABYMETAL
Creator:Akary
Version:Last Resistance
Source:
Tags:power heavy kawai death metal jpop Dragonforce Herman Li Sam Totman [Shi-Ra] DarkSider2442 dosyeru Kiviman [Shana Lesus] Julie
BeatmapID:815906
BeatmapSetID:355176

[Difficulty]
HPDrainRate:8
CircleSize:7
OverallDifficulty:8
ApproachRate:5
SliderMultiplier:1.4
SliderTickRate:1

[Events]
//Background and Video events
0,0,"bg.jpg",0,0
//Break Periods
//Storyboard Layer 0 (Background)
//Storyboard Layer 1 (Fail)
//Storyboard Layer 2 (Pass)
//Storyboard Layer 3 (Foreground)
//Storyboard Sound Samples

[TimingPoints]
488,301.507537688442,4,2,1,5,1,0
4220,292.682926829268,4,2,1,5,1,0
41098,333.333333333333,4,2,1,5,1,0
41430,384.615384615385,4,2,1,5,1,0
54708,292.682926829268,4,2,1,5,1,8
57049,-100,4,2,1,5,0,1
75781,-100,4,2,1,5,0,0
124951,-100,4,2,1,5,0,9
157732,-100,4,2,1,5,0,8
171781,-100,4,2,1,5,0,9
181147,-100,4,2,1,5,0,8
218610,-100,4,2,1,5,0,9
237342,-100,4,2,1,5,0,8
256073,-100,4,2,1,5,0,1
260756,-100,4,2,1,5,0,0
270122,-100,4,2,1,5,0,9
288854,-100,4,2,1,5,0,8
295147,357.142857142857,4,2,1,5,1,8
295147,-90.9090909090909,4,2,1,5,0,8
295504,394.736842105263,4,2,1,5,1,0
295701,416.666666666667,4,2,1,5,1,0
295909,461.538461538462,4,2,1,5,1,0
296140,408.163265306122,4,2,1,5,1,8
296959,352.941176470588,4,2,1,5,1,8
297665,352.941176470588,4,2,1,5,1,8
298017,392.156862745098,4,2,1,5,1,8
298017,-76.9230769230769,4,2,1,5,0,8
298409,434.782608695652,4,2,1,5,1,8
298409,-71.4285714285714,4,2,1,5,0,8
298843,566.037735849057,4,2,1,5,1,8
298843,-66.6666666666667,4,2,1,5,0,8
299409,444.444444444444,4,2,1,5,1,0
299409,-65.7894736842105,4,2,1,5,0,0

[HitObjects]
256,192,488,128,0,3634:0:0:0:0:
475,192,4220,128,0,6561:0:0:0:0:
36,192,4220,128,0,6561:0:0:0:0:
329,192,4220,1,0,0:0:0:0:
182,192,4220,128,0,4659:0:0:0:0:
256,192,4659,128,0,5098:0:0:0:0:
329,192,5098,128,0,5683:0:0:0:0:
256,192,5683,128,0,5976:0:0:0:0:
182,192,5976,128,0,6268:0:0:0:0:
256,192,6268,128,0,6561:0:0:0:0:
329,192,6561,128,0,8902:0:0:0:0:
182,192,6561,128,0,8902:0:0:0:0:
109,192,6561,128,0,7000:0:0:0:0:
256,192,7000,128,0,7439:0:0:0:0:
402,192,7439,128,0,8902:0:0:0:0:
36,192,8024,1,0,2:0:0:0:
109,192,8244,1,0,2:0:0:0:
36,192,8463,1,0,2:0:0:0:
109,192,8902,128,0,9341:0:0:0:0:
36,192,8902,128,0,11244:0:0:0:0:
475,192,8902,128,0,11244:0:0:0:0:
402,192,9341,128,0,9780:0:0:0:0:
256,192,9780,128,0,10366:0:0:0:0:
329,192,10366,128,0,10659:0:0:0:0:
182,192,10659,128,0,10951:0:0:0:0:
329,192,10951,128,0,11244:0:0:0:0:
402,192,11244,128,0,12415:0:0:0:0:
109,192,11244,128,0,12415:0:0:0:0:
256,192,11244,128,0,11537:0:0:0:0:
256,192,11683,128,0,11976:0:0:0:0:
256,192,12122,128,0,12415:0:0:0:0:
36,192,12415,1,0,0:0:0:0:
475,192,12415,1,0,0:0:0:0:
329,192,12707,1,0,0:0:0:0:
109,192,12707,1,0,0:0:0:0:
402,192,12854,1,0,0:0:0:0:
182,192,12854,1,0,0:0:0:0:
36,192,13000,1,0,0:0:0:0:
256,192,13000,1,0,0:0:0:0:
475,192,13000,1,0,0:0:0:0:
109,192,13293,1,0,0:0:0:0:
329,192,13293,1,0,0:0:0:0:
182,192,13439,1,0,0:0:0:0:
402,192,13439,1,0,0:0:0:0:
256,192,13585,1,0,0:0:0:0:
36,192,13585,1,0,0:0:0:0:
109,192,13585,128,0,14024:0:0:0:0:
475,192,13585,128,0,15927:0:0:0:0:
256,192,14024,128,0,14463:0:0:0:0:
109,192,14463,1,0,0:0:0:0:
36,192,14463,128,0,15049:0:0:0:0:
182,192,14561,1,0,0:0:0:0:
329,192,14659,1,0,0:0:0:0:
402,192,14756,1,0,0:0:0:0:
109,192,14756,1,0,0:0:0:0:
109,192,15049,128,0,15341:0:0:0:0:
329,192,15195,1,0,0:0:0:0:
182,192,15341,128,0,15634:0:0:0:0:
329,192,15634,128,0,15927:0:0:0:0:
36,192,15634,1,0,0:0:0:0:
36,192,15927,128,0,18268:0:0:0:0:
182,192,15927,1,0,0:0:0:0:
402,192,15927,128,0,16366:0:0:0:0:
256,192,16366,128,0,16805:0:0:0:0:
475,192,16512,1,0,0:0:0:0:
329,192,16512,1,0,0:0:0:0:
182,192,16805,128,0,18268:0:0:0:0:
475,192,17098,128,0,17537:0:0:0:0:
402,192,17098,1,0,0:0:0:0:
329,192,17293,1,0,0:0:0:0:
256,192,17390,1,0,0:0:0:0:
109,192,17488,1,0,0:0:0:0:
402,192,17537,128,0,17976:0:0:0:0:
329,192,17585,1,0,0:0:0:0:
256,192,17683,1,0,0:0:0:0:
109,192,17780,1,0,0:0:0:0:
256,192,17878,1,0,0:0:0:0:
329,192,17976,128,0,18268:0:0:0:0:
109,192,17976,1,0,0:0:0:0:
256,192,18049,1,0,0:0:0:0:
402,192,18122,1,0,0:0:0:0:
256,192,18268,1,0,0:0:0:0:
109,192,18268,128,0,18707:0:0:0:0:
475,192,18268,128,0,20610:0:0:0:0:
256,192,18707,128,0,19146:0:0:0:0:
36,192,19146,128,0,19732:0:0:0:0:
402,192,19293,1,0,0:0:0:0:
329,192,19366,1,0,0:0:0:0:
256,192,19439,1,0,0:0:0:0:
182,192,19439,1,0,0:0:0:0:
329,192,19732,128,0,20024:0:0:0:0:
256,192,19732,1,0,0:0:0:0:
182,192,19878,1,0,0:0:0:0:
109,192,19878,1,0,0:0:0:0:
402,192,20024,128,0,20317:0:0:0:0:
182,192,20171,1,0,0:0:0:0:
256,192,20317,128,0,20610:0:0:0:0:
109,192,20317,1,0,0:0:0:0:
36,192,20317,1,0,0:0:0:0:
36,192,20610,128,0,21780:0:0:0:0:
109,192,20610,1,0,0:0:0:0:
329,192,20610,128,0,20902:0:0:0:0:
329,192,21049,128,0,21341:0:0:0:0:
182,192,21195,1,0,0:0:0:0:
475,192,21195,1,0,0:0:0:0:
182,192,21488,128,0,21780:0:0:0:0:
475,192,21634,1,0,0:0:0:0:
402,192,21707,1,0,0:0:0:0:
329,192,21780,1,0,0:0:0:0:
109,192,21780,1,0,0:0:0:0:
256,192,21854,1,0,0:0:0:0:
182,192,21927,1,0,0:0:0:0:
475,192,21927,1,0,0:0:0:0:
402,192,22000,1,0,0:0:0:0:
329,192,22073,1,0,0:0:0:0:
109,192,22073,1,0,0:0:0:0:
256,192,22146,1,0,0:0:0:0:
475,192,22219,1,0,0:0:0:0:
36,192,22219,1,0,0:0:0:0:
109,192,22293,1,0,0:0:0:0:
182,192,22366,1,0,0:0:0:0:
402,192,22366,1,0,0:0:0:0:
256,192,22439,1,0,0:0:0:0:
329,192,22512,1,0,0:0:0:0:
475,192,22512,1,0,0:0:0:0:
36,192,22585,1,0,0:0:0:0:
109,192,22659,1,0,0:0:0:0:
402,192,22659,1,0,0:0:0:0:
182,192,22732,1,0,0:0:0:0:
36,192,22805,1,0,0:0:0:0:
256,192,22805,1,0,0:0:0:0:
329,192,22878,1,0,0:0:0:0:
402,192,22951,1,0,0:0:0:0:
109,192,22951,1,0,0:0:0:0:
475,192,22951,128,0,23390:0:0:0:0:
256,192,23024,1,0,0:0:0:0:
109,192,23098,1,0,0:0:0:0:
329,192,23244,1,0,0:0:0:0:
182,192,23317,1,0,0:0:0:0:
36,192,23390,1,0,0:0:0:0:
402,192,23390,128,0,23829:0:0:0:0:
109,192,23537,1,0,0:0:0:0:
256,192,23683,1,0,0:0:0:0:
475,192,23829,128,0,24415:0:0:0:0:
329,192,23829,1,0,0:0:0:0:
182,192,23902,1,0,0:0:0:0:
36,192,23976,1,0,0:0:0:0:
109,192,24122,1,0,0:0:0:0:
402,192,24122,1,0,0:0:0:0:
256,192,24122,1,0,0:0:0:0:
329,192,24415,128,0,24707:0:0:0:0:
182,192,24707,1,0,0:0:0:0:
36,192,24707,128,0,25000:0:0:0:0:
329,192,25000,128,0,25293:0:0:0:0:
36,192,25293,128,0,25732:0:0:0:0:
182,192,25293,1,0,0:0:0:0:
329,192,25366,1,0,0:0:0:0:
475,192,25439,1,0,0:0:0:0:
182,192,25585,1,0,0:0:0:0:
329,192,25659,1,0,0:0:0:0:
109,192,25732,128,0,26171:0:0:0:0:
475,192,25732,1,0,0:0:0:0:
329,192,26024,1,0,0:0:0:0:
36,192,26171,128,0,27634:0:0:0:0:
182,192,26171,1,0,0:0:0:0:
329,192,26244,1,0,0:0:0:0:
475,192,26317,1,0,0:0:0:0:
402,192,26463,1,0,0:0:0:0:
256,192,26463,1,0,0:0:0:0:
109,192,26463,1,0,0:0:0:0:
109,192,26902,1,0,0:0:0:0:
256,192,26976,1,0,0:0:0:0:
329,192,27049,1,0,0:0:0:0:
475,192,27049,1,0,0:0:0:0:
329,192,27195,128,0,27634:0:0:0:0:
475,192,27195,128,0,27634:0:0:0:0:
182,192,27634,1,0,0:0:0:0:
109,192,27634,128,0,27927:0:0:0:0:
329,192,27707,1,0,0:0:0:0:
475,192,27780,1,0,0:0:0:0:
182,192,27927,1,0,0:0:0:0:
329,192,28000,1,0,0:0:0:0:
475,192,28073,1,0,0:0:0:0:
109,192,28073,128,0,28366:0:0:0:0:
402,192,28219,1,0,0:0:0:0:
256,192,28219,1,0,0:0:0:0:
329,192,28366,1,0,0:0:0:0:
109,192,28512,128,0,29098:0:0:0:0:
182,192,28512,1,0,0:0:0:0:
329,192,28585,1,0,0:0:0:0:
475,192,28659,1,0,0:0:0:0:
402,192,28805,1,0,0:0:0:0:
256,192,28805,1,0,0:0:0:0:
36,192,28805,1,0,0:0:0:0:
402,192,29098,128,0,29390:0:0:0:0:
256,192,29390,128,0,29683:0:0:0:0:
36,192,29390,1,0,0:0:0:0:
36,192,29683,128,0,29976:0:0:0:0:
475,192,29976,128,0,30415:0:0:0:0:
329,192,29976,1,0,0:0:0:0:
182,192,30049,1,0,0:0:0:0:
36,192,30122,1,0,0:0:0:0:
329,192,30268,1,0,0:0:0:0:
182,192,30341,1,0,0:0:0:0:
329,192,30415,128,0,30854:0:0:0:0:
36,192,30415,1,0,0:0:0:0:
109,192,30561,1,0,0:0:0:0:
256,192,30561,1,0,0:0:0:0:
36,192,30707,1,0,0:0:0:0:
402,192,30854,128,0,31146:0:0:0:0:
182,192,30854,1,0,0:0:0:0:
109,192,30927,1,0,0:0:0:0:
36,192,31000,1,0,0:0:0:0:
329,192,31146,1,0,0:0:0:0:
256,192,31146,1,0,0:0:0:0:
109,192,31146,1,0,0:0:0:0:
475,192,31146,128,0,32317:0:0:0:0:
402,192,31585,1,0,0:0:0:0:
256,192,31659,1,0,0:0:0:0:
182,192,31732,1,0,0:0:0:0:
36,192,31732,1,0,0:0:0:0:
109,192,31878,1,0,0:0:0:0:
256,192,31878,1,0,0:0:0:0:
329,192,32024,1,0,0:0:0:0:
182,192,32024,1,0,0:0:0:0:
256,192,32171,1,0,0:0:0:0:
402,192,32171,1,0,0:0:0:0:
36,192,32317,128,0,32756:0:0:0:0:
182,192,32317,1,0,0:0:0:0:
109,192,32317,1,0,0:0:0:0:
329,192,32390,1,0,0:0:0:0:
475,192,32463,1,0,0:0:0:0:
182,192,32610,1,0,0:0:0:0:
329,192,32683,1,0,0:0:0:0:
109,192,32756,128,0,33195:0:0:0:0:
475,192,32756,1,0,0:0:0:0:
402,192,32902,1,0,0:0:0:0:
256,192,32902,1,0,0:0:0:0:
329,192,33049,1,0,0:0:0:0:
36,192,33195,128,0,33780:0:0:0:0:
182,192,33195,1,0,0:0:0:0:
329,192,33268,1,0,0:0:0:0:
475,192,33341,1,0,0:0:0:0:
402,192,33488,1,0,0:0:0:0:
256,192,33488,1,0,0:0:0:0:
109,192,33488,1,0,0:0:0:0:
182,192,33780,128,0,34073:0:0:0:0:
329,192,34073,128,0,34366:0:0:0:0:
475,192,34073,1,0,0:0:0:0:
402,192,34366,128,0,34659:0:0:0:0:
475,192,34659,128,0,35098:0:0:0:0:
329,192,34659,1,0,0:0:0:0:
182,192,34732,1,0,0:0:0:0:
36,192,34805,1,0,0:0:0:0:
329,192,34951,1,0,0:0:0:0:
182,192,35024,1,0,0:0:0:0:
36,192,35098,1,0,0:0:0:0:
402,192,35098,128,0,35537:0:0:0:0:
256,192,35244,1,0,0:0:0:0:
109,192,35244,1,0,0:0:0:0:
182,192,35390,1,0,0:0:0:0:
475,192,35537,128,0,37000:0:0:0:0:
329,192,35537,1,0,0:0:0:0:
182,192,35610,1,0,0:0:0:0:
36,192,35683,1,0,0:0:0:0:
402,192,35829,1,0,0:0:0:0:
256,192,35829,1,0,0:0:0:0:
109,192,35829,1,0,0:0:0:0:
402,192,36268,1,0,0:0:0:0:
256,192,36341,1,0,0:0:0:0:
182,192,36415,1,0,0:0:0:0:
36,192,36415,1,0,0:0:0:0:
182,192,36561,128,0,37000:0:0:0:0:
36,192,36561,128,0,37000:0:0:0:0:
402,192,37000,128,0,37439:0:0:0:0:
329,192,37000,1,0,0:0:0:0:
182,192,37073,1,0,0:0:0:0:
36,192,37146,1,0,0:0:0:0:
329,192,37293,1,0,0:0:0:0:
182,192,37366,1,0,0:0:0:0:
475,192,37439,128,0,37878:0:0:0:0:
36,192,37439,1,0,0:0:0:0:
329,192,37585,1,0,0:0:0:0:
182,192,37585,1,0,0:0:0:0:
109,192,37732,1,0,0:0:0:0:
36,192,37878,128,0,38463:0:0:0:0:
182,192,37878,1,0,0:0:0:0:
329,192,37951,1,0,0:0:0:0:
475,192,38024,1,0,0:0:0:0:
109,192,38171,1,0,0:0:0:0:
402,192,38171,1,0,0:0:0:0:
256,192,38171,1,0,0:0:0:0:
182,192,38463,128,0,38756:0:0:0:0:
475,192,38610,1,0,0:0:0:0:
402,192,38683,1,0,0:0:0:0:
329,192,38756,128,0,39049:0:0:0:0:
36,192,38756,1,0,0:0:0:0:
182,192,38902,128,0,39341:0:0:0:0:
36,192,38902,128,0,39341:0:0:0:0:
475,192,39049,128,0,39341:0:0:0:0:
256,192,39049,1,0,0:0:0:0:
109,192,39195,1,0,0:0:0:0:
329,192,39341,1,0,0:0:0:0:
475,192,39488,1,0,0:0:0:0:
109,192,39488,1,0,0:0:0:0:
402,192,39561,1,0,0:0:0:0:
36,192,39634,1,0,0:0:0:0:
329,192,39634,1,0,0:0:0:0:
256,192,39780,1,0,0:0:0:0:
109,192,39780,1,0,0:0:0:0:
402,192,39780,1,0,0:0:0:0:
329,192,39927,1,0,0:0:0:0:
36,192,39927,1,0,0:0:0:0:
109,192,40000,1,0,0:0:0:0:
475,192,40073,1,0,0:0:0:0:
182,192,40073,1,0,0:0:0:0:
402,192,40219,1,0,0:0:0:0:
256,192,40219,1,0,0:0:0:0:
109,192,40219,1,0,0:0:0:0:
182,192,40366,1,0,0:0:0:0:
475,192,40366,1,0,0:0:0:0:
402,192,40439,1,0,0:0:0:0:
36,192,40512,1,0,0:0:0:0:
329,192,40512,1,0,0:0:0:0:
256,192,40659,1,0,0:0:0:0:
402,192,40659,1,0,0:0:0:0:
109,192,40659,1,0,0:0:0:0:
36,192,40805,1,0,0:0:0:0:
329,192,40805,1,0,0:0:0:0:
109,192,40878,1,0,0:0:0:0:
402,192,40951,1,0,0:0:0:0:
182,192,40951,1,0,0:0:0:0:
256,192,41098,1,0,0:0:0:0:
36,192,41098,1,0,0:0:0:0:
475,192,41098,1,0,0:0:0:0:
402,192,41264,1,0,0:0:0:0:
109,192,41264,1,0,0:0:0:0:
329,192,41430,1,0,0:0:0:0:
182,192,41430,1,0,0:0:0:0:
402,192,41622,1,0,0:0:0:0:
109,192,41622,1,0,0:0:0:0:
329,192,41814,1,0,0:0:0:0:
182,192,41814,1,0,0:0:0:0:
475,192,41814,128,0,46045:0:0:0:0:
36,192,41814,128,0,47006:0:0:0:0:
402,192,42295,1,0,0:0:0:0:
182,192,42391,1,0,0:0:0:0:
329,192,42487,1,0,0:0:0:0:
109,192,42535,1,0,0:0:0:0:
256,192,42615,1,0,0:0:0:0:
402,192,42680,1,0,0:0:0:0:
182,192,42872,1,0,0:0:0:0:
329,192,43000,1,0,0:0:0:0:
109,192,43192,1,0,0:0:0:0:
402,192,43449,1,0,0:0:0:0:
329,192,43737,1,0,0:0:0:0:
256,192,44122,1,0,0:0:0:0:
256,192,45340,128,0,46365:0:0:0:0:
256,192,46494,128,0,47391:0:0:0:0:
475,192,46654,1,0,0:0:0:0:
475,192,46814,1,0,0:0:0:0:
475,192,47263,1,0,0:0:0:0:
256,192,47519,128,0,49955:0:0:0:0:
256,192,50083,128,0,50180:0:0:0:0:
36,192,50180,1,0,0:0:0:0:
36,192,50468,1,0,0:0:0:0:
256,192,50468,1,0,0:0:0:0:
36,192,50660,1,0,0:0:0:0:
256,192,50660,128,0,52968:0:0:0:0:
36,192,53256,1,0,0:0:0:0:
256,192,53256,1,0,0:0:0:0:
256,192,53449,128,0,54314:0:0:0:0:
36,192,53930,1,0,0:0:0:0:
256,192,54410,128,0,54708:0:0:0:0:
36,192,54708,5,0,0:0:0:0:
475,192,54708,1,0,0:0:0:0:
329,192,54781,1,0,0:0:0:0:
109,192,54854,1,0,0:0:0:0:
402,192,54927,1,0,0:0:0:0:
182,192,55000,1,0,0:0:0:0:
329,192,55000,1,0,0:0:0:0:
109,192,55073,1,0,0:0:0:0:
402,192,55073,1,0,0:0:0:0:
475,192,55147,1,0,0:0:0:0:
36,192,55147,1,0,0:0:0:0:
182,192,55220,1,0,0:0:0:0:
402,192,55293,1,0,0:0:0:0:
109,192,55366,1,0,0:0:0:0:
182,192,55439,1,0,0:0:0:0:
329,192,55439,1,0,0:0:0:0:
402,192,55512,1,0,0:0:0:0:
109,192,55512,1,0,0:0:0:0:
475,192,55586,1,0,0:0:0:0:
36,192,55586,1,0,0:0:0:0:
256,192,55586,1,0,0:0:0:0:
36,192,55878,128,0,56171:0:0:0:0:
475,192,55878,1,0,0:0:0:0:
182,192,55878,1,0,0:0:0:0:
256,192,55951,1,0,0:0:0:0:
329,192,56025,1,0,0:0:0:0:
402,192,56098,1,0,0:0:0:0:
109,192,56171,128,0,56464:0:0:0:0:
475,192,56171,1,0,0:0:0:0:
256,192,56171,1,0,0:0:0:0:
329,192,56244,1,0,0:0:0:0:
402,192,56317,1,0,0:0:0:0:
475,192,56390,1,0,0:0:0:0:
182,192,56464,128,0,56756:0:0:0:0:
329,192,56464,1,0,0:0:0:0:
36,192,56464,1,0,0:0:0:0:
402,192,56537,1,0,0:0:0:0:
475,192,56610,1,0,0:0:0:0:
329,192,56683,1,0,0:0:0:0:
256,192,56756,128,0,57049:0:0:0:0:
36,192,56756,128,0,57049:0:0:0:0:
475,192,56756,1,0,0:0:0:0:
182,192,57049,1,0,0:0:0:0:
329,192,57049,1,0,0:0:0:0:
475,192,57049,1,0,0:0:0:0:
109,192,57122,1,0,0:0:0:0:
402,192,57195,1,0,0:0:0:0:
182,192,57268,1,0,0:0:0:0:
329,192,57268,1,0,0:0:0:0:
36,192,57342,1,0,0:0:0:0:
109,192,57415,1,0,0:0:0:0:
256,192,57415,1,0,0:0:0:0:
475,192,57488,1,0,0:0:0:0:
329,192,57488,1,0,0:0:0:0:
182,192,57561,1,0,0:0:0:0:
36,192,57561,1,0,0:0:0:0:
402,192,57634,1,0,0:0:0:0:
256,192,57634,1,0,0:0:0:0:
475,192,57708,1,0,0:0:0:0:
109,192,57708,1,0,0:0:0:0:
329,192,57781,1,0,0:0:0:0:
182,192,57781,1,0,0:0:0:0:
36,192,57854,1,0,0:0:0:0:
402,192,57854,1,0,0:0:0:0:
256,192,57927,1,0,0:0:0:0:
109,192,57927,1,0,0:0:0:0:
329,192,58000,1,0,0:0:0:0:
475,192,58000,1,0,0:0:0:0:
182,192,58073,1,0,0:0:0:0:
109,192,58147,1,0,0:0:0:0:
256,192,58147,1,0,0:0:0:0:
329,192,58220,1,0,0:0:0:0:
36,192,58220,1,0,0:0:0:0:
182,192,58293,1,0,0:0:0:0:
475,192,58293,1,0,0:0:0:0:
256,192,58366,1,0,0:0:0:0:
109,192,58439,1,0,0:0:0:0:
402,192,58439,1,0,0:0:0:0:
475,192,58512,1,0,0:0:0:0:
182,192,58586,1,0,0:0:0:0:
329,192,58586,1,0,0:0:0:0:
109,192,58659,1,0,0:0:0:0:
36,192,58659,1,0,0:0:0:0:
256,192,58732,1,0,0:0:0:0:
402,192,58732,1,0,0:0:0:0:
182,192,58805,1,0,0:0:0:0:
109,192,58805,1,0,0:0:0:0:
329,192,58878,1,0,0:0:0:0:
475,192,58878,1,0,0:0:0:0:
256,192,58951,1,0,0:0:0:0:
182,192,58951,1,0,0:0:0:0:
36,192,59025,1,0,0:0:0:0:
402,192,59025,1,0,0:0:0:0:
256,192,59098,1,0,0:0:0:0:
329,192,59098,1,0,0:0:0:0:
109,192,59171,1,0,0:0:0:0:
475,192,59171,1,0,0:0:0:0:
402,192,59244,1,0,0:0:0:0:
329,192,59317,1,0,0:0:0:0:
36,192,59317,1,0,0:0:0:0:
182,192,59317,1,0,0:0:0:0:
109,192,59390,1,0,0:0:0:0:
475,192,59390,1,0,0:0:0:0:
256,192,59464,1,0,0:0:0:0:
402,192,59537,1,0,0:0:0:0:
182,192,59610,1,0,0:0:0:0:
475,192,59610,1,0,0:0:0:0:
36,192,59683,1,0,0:0:0:0:
402,192,59756,1,0,0:0:0:0:
256,192,59756,1,0,0:0:0:0:
329,192,59829,1,0,0:0:0:0:
109,192,59829,1,0,0:0:0:0:
182,192,59903,1,0,0:0:0:0:
475,192,59903,1,0,0:0:0:0:
256,192,59976,1,0,0:0:0:0:
402,192,59976,1,0,0:0:0:0:
109,192,60049,1,0,0:0:0:0:
329,192,60049,1,0,0:0:0:0:
36,192,60122,1,0,0:0:0:0:
182,192,60122,1,0,0:0:0:0:
402,192,60122,1,0,0:0:0:0:
475,192,60195,1,0,0:0:0:0:
256,192,60195,1,0,0:0:0:0:
329,192,60268,1,0,0:0:0:0:
36,192,60268,1,0,0:0:0:0:
402,192,60342,1,0,0:0:0:0:
109,192,60342,1,0,0:0:0:0:
256,192,60415,1,0,0:0:0:0:
475,192,60488,1,0,0:0:0:0:
182,192,60488,1,0,0:0:0:0:
36,192,60561,1,0,0:0:0:0:
329,192,60561,1,0,0:0:0:0:
109,192,60634,1,0,0:0:0:0:
402,192,60634,1,0,0:0:0:0:
256,192,60707,1,0,0:0:0:0:
36,192,60781,1,0,0:0:0:0:
329,192,60781,1,0,0:0:0:0:
402,192,60854,1,0,0:0:0:0:
109,192,60854,1,0,0:0:0:0:
475,192,60927,1,0,0:0:0:0:
182,192,60927,1,0,0:0:0:0:
36,192,61000,1,0,0:0:0:0:
329,192,61000,1,0,0:0:0:0:
182,192,61073,1,0,0:0:0:0:
475,192,61073,1,0,0:0:0:0:
256,192,61147,1,0,0:0:0:0:
36,192,61147,1,0,0:0:0:0:
402,192,61220,1,0,0:0:0:0:
109,192,61220,1,0,0:0:0:0:
182,192,61293,1,0,0:0:0:0:
36,192,61366,1,0,0:0:0:0:
329,192,61366,1,0,0:0:0:0:
475,192,61439,1,0,0:0:0:0:
109,192,61439,1,0,0:0:0:0:
256,192,61512,1,0,0:0:0:0:
36,192,61512,1,0,0:0:0:0:
402,192,61586,1,0,0:0:0:0:
182,192,61586,1,0,0:0:0:0:
109,192,61659,1,0,0:0:0:0:
329,192,61659,1,0,0:0:0:0:
256,192,61732,1,0,0:0:0:0:
475,192,61732,1,0,0:0:0:0:
182,192,61805,1,0,0:0:0:0:
402,192,61805,1,0,0:0:0:0:
109,192,61878,1,0,0:0:0:0:
329,192,61878,1,0,0:0:0:0:
36,192,61951,1,0,0:0:0:0:
256,192,61951,1,0,0:0:0:0:
402,192,62025,1,0,0:0:0:0:
182,192,62025,1,0,0:0:0:0:
329,192,62098,1,0,0:0:0:0:
109,192,62098,1,0,0:0:0:0:
182,192,62171,1,0,0:0:0:0:
402,192,62171,1,0,0:0:0:0:
256,192,62244,1,0,0:0:0:0:
475,192,62244,1,0,0:0:0:0:
402,192,62317,1,0,0:0:0:0:
182,192,62317,1,0,0:0:0:0:
329,192,62390,1,0,0:0:0:0:
36,192,62390,1,0,0:0:0:0:
402,192,62464,1,0,0:0:0:0:
109,192,62464,1,0,0:0:0:0:
475,192,62537,1,0,0:0:0:0:
182,192,62537,1,0,0:0:0:0:
256,192,62610,1,0,0:0:0:0:
36,192,62610,1,0,0:0:0:0:
109,192,62683,1,0,0:0:0:0:
329,192,62683,1,0,0:0:0:0:
475,192,62756,1,0,0:0:0:0:
256,192,62756,1,0,0:0:0:0:
402,192,62829,1,0,0:0:0:0:
182,192,62829,1,0,0:0:0:0:
329,192,62903,1,0,0:0:0:0:
109,192,62903,1,0,0:0:0:0:
256,192,62976,1,0,0:0:0:0:
36,192,62976,1,0,0:0:0:0:
182,192,63049,1,0,0:0:0:0:
475,192,63049,1,0,0:0:0:0:
402,192,63122,1,0,0:0:0:0:
109,192,63122,1,0,0:0:0:0:
329,192,63195,1,0,0:0:0:0:
36,192,63195,1,0,0:0:0:0:
475,192,63268,1,0,0:0:0:0:
182,192,63268,1,0,0:0:0:0:
109,192,63342,1,0,0:0:0:0:
402,192,63342,1,0,0:0:0:0:
329,192,63415,1,0,0:0:0:0:
36,192,63415,1,0,0:0:0:0:
182,192,63488,1,0,0:0:0:0:
402,192,63488,1,0,0:0:0:0:
475,192,63561,1,0,0:0:0:0:
256,192,63561,1,0,0:0:0:0:
109,192,63634,1,0,0:0:0:0:
402,192,63634,1,0,0:0:0:0:
182,192,63707,1,0,0:0:0:0:
329,192,63707,1,0,0:0:0:0:
402,192,63781,1,0,0:0:0:0:
109,192,63781,1,0,0:0:0:0:
475,192,63854,1,0,0:0:0:0:
36,192,63854,1,0,0:0:0:0:
402,192,63927,1,0,0:0:0:0:
109,192,63927,1,0,0:0:0:0:
329,192,64000,1,0,0:0:0:0:
182,192,64000,1,0,0:0:0:0:
256,192,64073,1,0,0:0:0:0:
36,192,64073,1,0,0:0:0:0:
402,192,64147,1,0,0:0:0:0:
109,192,64220,1,0,0:0:0:0:
329,192,64220,1,0,0:0:0:0:
256,192,64293,1,0,0:0:0:0:
402,192,64366,1,0,0:0:0:0:
36,192,64366,1,0,0:0:0:0:
182,192,64366,1,0,0:0:0:0:
329,192,64439,1,0,0:0:0:0:
109,192,64512,1,0,0:0:0:0:
256,192,64512,1,0,0:0:0:0:
475,192,64512,1,0,0:0:0:0:
402,192,64586,1,0,0:0:0:0:
256,192,64659,1,0,0:0:0:0:
36,192,64659,1,0,0:0:0:0:
182,192,64732,1,0,0:0:0:0:
475,192,64805,1,0,0:0:0:0:
109,192,64805,1,0,0:0:0:0:
329,192,64805,1,0,0:0:0:0:
256,192,64878,1,0,0:0:0:0:
402,192,64951,1,0,0:0:0:0:
36,192,64951,1,0,0:0:0:0:
182,192,64951,1,0,0:0:0:0:
329,192,65025,1,0,0:0:0:0:
475,192,65098,1,0,0:0:0:0:
256,192,65098,1,0,0:0:0:0:
109,192,65098,1,0,0:0:0:0:
402,192,65171,1,0,0:0:0:0:
475,192,65244,1,0,0:0:0:0:
182,192,65244,1,0,0:0:0:0:
329,192,65244,1,0,0:0:0:0:
36,192,65317,1,0,0:0:0:0:
402,192,65390,1,0,0:0:0:0:
109,192,65464,1,0,0:0:0:0:
475,192,65537,1,0,0:0:0:0:
182,192,65610,1,0,0:0:0:0:
402,192,65683,1,0,0:0:0:0:
109,192,65756,1,0,0:0:0:0:
329,192,65829,1,0,0:0:0:0:
475,192,65829,1,0,0:0:0:0:
36,192,65903,1,0,0:0:0:0:
182,192,65976,1,0,0:0:0:0:
402,192,65976,1,0,0:0:0:0:
256,192,66049,1,0,0:0:0:0:
36,192,66049,1,0,0:0:0:0:
109,192,66122,1,0,0:0:0:0:
329,192,66122,1,0,0:0:0:0:
182,192,66195,1,0,0:0:0:0:
402,192,66195,1,0,0:0:0:0:
256,192,66268,1,0,0:0:0:0:
475,192,66268,1,0,0:0:0:0:
36,192,66342,1,0,0:0:0:0:
329,192,66342,1,0,0:0:0:0:
109,192,66415,1,0,0:0:0:0:
256,192,66415,1,0,0:0:0:0:
402,192,66415,1,0,0:0:0:0:
182,192,66488,1,0,0:0:0:0:
329,192,66561,1,0,0:0:0:0:
475,192,66561,1,0,0:0:0:0:
36,192,66561,1,0,0:0:0:0:
182,192,66634,1,0,0:0:0:0:
256,192,66707,1,0,0:0:0:0:
109,192,66781,1,0,0:0:0:0:
402,192,66781,1,0,0:0:0:0:
329,192,66854,1,0,0:0:0:0:
36,192,66854,1,0,0:0:0:0:
182,192,66854,1,0,0:0:0:0:
475,192,66927,1,0,0:0:0:0:
256,192,67000,1,0,0:0:0:0:
109,192,67000,1,0,0:0:0:0:
402,192,67000,1,0,0:0:0:0:
36,192,67073,1,0,0:0:0:0:
329,192,67147,1,0,0:0:0:0:
182,192,67147,1,0,0:0:0:0:
475,192,67147,1,0,0:0:0:0:
109,192,67220,1,0,0:0:0:0:
36,192,67220,1,0,0:0:0:0:
256,192,67293,1,0,0:0:0:0:
402,192,67293,1,0,0:0:0:0:
329,192,67366,1,0,0:0:0:0:
36,192,67366,1,0,0:0:0:0:
109,192,67439,1,0,0:0:0:0:
475,192,67439,1,0,0:0:0:0:
256,192,67439,1,0,0:0:0:0:
182,192,67512,1,0,0:0:0:0:
329,192,67586,1,0,0:0:0:0:
475,192,67586,1,0,0:0:0:0:
36,192,67586,1,0,0:0:0:0:
182,192,67659,1,0,0:0:0:0:
256,192,67732,1,0,0:0:0:0:
402,192,67732,1,0,0:0:0:0:
36,192,67732,1,0,0:0:0:0:
109,192,67805,1,0,0:0:0:0:
182,192,67878,1,0,0:0:0:0:
475,192,67878,1,0,0:0:0:0:
109,192,67951,1,0,0:0:0:0:
402,192,67951,1,0,0:0:0:0:
36,192,68025,1,0,0:0:0:0:
256,192,68025,1,0,0:0:0:0:
329,192,68025,1,0,0:0:0:0:
475,192,68098,1,0,0:0:0:0:
182,192,68171,1,0,0:0:0:0:
256,192,68171,1,0,0:0:0:0:
329,192,68244,1,0,0:0:0:0:
109,192,68317,1,0,0:0:0:0:
182,192,68317,1,0,0:0:0:0:
475,192,68317,1,0,0:0:0:0:
256,192,68390,1,0,0:0:0:0:
402,192,68390,1,0,0:0:0:0:
36,192,68464,1,0,0:0:0:0:
109,192,68464,1,0,0:0:0:0:
329,192,68537,1,0,0:0:0:0:
182,192,68537,1,0,0:0:0:0:
36,192,68610,1,0,0:0:0:0:
256,192,68610,1,0,0:0:0:0:
475,192,68610,1,0,0:0:0:0:
402,192,68683,1,0,0:0:0:0:
182,192,68756,1,0,0:0:0:0:
109,192,68756,1,0,0:0:0:0:
329,192,68756,1,0,0:0:0:0:
475,192,68829,1,0,0:0:0:0:
36,192,68903,1,0,0:0:0:0:
256,192,68903,1,0,0:0:0:0:
402,192,68903,1,0,0:0:0:0:
329,192,68976,1,0,0:0:0:0:
256,192,69049,1,0,0:0:0:0:
402,192,69122,1,0,0:0:0:0:
182,192,69122,1,0,0:0:0:0:
109,192,69195,1,0,0:0:0:0:
329,192,69195,1,0,0:0:0:0:
475,192,69195,1,0,0:0:0:0:
256,192,69268,1,0,0:0:0:0:
182,192,69342,1,0,0:0:0:0:
36,192,69342,1,0,0:0:0:0:
402,192,69342,1,0,0:0:0:0:
109,192,69415,1,0,0:0:0:0:
256,192,69415,1,0,0:0:0:0:
475,192,69488,1,0,0:0:0:0:
329,192,69488,1,0,0:0:0:0:
182,192,69488,1,0,0:0:0:0:
402,192,69561,1,0,0:0:0:0:
36,192,69561,1,0,0:0:0:0:
256,192,69561,1,0,0:0:0:0:
109,192,69634,1,0,0:0:0:0:
182,192,69707,1,0,0:0:0:0:
329,192,69707,1,0,0:0:0:0:
475,192,69707,1,0,0:0:0:0:
402,192,69781,1,0,0:0:0:0:
256,192,69781,1,0,0:0:0:0:
329,192,69854,1,0,0:0:0:0:
182,192,69927,1,0,0:0:0:0:
475,192,69927,1,0,0:0:0:0:
36,192,69927,1,0,0:0:0:0:
256,192,70000,1,0,0:0:0:0:
402,192,70073,1,0,0:0:0:0:
109,192,70073,1,0,0:0:0:0:
182,192,70147,1,0,0:0:0:0:
329,192,70220,1,0,0:0:0:0:
475,192,70220,1,0,0:0:0:0:
36,192,70293,1,0,0:0:0:0:
256,192,70293,1,0,0:0:0:0:
402,192,70366,1,0,0:0:0:0:
182,192,70366,1,0,0:0:0:0:
329,192,70439,1,0,0:0:0:0:
109,192,70512,1,0,0:0:0:0:
475,192,70512,1,0,0:0:0:0:
256,192,70586,1,0,0:0:0:0:
402,192,70659,1,0,0:0:0:0:
36,192,70659,1,0,0:0:0:0:
182,192,70732,1,0,0:0:0:0:
475,192,70732,1,0,0:0:0:0:
329,192,70805,1,0,0:0:0:0:
402,192,70878,1,0,0:0:0:0:
109,192,70878,1,0,0:0:0:0:
256,192,70951,1,0,0:0:0:0:
475,192,70951,1,0,0:0:0:0:
36,192,71025,1,0,0:0:0:0:
329,192,71098,1,0,0:0:0:0:
475,192,71098,1,0,0:0:0:0:
182,192,71098,1,0,0:0:0:0:
109,192,71171,1,0,0:0:0:0:
256,192,71244,1,0,0:0:0:0:
402,192,71244,1,0,0:0:0:0:
182,192,71317,1,0,0:0:0:0:
329,192,71390,1,0,0:0:0:0:
256,192,71464,1,0,0:0:0:0:
475,192,71464,1,0,0:0:0:0:
36,192,71537,1,0,0:0:0:0:
182,192,71537,1,0,0:0:0:0:
329,192,71610,1,0,0:0:0:0:
109,192,71683,1,0,0:0:0:0:
475,192,71683,1,0,0:0:0:0:
402,192,71756,1,0,0:0:0:0:
182,192,71829,1,0,0:0:0:0:
36,192,71829,1,0,0:0:0:0:
329,192,71903,1,0,0:0:0:0:
475,192,71903,1,0,0:0:0:0:
109,192,71976,1,0,0:0:0:0:
402,192,72049,1,0,0:0:0:0:
182,192,72049,1,0,0:0:0:0:
36,192,72122,1,0,0:0:0:0:
329,192,72122,1,0,0:0:0:0:
475,192,72195,1,0,0:0:0:0:
109,192,72268,1,0,0:0:0:0:
256,192,72268,1,0,0:0:0:0:
329,192,72342,1,0,0:0:0:0:
182,192,72415,1,0,0:0:0:0:
36,192,72415,1,0,0:0:0:0:
402,192,72488,1,0,0:0:0:0:
109,192,72561,1,0,0:0:0:0:
256,192,72561,1,0,0:0:0:0:
475,192,72634,1,0,0:0:0:0:
329,192,72634,1,0,0:0:0:0:
182,192,72707,1,0,0:0:0:0:
36,192,72707,1,0,0:0:0:0:
402,192,72781,1,0,0:0:0:0:
256,192,72854,1,0,0:0:0:0:
109,192,72854,1,0,0:0:0:0:
475,192,72927,1,0,0:0:0:0:
36,192,73000,1,0,0:0:0:0:
329,192,73000,1,0,0:0:0:0:
256,192,73073,1,0,0:0:0:0:
109,192,73147,1,0,0:0:0:0:
402,192,73147,1,0,0:0:0:0:
182,192,73220,1,0,0:0:0:0:
329,192,73220,1,0,0:0:0:0:
36,192,73293,1,0,0:0:0:0:
475,192,73293,1,0,0:0:0:0:
256,192,73366,1,0,0:0:0:0:
402,192,73439,1,0,0:0:0:0:
109,192,73439,1,0,0:0:0:0:
329,192,73439,1,0,0:0:0:0:
256,192,73586,1,0,0:0:0:0:
36,192,73586,1,0,0:0:0:0:
475,192,73732,1,0,0:0:0:0:
109,192,73732,1,0,0:0:0:0:
329,192,73732,1,0,0:0:0:0:
475,192,73878,1,0,0:0:0:0:
109,192,73878,1,0,0:0:0:0:
329,192,73878,1,0,0:0:0:0:
402,192,74025,1,0,0:0:0:0:
182,192,74025,1,0,0:0:0:0:
475,192,74171,1,0,0:0:0:0:
36,192,74171,1,0,0:0:0:0:
256,192,74171,1,0,0:0:0:0:
36,192,74317,1,0,0:0:0:0:
256,192,74317,1,0,0:0:0:0:
475,192,74317,1,0,0:0:0:0:
182,192,74464,1,0,0:0:0:0:
402,192,74610,1,0,0:0:0:0:
329,192,74610,1,0,0:0:0:0:
109,192,74683,1,0,0:0:0:0:
182,192,74683,1,0,0:0:0:0:
402,192,74756,1,0,0:0:0:0:
475,192,74756,1,0,0:0:0:0:
256,192,74829,1,0,0:0:0:0:
182,192,74829,1,0,0:0:0:0:
475,192,74903,1,0,0:0:0:0:
36,192,74903,1,0,0:0:0:0:
256,192,74976,1,0,0:0:0:0:
329,192,74976,1,0,0:0:0:0:
109,192,75049,1,0,0:0:0:0:
36,192,75049,1,0,0:0:0:0:
329,192,75122,1,0,0:0:0:0:
402,192,75122,1,0,0:0:0:0:
256,192,75195,1,0,0:0:0:0:
182,192,75195,1,0,0:0:0:0:
109,192,75195,1,0,0:0:0:0:
475,192,75268,1,0,0:0:0:0:
36,192,75342,1,0,0:0:0:0:
329,192,75342,1,0,0:0:0:0:
402,192,75415,1,0,0:0:0:0:
109,192,75415,1,0,0:0:0:0:
182,192,75488,1,0,0:0:0:0:
475,192,75488,1,0,0:0:0:0:
36,192,75561,1,0,0:0:0:0:
182,192,75634,1,0,0:0:0:0:
402,192,75634,1,0,0:0:0:0:
329,192,75707,1,0,0:0:0:0:
109,192,75707,1,0,0:0:0:0:
256,192,75781,1,0,0:0:0:0:
475,192,75781,128,0,76366:0:0:0:0:
36,192,75781,1,0,0:0:0:0:
109,192,75927,1,0,0:0:0:0:
329,192,75927,1,0,0:0:0:0:
36,192,76073,1,0,0:0:0:0:
402,192,76147,1,0,0:0:0:0:
182,192,76147,1,0,0:0:0:0:
109,192,76220,1,0,0:0:0:0:
329,192,76220,1,0,0:0:0:0:
36,192,76366,1,0,0:0:0:0:
182,192,76366,1,0,0:0:0:0:
475,192,76512,1,0,0:0:0:0:
329,192,76512,1,0,0:0:0:0:
256,192,76586,1,0,0:0:0:0:
109,192,76659,1,0,0:0:0:0:
402,192,76659,1,0,0:0:0:0:
256,192,76732,1,0,0:0:0:0:
182,192,76805,1,0,0:0:0:0:
36,192,76805,1,0,0:0:0:0:
109,192,76951,1,0,0:0:0:0:
329,192,76951,1,0,0:0:0:0:
182,192,77098,1,0,0:0:0:0:
402,192,77098,1,0,0:0:0:0:
256,192,77244,1,0,0:0:0:0:
36,192,77244,1,0,0:0:0:0:
182,192,77317,1,0,0:0:0:0:
402,192,77390,1,0,0:0:0:0:
109,192,77390,1,0,0:0:0:0:
256,192,77537,1,0,0:0:0:0:
475,192,77610,1,0,0:0:0:0:
329,192,77683,1,0,0:0:0:0:
182,192,77683,1,0,0:0:0:0:
109,192,77756,1,0,0:0:0:0:
36,192,77829,1,0,0:0:0:0:
256,192,77829,1,0,0:0:0:0:
329,192,77903,1,0,0:0:0:0:
402,192,77976,1,0,0:0:0:0:
182,192,77976,1,0,0:0:0:0:
36,192,78122,128,0,78707:0:0:0:0:
256,192,78122,1,0,0:0:0:0:
475,192,78122,1,0,0:0:0:0:
182,192,78268,1,0,0:0:0:0:
329,192,78268,1,0,0:0:0:0:
475,192,78415,1,0,0:0:0:0:
109,192,78488,1,0,0:0:0:0:
256,192,78488,1,0,0:0:0:0:
182,192,78561,1,0,0:0:0:0:
329,192,78561,1,0,0:0:0:0:
402,192,78707,1,0,0:0:0:0:
256,192,78707,1,0,0:0:0:0:
475,192,78854,1,0,0:0:0:0:
36,192,78854,1,0,0:0:0:0:
256,192,78927,1,0,0:0:0:0:
402,192,79000,1,0,0:0:0:0:
109,192,79000,1,0,0:0:0:0:
256,192,79073,1,0,0:0:0:0:
329,192,79147,1,0,0:0:0:0:
182,192,79147,1,0,0:0:0:0:
36,192,79293,1,0,0:0:0:0:
109,192,79293,1,0,0:0:0:0:
475,192,79439,1,0,0:0:0:0:
402,192,79439,1,0,0:0:0:0:
329,192,79586,1,0,0:0:0:0:
182,192,79586,1,0,0:0:0:0:
256,192,79659,1,0,0:0:0:0:
36,192,79732,1,0,0:0:0:0:
475,192,79732,1,0,0:0:0:0:
329,192,79878,1,0,0:0:0:0:
182,192,79951,1,0,0:0:0:0:
256,192,80025,1,0,0:0:0:0:
402,192,80025,1,0,0:0:0:0:
109,192,80098,1,0,0:0:0:0:
329,192,80171,1,0,0:0:0:0:
182,192,80171,1,0,0:0:0:0:
36,192,80244,1,0,0:0:0:0:
109,192,80317,1,0,0:0:0:0:
402,192,80317,1,0,0:0:0:0:
475,192,80464,1,0,0:0:0:0:
182,192,80464,1,0,0:0:0:0:
329,192,80537,1,0,0:0:0:0:
109,192,80610,1,0,0:0:0:0:
256,192,80610,1,0,0:0:0:0:
402,192,80683,1,0,0:0:0:0:
475,192,80756,1,0,0:0:0:0:
329,192,80829,1,0,0:0:0:0:
182,192,80829,1,0,0:0:0:0:
109,192,80903,1,0,0:0:0:0:
256,192,80903,1,0,0:0:0:0:
402,192,80976,1,0,0:0:0:0:
475,192,81049,1,0,0:0:0:0:
182,192,81049,1,0,0:0:0:0:
329,192,81122,1,0,0:0:0:0:
256,192,81195,1,0,0:0:0:0:
109,192,81195,1,0,0:0:0:0:
329,192,81268,1,0,0:0:0:0:
182,192,81268,1,0,0:0:0:0:
475,192,81342,1,0,0:0:0:0:
182,192,81415,1,0,0:0:0:0:
329,192,81415,1,0,0:0:0:0:
256,192,81488,1,0,0:0:0:0:
109,192,81488,1,0,0:0:0:0:
402,192,81561,1,0,0:0:0:0:
36,192,81634,1,0,0:0:0:0:
475,192,81634,1,0,0:0:0:0:
182,192,81707,1,0,0:0:0:0:
256,192,81781,1,0,0:0:0:0:
402,192,81781,1,0,0:0:0:0:
329,192,81854,1,0,0:0:0:0:
36,192,81927,1,0,0:0:0:0:
475,192,81927,1,0,0:0:0:0:
256,192,82000,1,0,0:0:0:0:
109,192,82000,1,0,0:0:0:0:
182,192,82073,1,0,0:0:0:0:
402,192,82073,1,0,0:0:0:0:
329,192,82147,1,0,0:0:0:0:
36,192,82220,1,0,0:0:0:0:
475,192,82220,1,0,0:0:0:0:
182,192,82293,1,0,0:0:0:0:
256,192,82366,1,0,0:0:0:0:
402,192,82366,1,0,0:0:0:0:
329,192,82439,1,0,0:0:0:0:
36,192,82512,1,0,0:0:0:0:
256,192,82586,1,0,0:0:0:0:
109,192,82586,1,0,0:0:0:0:
182,192,82659,1,0,0:0:0:0:
402,192,82659,1,0,0:0:0:0:
329,192,82732,1,0,0:0:0:0:
256,192,82805,1,0,0:0:0:0:
475,192,82805,1,0,0:0:0:0:
329,192,82878,1,0,0:0:0:0:
182,192,82951,1,0,0:0:0:0:
36,192,82951,1,0,0:0:0:0:
109,192,83025,1,0,0:0:0:0:
256,192,83098,1,0,0:0:0:0:
329,192,83171,1,0,0:0:0:0:
475,192,83171,1,0,0:0:0:0:
182,192,83244,1,0,0:0:0:0:
36,192,83244,1,0,0:0:0:0:
109,192,83317,1,0,0:0:0:0:
256,192,83390,1,0,0:0:0:0:
475,192,83390,1,0,0:0:0:0:
329,192,83464,1,0,0:0:0:0:
182,192,83537,1,0,0:0:0:0:
36,192,83537,1,0,0:0:0:0:
109,192,83610,1,0,0:0:0:0:
402,192,83610,1,0,0:0:0:0:
256,192,83683,1,0,0:0:0:0:
329,192,83756,1,0,0:0:0:0:
475,192,83756,1,0,0:0:0:0:
182,192,83829,1,0,0:0:0:0:
36,192,83829,1,0,0:0:0:0:
109,192,83903,1,0,0:0:0:0:
475,192,83976,1,0,0:0:0:0:
329,192,84049,1,0,0:0:0:0:
109,192,84122,1,0,0:0:0:0:
256,192,84122,1,0,0:0:0:0:
182,192,84195,1,0,0:0:0:0:
36,192,84268,1,0,0:0:0:0:
329,192,84342,1,0,0:0:0:0:
402,192,84415,1,0,0:0:0:0:
256,192,84415,1,0,0:0:0:0:
109,192,84415,1,0,0:0:0:0:
329,192,84488,1,0,0:0:0:0:
182,192,84488,1,0,0:0:0:0:
475,192,84561,1,0,0:0:0:0:
256,192,84634,1,0,0:0:0:0:
402,192,84707,1,0,0:0:0:0:
36,192,84707,1,0,0:0:0:0:
182,192,84781,1,0,0:0:0:0:
329,192,84854,1,0,0:0:0:0:
475,192,84854,1,0,0:0:0:0:
109,192,84927,1,0,0:0:0:0:
256,192,85000,1,0,0:0:0:0:
402,192,85000,1,0,0:0:0:0:
36,192,85073,1,0,0:0:0:0:
475,192,85147,128,0,85732:0:0:0:0:
329,192,85147,1,0,0:0:0:0:
182,192,85147,1,0,0:0:0:0:
109,192,85293,1,0,0:0:0:0:
402,192,85293,1,0,0:0:0:0:
36,192,85366,1,0,0:0:0:0:
256,192,85439,1,0,0:0:0:0:
182,192,85512,1,0,0:0:0:0:
329,192,85512,1,0,0:0:0:0:
109,192,85586,1,0,0:0:0:0:
402,192,85586,1,0,0:0:0:0:
182,192,85732,1,0,0:0:0:0:
36,192,85732,1,0,0:0:0:0:
109,192,85805,1,0,0:0:0:0:
475,192,85878,1,0,0:0:0:0:
329,192,85878,1,0,0:0:0:0:
402,192,85951,1,0,0:0:0:0:
256,192,86025,1,0,0:0:0:0:
36,192,86025,1,0,0:0:0:0:
109,192,86098,1,0,0:0:0:0:
329,192,86171,1,0,0:0:0:0:
475,192,86171,1,0,0:0:0:0:
36,192,86317,1,0,0:0:0:0:
182,192,86317,1,0,0:0:0:0:
329,192,86464,1,0,0:0:0:0:
475,192,86464,1,0,0:0:0:0:
256,192,86610,1,0,0:0:0:0:
109,192,86610,1,0,0:0:0:0:
329,192,86683,1,0,0:0:0:0:
475,192,86756,1,0,0:0:0:0:
182,192,86756,1,0,0:0:0:0:
36,192,86903,1,0,0:0:0:0:
475,192,87049,1,0,0:0:0:0:
256,192,87049,1,0,0:0:0:0:
402,192,87122,1,0,0:0:0:0:
109,192,87195,1,0,0:0:0:0:
329,192,87195,1,0,0:0:0:0:
182,192,87268,1,0,0:0:0:0:
402,192,87342,1,0,0:0:0:0:
256,192,87342,1,0,0:0:0:0:
36,192,87488,128,0,88073:0:0:0:0:
329,192,87488,1,0,0:0:0:0:
182,192,87488,1,0,0:0:0:0:
402,192,87634,1,0,0:0:0:0:
109,192,87634,1,0,0:0:0:0:
329,192,87781,1,0,0:0:0:0:
109,192,87854,1,0,0:0:0:0:
402,192,87854,1,0,0:0:0:0:
475,192,87927,1,0,0:0:0:0:
182,192,87927,1,0,0:0:0:0:
256,192,88073,1,0,0:0:0:0:
402,192,88073,1,0,0:0:0:0:
475,192,88220,1,0,0:0:0:0:
329,192,88220,1,0,0:0:0:0:
256,192,88293,1,0,0:0:0:0:
36,192,88366,1,0,0:0:0:0:
182,192,88366,1,0,0:0:0:0:
256,192,88439,1,0,0:0:0:0:
109,192,88512,1,0,0:0:0:0:
402,192,88512,1,0,0:0:0:0:
182,192,88659,1,0,0:0:0:0:
329,192,88659,1,0,0:0:0:0:
475,192,88805,1,0,0:0:0:0:
36,192,88805,1,0,0:0:0:0:
182,192,88951,1,0,0:0:0:0:
402,192,88951,1,0,0:0:0:0:
329,192,89025,1,0,0:0:0:0:
475,192,89098,1,0,0:0:0:0:
256,192,89098,1,0,0:0:0:0:
109,192,89098,1,0,0:0:0:0:
329,192,89244,1,0,0:0:0:0:
36,192,89390,1,0,0:0:0:0:
182,192,89390,1,0,0:0:0:0:
402,192,89390,1,0,0:0:0:0:
256,192,89464,1,0,0:0:0:0:
329,192,89537,1,0,0:0:0:0:
475,192,89537,1,0,0:0:0:0:
109,192,89537,1,0,0:0:0:0:
256,192,89610,1,0,0:0:0:0:
36,192,89683,1,0,0:0:0:0:
182,192,89683,1,0,0:0:0:0:
402,192,89683,1,0,0:0:0:0:
109,192,89829,1,0,0:0:0:0:
256,192,89829,1,0,0:0:0:0:
182,192,89903,1,0,0:0:0:0:
475,192,89976,1,0,0:0:0:0:
329,192,89976,1,0,0:0:0:0:
256,192,90049,1,0,0:0:0:0:
109,192,90122,1,0,0:0:0:0:
182,192,90195,1,0,0:0:0:0:
36,192,90195,1,0,0:0:0:0:
475,192,90268,1,0,0:0:0:0:
329,192,90268,1,0,0:0:0:0:
402,192,90342,1,0,0:0:0:0:
256,192,90415,1,0,0:0:0:0:
109,192,90415,1,0,0:0:0:0:
182,192,90488,1,0,0:0:0:0:
475,192,90561,1,0,0:0:0:0:
329,192,90561,1,0,0:0:0:0:
256,192,90634,1,0,0:0:0:0:
109,192,90634,1,0,0:0:0:0:
182,192,90707,1,0,0:0:0:0:
329,192,90781,1,0,0:0:0:0:
475,192,90781,1,0,0:0:0:0:
36,192,90854,1,0,0:0:0:0:
182,192,90854,1,0,0:0:0:0:
256,192,90927,1,0,0:0:0:0:
475,192,91000,1,0,0:0:0:0:
329,192,91000,1,0,0:0:0:0:
402,192,91073,1,0,0:0:0:0:
36,192,91147,1,0,0:0:0:0:
182,192,91147,1,0,0:0:0:0:
256,192,91220,1,0,0:0:0:0:
329,192,91293,1,0,0:0:0:0:
475,192,91293,1,0,0:0:0:0:
109,192,91366,1,0,0:0:0:0:
402,192,91366,1,0,0:0:0:0:
182,192,91439,1,0,0:0:0:0:
36,192,91439,1,0,0:0:0:0:
256,192,91512,1,0,0:0:0:0:
329,192,91586,1,0,0:0:0:0:
475,192,91586,1,0,0:0:0:0:
402,192,91659,1,0,0:0:0:0:
256,192,91732,1,0,0:0:0:0:
36,192,91732,1,0,0:0:0:0:
329,192,91805,1,0,0:0:0:0:
109,192,91805,1,0,0:0:0:0:
475,192,91878,1,0,0:0:0:0:
109,192,91951,1,0,0:0:0:0:
329,192,91951,1,0,0:0:0:0:
36,192,92025,1,0,0:0:0:0:
256,192,92025,1,0,0:0:0:0:
329,192,92098,1,0,0:0:0:0:
109,192,92171,1,0,0:0:0:0:
402,192,92171,1,0,0:0:0:0:
182,192,92244,1,0,0:0:0:0:
475,192,92317,1,0,0:0:0:0:
256,192,92317,1,0,0:0:0:0:
329,192,92390,1,0,0:0:0:0:
402,192,92464,1,0,0:0:0:0:
36,192,92537,1,0,0:0:0:0:
182,192,92537,1,0,0:0:0:0:
475,192,92610,1,0,0:0:0:0:
256,192,92610,1,0,0:0:0:0:
329,192,92683,1,0,0:0:0:0:
109,192,92756,1,0,0:0:0:0:
402,192,92756,1,0,0:0:0:0:
182,192,92829,1,0,0:0:0:0:
256,192,92903,1,0,0:0:0:0:
475,192,92903,1,0,0:0:0:0:
109,192,92976,1,0,0:0:0:0:
329,192,92976,1,0,0:0:0:0:
402,192,93049,1,0,0:0:0:0:
36,192,93122,1,0,0:0:0:0:
182,192,93122,1,0,0:0:0:0:
256,192,93195,1,0,0:0:0:0:
109,192,93195,1,0,0:0:0:0:
329,192,93268,1,0,0:0:0:0:
36,192,93342,5,0,0:0:0:0:
475,192,93342,1,0,0:0:0:0:
36,192,93415,1,0,0:0:0:0:
475,192,93415,1,0,0:0:0:0:
109,192,93488,1,0,0:0:0:0:
402,192,93488,1,0,0:0:0:0:
182,192,93561,1,0,0:0:0:0:
329,192,93561,1,0,0:0:0:0:
36,192,93634,1,0,0:0:0:0:
475,192,93634,1,0,0:0:0:0:
256,192,93707,1,0,0:0:0:0:
36,192,93781,1,0,0:0:0:0:
475,192,93781,1,0,0:0:0:0:
256,192,93927,1,0,0:0:0:0:
36,192,94073,1,0,0:0:0:0:
475,192,94073,1,0,0:0:0:0:
182,192,94147,1,0,0:0:0:0:
329,192,94147,1,0,0:0:0:0:
36,192,94220,1,0,0:0:0:0:
475,192,94220,1,0,0:0:0:0:
329,192,94293,1,0,0:0:0:0:
256,192,94366,1,0,0:0:0:0:
182,192,94439,1,0,0:0:0:0:
109,192,94512,5,0,0:0:0:0:
475,192,94512,1,0,0:0:0:0:
329,192,94512,128,0,94805:0:0:0:0:
36,192,94586,1,0,0:0:0:0:
109,192,94659,1,0,0:0:0:0:
36,192,94732,1,0,0:0:0:0:
109,192,94805,1,0,0:0:0:0:
329,192,94951,1,0,0:0:0:0:
36,192,95098,1,0,0:0:0:0:
475,192,95098,1,0,0:0:0:0:
329,192,95098,128,0,95390:0:0:0:0:
182,192,95244,1,0,0:0:0:0:
109,192,95390,1,0,0:0:0:0:
256,192,95390,1,0,0:0:0:0:
182,192,95537,1,0,0:0:0:0:
329,192,95537,1,0,0:0:0:0:
256,192,95683,128,0,96049:0:0:0:0:
109,192,95683,1,0,0:0:0:0:
402,192,95683,1,0,0:0:0:0:
475,192,95829,1,0,0:0:0:0:
36,192,95976,1,0,0:0:0:0:
109,192,96122,1,0,0:0:0:0:
402,192,96122,1,0,0:0:0:0:
256,192,96122,128,0,96342:0:0:0:0:
475,192,96268,1,0,0:0:0:0:
109,192,96415,1,0,0:0:0:0:
402,192,96415,1,0,0:0:0:0:
256,192,96415,128,0,96854:0:0:0:0:
329,192,96561,1,0,0:0:0:0:
182,192,96561,1,0,0:0:0:0:
109,192,96707,1,0,0:0:0:0:
402,192,96707,1,0,0:0:0:0:
36,192,96854,1,0,0:0:0:0:
475,192,96854,1,0,0:0:0:0:
182,192,96854,128,0,97147:0:0:0:0:
475,192,97147,1,0,0:0:0:0:
329,192,97147,1,0,0:0:0:0:
109,192,97293,1,0,0:0:0:0:
256,192,97293,1,0,0:0:0:0:
475,192,97439,1,0,0:0:0:0:
36,192,97439,1,0,0:0:0:0:
182,192,97439,128,0,97732:0:0:0:0:
329,192,97512,1,0,0:0:0:0:
36,192,97732,1,0,0:0:0:0:
475,192,97732,1,0,0:0:0:0:
182,192,97878,1,0,0:0:0:0:
329,192,97878,1,0,0:0:0:0:
109,192,98025,1,0,0:0:0:0:
256,192,98025,1,0,0:0:0:0:
402,192,98025,128,0,98171:0:0:0:0:
36,192,98098,1,0,0:0:0:0:
109,192,98171,1,0,0:0:0:0:
36,192,98244,1,0,0:0:0:0:
109,192,98317,1,0,0:0:0:0:
109,192,98464,1,0,0:0:0:0:
256,192,98464,1,0,0:0:0:0:
402,192,98464,128,0,98756:0:0:0:0:
182,192,98537,1,0,0:0:0:0:
329,192,98756,128,0,98903:0:0:0:0:
475,192,98756,1,0,0:0:0:0:
256,192,98903,128,0,99049:0:0:0:0:
402,192,98903,1,0,0:0:0:0:
182,192,99049,128,0,99195:0:0:0:0:
329,192,99049,1,0,0:0:0:0:
402,192,99122,1,0,0:0:0:0:
256,192,99195,1,0,0:0:0:0:
475,192,99195,1,0,0:0:0:0:
36,192,99195,128,0,100366:0:0:0:0:
182,192,99342,1,0,0:0:0:0:
402,192,99342,1,0,0:0:0:0:
329,192,99488,1,0,0:0:0:0:
402,192,99561,1,0,0:0:0:0:
256,192,99634,1,0,0:0:0:0:
475,192,99634,1,0,0:0:0:0:
182,192,99781,1,0,0:0:0:0:
475,192,99927,1,0,0:0:0:0:
256,192,99927,1,0,0:0:0:0:
329,192,100000,1,0,0:0:0:0:
402,192,100073,1,0,0:0:0:0:
329,192,100147,1,0,0:0:0:0:
256,192,100220,1,0,0:0:0:0:
109,192,100220,1,0,0:0:0:0:
182,192,100366,1,0,0:0:0:0:
329,192,100366,1,0,0:0:0:0:
475,192,100366,128,0,100951:0:0:0:0:
256,192,100512,1,0,0:0:0:0:
109,192,100512,1,0,0:0:0:0:
36,192,100659,1,0,0:0:0:0:
109,192,100732,1,0,0:0:0:0:
329,192,100805,1,0,0:0:0:0:
182,192,100805,1,0,0:0:0:0:
109,192,100878,1,0,0:0:0:0:
36,192,100951,128,0,101537:0:0:0:0:
402,192,100951,1,0,0:0:0:0:
256,192,100951,1,0,0:0:0:0:
182,192,101025,1,0,0:0:0:0:
475,192,101098,1,0,0:0:0:0:
329,192,101098,1,0,0:0:0:0:
256,192,101171,1,0,0:0:0:0:
182,192,101244,1,0,0:0:0:0:
256,192,101317,1,0,0:0:0:0:
329,192,101390,1,0,0:0:0:0:
109,192,101390,1,0,0:0:0:0:
182,192,101537,1,0,0:0:0:0:
475,192,101537,128,0,101683:0:0:0:0:
109,192,101610,1,0,0:0:0:0:
36,192,101683,1,0,0:0:0:0:
329,192,101683,1,0,0:0:0:0:
109,192,101829,1,0,0:0:0:0:
402,192,101829,1,0,0:0:0:0:
36,192,101976,128,0,102122:0:0:0:0:
329,192,101976,1,0,0:0:0:0:
402,192,102049,1,0,0:0:0:0:
182,192,102122,1,0,0:0:0:0:
475,192,102122,1,0,0:0:0:0:
329,192,102195,1,0,0:0:0:0:
402,192,102268,1,0,0:0:0:0:
109,192,102268,1,0,0:0:0:0:
182,192,102342,1,0,0:0:0:0:
475,192,102415,128,0,102707:0:0:0:0:
36,192,102415,1,0,0:0:0:0:
109,192,102488,1,0,0:0:0:0:
402,192,102488,1,0,0:0:0:0:
256,192,102488,1,0,0:0:0:0:
329,192,102488,1,0,0:0:0:0:
182,192,102561,1,0,0:0:0:0:
109,192,102634,1,0,0:0:0:0:
36,192,102707,1,0,0:0:0:0:
329,192,102707,1,0,0:0:0:0:
402,192,102781,1,0,0:0:0:0:
36,192,102854,1,0,0:0:0:0:
475,192,102854,1,0,0:0:0:0:
109,192,102927,1,0,0:0:0:0:
402,192,102927,1,0,0:0:0:0:
182,192,103000,1,0,0:0:0:0:
329,192,103000,1,0,0:0:0:0:
256,192,103073,1,0,0:0:0:0:
329,192,103147,1,0,0:0:0:0:
182,192,103147,1,0,0:0:0:0:
109,192,103220,1,0,0:0:0:0:
402,192,103220,1,0,0:0:0:0:
36,192,103293,1,0,0:0:0:0:
475,192,103293,1,0,0:0:0:0:
402,192,103366,1,0,0:0:0:0:
109,192,103366,1,0,0:0:0:0:
329,192,103439,1,0,0:0:0:0:
182,192,103439,1,0,0:0:0:0:
402,192,103512,1,0,0:0:0:0:
109,192,103512,1,0,0:0:0:0:
36,192,103586,1,0,0:0:0:0:
256,192,103586,1,0,0:0:0:0:
475,192,103586,1,0,0:0:0:0:
256,192,103878,128,0,105049:0:0:0:0:
109,192,103878,1,0,0:0:0:0:
402,192,103878,1,0,0:0:0:0:
329,192,104171,1,0,0:0:0:0:
36,192,104171,1,0,0:0:0:0:
402,192,104317,1,0,0:0:0:0:
182,192,104464,1,0,0:0:0:0:
475,192,104464,1,0,0:0:0:0:
109,192,104610,1,0,0:0:0:0:
182,192,104683,1,0,0:0:0:0:
36,192,104756,1,0,0:0:0:0:
329,192,104756,1,0,0:0:0:0:
402,192,104903,1,0,0:0:0:0:
475,192,105049,128,0,106220:0:0:0:0:
329,192,105049,1,0,0:0:0:0:
109,192,105049,1,0,0:0:0:0:
182,192,105195,1,0,0:0:0:0:
36,192,105342,1,0,0:0:0:0:
256,192,105342,1,0,0:0:0:0:
109,192,105488,1,0,0:0:0:0:
402,192,105634,1,0,0:0:0:0:
182,192,105634,1,0,0:0:0:0:
256,192,105781,1,0,0:0:0:0:
182,192,105854,1,0,0:0:0:0:
109,192,105927,1,0,0:0:0:0:
329,192,105927,1,0,0:0:0:0:
256,192,106073,1,0,0:0:0:0:
329,192,106220,128,0,107390:0:0:0:0:
36,192,106220,1,0,0:0:0:0:
182,192,106220,1,0,0:0:0:0:
402,192,106512,1,0,0:0:0:0:
109,192,106512,1,0,0:0:0:0:
256,192,106659,1,0,0:0:0:0:
36,192,106805,1,0,0:0:0:0:
475,192,106805,1,0,0:0:0:0:
256,192,106951,1,0,0:0:0:0:
182,192,107025,1,0,0:0:0:0:
109,192,107098,1,0,0:0:0:0:
402,192,107098,1,0,0:0:0:0:
256,192,107244,1,0,0:0:0:0:
182,192,107390,128,0,107976:0:0:0:0:
36,192,107390,1,0,0:0:0:0:
475,192,107390,1,0,0:0:0:0:
402,192,107683,1,0,0:0:0:0:
109,192,107683,1,0,0:0:0:0:
329,192,107829,1,0,0:0:0:0:
402,192,107903,1,0,0:0:0:0:
475,192,107976,1,0,0:0:0:0:
36,192,107976,1,0,0:0:0:0:
109,192,108049,1,0,0:0:0:0:
475,192,108122,1,0,0:0:0:0:
182,192,108122,1,0,0:0:0:0:
402,192,108195,1,0,0:0:0:0:
256,192,108268,1,0,0:0:0:0:
36,192,108268,1,0,0:0:0:0:
329,192,108268,1,0,0:0:0:0:
109,192,108342,1,0,0:0:0:0:
475,192,108415,1,0,0:0:0:0:
182,192,108415,1,0,0:0:0:0:
402,192,108488,1,0,0:0:0:0:
256,192,108561,128,0,109732:0:0:0:0:
36,192,108561,1,0,0:0:0:0:
329,192,108561,1,0,0:0:0:0:
182,192,108854,1,0,0:0:0:0:
475,192,108854,1,0,0:0:0:0:
109,192,109000,1,0,0:0:0:0:
36,192,109147,1,0,0:0:0:0:
329,192,109147,1,0,0:0:0:0:
402,192,109293,1,0,0:0:0:0:
329,192,109366,1,0,0:0:0:0:
182,192,109439,1,0,0:0:0:0:
475,192,109439,1,0,0:0:0:0:
109,192,109586,1,0,0:0:0:0:
182,192,109732,128,0,110903:0:0:0:0:
36,192,109732,1,0,0:0:0:0:
402,192,109732,1,0,0:0:0:0:
109,192,110025,1,0,0:0:0:0:
475,192,110025,1,0,0:0:0:0:
329,192,110171,1,0,0:0:0:0:
36,192,110317,1,0,0:0:0:0:
402,192,110317,1,0,0:0:0:0:
329,192,110464,1,0,0:0:0:0:
256,192,110537,1,0,0:0:0:0:
109,192,110610,1,0,0:0:0:0:
475,192,110610,1,0,0:0:0:0:
256,192,110756,1,0,0:0:0:0:
109,192,110829,1,0,0:0:0:0:
256,192,110903,128,0,112073:0:0:0:0:
36,192,110903,1,0,0:0:0:0:
475,192,110903,1,0,0:0:0:0:
329,192,111049,1,0,0:0:0:0:
402,192,111122,1,0,0:0:0:0:
329,192,111195,1,0,0:0:0:0:
36,192,111342,1,0,0:0:0:0:
475,192,111342,1,0,0:0:0:0:
182,192,111488,1,0,0:0:0:0:
109,192,111561,1,0,0:0:0:0:
182,192,111634,1,0,0:0:0:0:
36,192,111781,1,0,0:0:0:0:
475,192,111781,1,0,0:0:0:0:
329,192,111927,1,0,0:0:0:0:
402,192,112000,1,0,0:0:0:0:
475,192,112073,128,0,112366:0:0:0:0:
36,192,112073,1,0,0:0:0:0:
329,192,112073,1,0,0:0:0:0:
182,192,112147,1,0,0:0:0:0:
36,192,112220,1,0,0:0:0:0:
182,192,112293,1,0,0:0:0:0:
329,192,112366,128,0,112659:0:0:0:0:
109,192,112366,1,0,0:0:0:0:
256,192,112439,1,0,0:0:0:0:
402,192,112512,1,0,0:0:0:0:
109,192,112512,1,0,0:0:0:0:
256,192,112586,1,0,0:0:0:0:
182,192,112659,128,0,112951:0:0:0:0:
36,192,112659,1,0,0:0:0:0:
475,192,112659,1,0,0:0:0:0:
329,192,112732,1,0,0:0:0:0:
475,192,112805,1,0,0:0:0:0:
329,192,112878,1,0,0:0:0:0:
36,192,112951,128,0,113244:0:0:0:0:
475,192,112951,128,0,113244:0:0:0:0:
256,192,112951,1,0,0:0:0:0:
256,192,113244,128,0,114415:0:0:0:0:
109,192,113244,1,0,0:0:0:0:
402,192,113244,1,0,0:0:0:0:
182,192,113317,1,0,0:0:0:0:
109,192,113390,1,0,0:0:0:0:
182,192,113464,1,0,0:0:0:0:
109,192,113537,1,0,0:0:0:0:
475,192,113537,1,0,0:0:0:0:
402,192,113610,1,0,0:0:0:0:
475,192,113683,1,0,0:0:0:0:
402,192,113756,1,0,0:0:0:0:
475,192,113829,1,0,0:0:0:0:
36,192,113829,1,0,0:0:0:0:
109,192,113903,1,0,0:0:0:0:
36,192,113976,1,0,0:0:0:0:
109,192,114049,1,0,0:0:0:0:
402,192,114122,1,0,0:0:0:0:
36,192,114122,1,0,0:0:0:0:
329,192,114195,1,0,0:0:0:0:
402,192,114268,1,0,0:0:0:0:
329,192,114342,1,0,0:0:0:0:
402,192,114415,128,0,115586:0:0:0:0:
36,192,114415,1,0,0:0:0:0:
475,192,114415,1,0,0:0:0:0:
109,192,114488,1,0,0:0:0:0:
182,192,114561,1,0,0:0:0:0:
109,192,114634,1,0,0:0:0:0:
36,192,114707,1,0,0:0:0:0:
475,192,114707,1,0,0:0:0:0:
329,192,114781,1,0,0:0:0:0:
256,192,114854,1,0,0:0:0:0:
329,192,114927,1,0,0:0:0:0:
475,192,115000,1,0,0:0:0:0:
36,192,115000,1,0,0:0:0:0:
109,192,115073,1,0,0:0:0:0:
182,192,115147,1,0,0:0:0:0:
109,192,115220,1,0,0:0:0:0:
36,192,115293,1,0,0:0:0:0:
475,192,115293,1,0,0:0:0:0:
329,192,115366,1,0,0:0:0:0:
256,192,115439,1,0,0:0:0:0:
329,192,115512,1,0,0:0:0:0:
109,192,115586,128,0,116756:0:0:0:0:
36,192,115586,1,0,0:0:0:0:
475,192,115586,1,0,0:0:0:0:
256,192,115659,1,0,0:0:0:0:
182,192,115732,1,0,0:0:0:0:
256,192,115805,1,0,0:0:0:0:
36,192,115878,1,0,0:0:0:0:
475,192,115878,1,0,0:0:0:0:
329,192,115951,1,0,0:0:0:0:
402,192,116025,1,0,0:0:0:0:
329,192,116098,1,0,0:0:0:0:
475,192,116171,1,0,0:0:0:0:
36,192,116171,1,0,0:0:0:0:
256,192,116244,1,0,0:0:0:0:
182,192,116317,1,0,0:0:0:0:
256,192,116390,1,0,0:0:0:0:
36,192,116464,1,0,0:0:0:0:
475,192,116464,1,0,0:0:0:0:
329,192,116537,1,0,0:0:0:0:
402,192,116610,1,0,0:0:0:0:
329,192,116683,1,0,0:0:0:0:
256,192,116756,128,0,117927:0:0:0:0:
475,192,116756,1,0,0:0:0:0:
36,192,116756,1,0,0:0:0:0:
109,192,116829,1,0,0:0:0:0:
182,192,116903,1,0,0:0:0:0:
109,192,116976,1,0,0:0:0:0:
36,192,117049,1,0,0:0:0:0:
475,192,117049,1,0,0:0:0:0:
402,192,117122,1,0,0:0:0:0:
329,192,117195,1,0,0:0:0:0:
182,192,117195,1,0,0:0:0:0:
109,192,117268,1,0,0:0:0:0:
36,192,117342,1,0,0:0:0:0:
109,192,117415,1,0,0:0:0:0:
329,192,117488,1,0,0:0:0:0:
182,192,117488,1,0,0:0:0:0:
402,192,117561,1,0,0:0:0:0:
36,192,117634,1,0,0:0:0:0:
475,192,117634,1,0,0:0:0:0:
402,192,117707,1,0,0:0:0:0:
109,192,117707,1,0,0:0:0:0:
182,192,117781,1,0,0:0:0:0:
329,192,117781,1,0,0:0:0:0:
402,192,117854,1,0,0:0:0:0:
36,192,117927,128,0,119098:0:0:0:0:
475,192,117927,1,0,0:0:0:0:
109,192,117927,1,0,0:0:0:0:
329,192,118000,1,0,0:0:0:0:
475,192,118073,1,0,0:0:0:0:
329,192,118147,1,0,0:0:0:0:
475,192,118220,1,0,0:0:0:0:
329,192,118293,1,0,0:0:0:0:
182,192,118366,1,0,0:0:0:0:
475,192,118366,1,0,0:0:0:0:
329,192,118439,1,0,0:0:0:0:
182,192,118512,1,0,0:0:0:0:
329,192,118586,1,0,0:0:0:0:
182,192,118659,1,0,0:0:0:0:
329,192,118732,1,0,0:0:0:0:
182,192,118805,1,0,0:0:0:0:
402,192,118805,1,0,0:0:0:0:
256,192,118878,1,0,0:0:0:0:
402,192,118951,1,0,0:0:0:0:
256,192,119025,1,0,0:0:0:0:
475,192,119098,128,0,120268:0:0:0:0:
402,192,119098,1,0,0:0:0:0:
109,192,119098,1,0,0:0:0:0:
256,192,119171,1,0,0:0:0:0:
109,192,119244,1,0,0:0:0:0:
256,192,119317,1,0,0:0:0:0:
109,192,119390,1,0,0:0:0:0:
256,192,119464,1,0,0:0:0:0:
109,192,119537,1,0,0:0:0:0:
182,192,119537,1,0,0:0:0:0:
329,192,119610,1,0,0:0:0:0:
182,192,119683,1,0,0:0:0:0:
329,192,119756,1,0,0:0:0:0:
182,192,119829,1,0,0:0:0:0:
329,192,119903,1,0,0:0:0:0:
36,192,119976,1,0,0:0:0:0:
402,192,119976,1,0,0:0:0:0:
182,192,119976,1,0,0:0:0:0:
329,192,120025,1,0,0:0:0:0:
109,192,120049,1,0,0:0:0:0:
256,192,120073,1,0,0:0:0:0:
182,192,120122,1,0,0:0:0:0:
402,192,120122,1,0,0:0:0:0:
329,192,120171,1,0,0:0:0:0:
109,192,120195,1,0,0:0:0:0:
256,192,120220,1,0,0:0:0:0:
36,192,120268,1,0,0:0:0:0:
402,192,120268,1,0,0:0:0:0:
182,192,120268,1,0,0:0:0:0:
329,192,120317,1,0,0:0:0:0:
256,192,120366,1,0,0:0:0:0:
182,192,120415,1,0,0:0:0:0:
329,192,120464,1,0,0:0:0:0:
109,192,120488,1,0,0:0:0:0:
36,192,120561,1,0,0:0:0:0:
402,192,120561,1,0,0:0:0:0:
475,192,120659,1,0,0:0:0:0:
109,192,120707,1,0,0:0:0:0:
256,192,120756,1,0,0:0:0:0:
402,192,120805,1,0,0:0:0:0:
182,192,120854,1,0,0:0:0:0:
329,192,120854,1,0,0:0:0:0:
475,192,120878,1,0,0:0:0:0:
109,192,120927,1,0,0:0:0:0:
402,192,120951,1,0,0:0:0:0:
36,192,121000,1,0,0:0:0:0:
329,192,121025,1,0,0:0:0:0:
329,192,121122,1,0,0:0:0:0:
109,192,121147,1,0,0:0:0:0:
475,192,121147,1,0,0:0:0:0:
256,192,121195,1,0,0:0:0:0:
402,192,121244,1,0,0:0:0:0:
36,192,121293,1,0,0:0:0:0:
182,192,121293,1,0,0:0:0:0:
329,192,121342,1,0,0:0:0:0:
109,192,121415,1,0,0:0:0:0:
256,192,121439,1,0,0:0:0:0:
402,192,121439,1,0,0:0:0:0:
36,192,121512,1,0,0:0:0:0:
182,192,121586,1,0,0:0:0:0:
329,192,121586,1,0,0:0:0:0:
475,192,121659,1,0,0:0:0:0:
36,192,121659,1,0,0:0:0:0:
402,192,121732,1,0,0:0:0:0:
329,192,121805,1,0,0:0:0:0:
109,192,121878,1,0,0:0:0:0:
256,192,121878,1,0,0:0:0:0:
329,192,121951,1,0,0:0:0:0:
36,192,122025,1,0,0:0:0:0:
475,192,122025,1,0,0:0:0:0:
182,192,122098,1,0,0:0:0:0:
402,192,122098,1,0,0:0:0:0:
109,192,122171,1,0,0:0:0:0:
402,192,122244,1,0,0:0:0:0:
36,192,122244,1,0,0:0:0:0:
182,192,122317,1,0,0:0:0:0:
329,192,122342,1,0,0:0:0:0:
109,192,122464,1,0,0:0:0:0:
36,192,122610,1,0,0:0:0:0:
402,192,122610,1,0,0:0:0:0:
256,192,122683,1,0,0:0:0:0:
109,192,122756,1,0,0:0:0:0:
329,192,122756,1,0,0:0:0:0:
402,192,122829,1,0,0:0:0:0:
182,192,122903,1,0,0:0:0:0:
475,192,122903,1,0,0:0:0:0:
402,192,122976,1,0,0:0:0:0:
36,192,122976,1,0,0:0:0:0:
109,192,123049,1,0,0:0:0:0:
329,192,123049,1,0,0:0:0:0:
256,192,123122,1,0,0:0:0:0:
36,192,123195,1,0,0:0:0:0:
402,192,123195,1,0,0:0:0:0:
109,192,123268,1,0,0:0:0:0:
329,192,123268,1,0,0:0:0:0:
182,192,123342,1,0,0:0:0:0:
402,192,123342,1,0,0:0:0:0:
109,192,123415,1,0,0:0:0:0:
475,192,123415,1,0,0:0:0:0:
36,192,123488,1,0,0:0:0:0:
109,192,123561,1,0,0:0:0:0:
475,192,123561,1,0,0:0:0:0:
329,192,123586,1,0,0:0:0:0:
182,192,123634,1,0,0:0:0:0:
475,192,123671,1,0,0:0:0:0:
109,192,123707,1,0,0:0:0:0:
329,192,123726,1,0,0:0:0:0:
256,192,123781,5,0,0:0:0:0:
402,192,123781,1,0,0:0:0:0:
475,192,123781,128,0,124073:0:0:0:0:
36,192,123781,128,0,124073:0:0:0:0:
182,192,124073,1,0,0:0:0:0:
329,192,124073,1,0,0:0:0:0:
402,192,124073,128,0,124366:0:0:0:0:
109,192,124073,128,0,124366:0:0:0:0:
329,192,124366,128,0,124659:0:0:0:0:
36,192,124366,1,0,0:0:0:0:
475,192,124366,1,0,0:0:0:0:
182,192,124366,128,0,124659:0:0:0:0:
256,192,124659,128,0,124951:0:0:0:0:
36,192,124659,1,0,0:0:0:0:
475,192,124659,128,0,124951:0:0:0:0:
402,192,124659,1,0,0:0:0:0:
36,192,124951,128,0,126122:0:0:0:0:
109,192,124951,1,0,0:0:0:0:
402,192,124951,1,0,0:0:0:0:
182,192,125025,1,0,0:0:0:0:
256,192,125098,1,0,0:0:0:0:
475,192,125098,1,0,0:0:0:0:
329,192,125244,1,0,0:0:0:0:
402,192,125317,1,0,0:0:0:0:
182,192,125390,1,0,0:0:0:0:
475,192,125390,1,0,0:0:0:0:
329,192,125537,1,0,0:0:0:0:
256,192,125683,1,0,0:0:0:0:
109,192,125683,1,0,0:0:0:0:
329,192,125829,1,0,0:0:0:0:
402,192,125903,1,0,0:0:0:0:
475,192,125976,1,0,0:0:0:0:
182,192,125976,1,0,0:0:0:0:
329,192,126122,1,0,0:0:0:0:
182,192,126268,1,0,0:0:0:0:
475,192,126268,1,0,0:0:0:0:
36,192,126415,1,0,0:0:0:0:
109,192,126488,1,0,0:0:0:0:
182,192,126561,1,0,0:0:0:0:
402,192,126561,1,0,0:0:0:0:
256,192,126707,1,0,0:0:0:0:
475,192,126854,1,0,0:0:0:0:
36,192,126854,1,0,0:0:0:0:
402,192,126927,1,0,0:0:0:0:
109,192,126927,1,0,0:0:0:0:
329,192,127073,1,0,0:0:0:0:
182,192,127073,1,0,0:0:0:0:
402,192,127147,1,0,0:0:0:0:
109,192,127147,1,0,0:0:0:0:
256,192,127293,1,0,0:0:0:0:
475,192,127439,1,0,0:0:0:0:
36,192,127439,1,0,0:0:0:0:
182,192,127586,1,0,0:0:0:0:
329,192,127659,1,0,0:0:0:0:
402,192,127732,1,0,0:0:0:0:
109,192,127732,1,0,0:0:0:0:
256,192,127878,1,0,0:0:0:0:
475,192,128025,1,0,0:0:0:0:
36,192,128025,1,0,0:0:0:0:
329,192,128171,1,0,0:0:0:0:
182,192,128244,1,0,0:0:0:0:
402,192,128317,1,0,0:0:0:0:
109,192,128317,1,0,0:0:0:0:
256,192,128464,1,0,0:0:0:0:
475,192,128610,1,0,0:0:0:0:
36,192,128610,1,0,0:0:0:0:
182,192,128756,1,0,0:0:0:0:
329,192,128829,1,0,0:0:0:0:
36,192,128903,1,0,0:0:0:0:
475,192,128903,1,0,0:0:0:0:
109,192,129049,1,0,0:0:0:0:
256,192,129122,1,0,0:0:0:0:
402,192,129195,1,0,0:0:0:0:
475,192,129195,1,0,0:0:0:0:
182,192,129268,1,0,0:0:0:0:
329,192,129342,1,0,0:0:0:0:
182,192,129415,1,0,0:0:0:0:
329,192,129488,1,0,0:0:0:0:
182,192,129561,1,0,0:0:0:0:
475,192,129634,1,0,0:0:0:0:
329,192,129634,1,0,0:0:0:0:
109,192,129781,1,0,0:0:0:0:
256,192,129781,1,0,0:0:0:0:
475,192,129927,1,0,0:0:0:0:
329,192,130000,1,0,0:0:0:0:
182,192,130073,1,0,0:0:0:0:
36,192,130073,1,0,0:0:0:0:
402,192,130220,1,0,0:0:0:0:
109,192,130366,1,0,0:0:0:0:
256,192,130366,1,0,0:0:0:0:
475,192,130512,1,0,0:0:0:0:
329,192,130586,1,0,0:0:0:0:
182,192,130659,1,0,0:0:0:0:
36,192,130659,1,0,0:0:0:0:
109,192,130805,1,0,0:0:0:0:
256,192,130951,1,0,0:0:0:0:
402,192,130951,1,0,0:0:0:0:
36,192,131098,1,0,0:0:0:0:
182,192,131171,1,0,0:0:0:0:
475,192,131244,1,0,0:0:0:0:
329,192,131244,1,0,0:0:0:0:
402,192,131390,1,0,0:0:0:0:
256,192,131464,1,0,0:0:0:0:
36,192,131537,1,0,0:0:0:0:
182,192,131537,1,0,0:0:0:0:
329,192,131610,1,0,0:0:0:0:
329,192,131756,1,0,0:0:0:0:
36,192,131829,1,0,0:0:0:0:
182,192,131829,1,0,0:0:0:0:
256,192,131976,1,0,0:0:0:0:
36,192,131976,128,0,133147:0:0:0:0:
329,192,132049,1,0,0:0:0:0:
402,192,132122,1,0,0:0:0:0:
182,192,132122,1,0,0:0:0:0:
109,192,132268,1,0,0:0:0:0:
182,192,132342,1,0,0:0:0:0:
256,192,132415,1,0,0:0:0:0:
402,192,132415,1,0,0:0:0:0:
475,192,132561,1,0,0:0:0:0:
402,192,132634,1,0,0:0:0:0:
182,192,132707,1,0,0:0:0:0:
329,192,132707,1,0,0:0:0:0:
109,192,132854,1,0,0:0:0:0:
182,192,132927,1,0,0:0:0:0:
256,192,133000,1,0,0:0:0:0:
402,192,133000,1,0,0:0:0:0:
329,192,133147,1,0,0:0:0:0:
256,192,133220,1,0,0:0:0:0:
182,192,133293,1,0,0:0:0:0:
36,192,133293,1,0,0:0:0:0:
329,192,133366,1,0,0:0:0:0:
402,192,133439,1,0,0:0:0:0:
475,192,133512,1,0,0:0:0:0:
182,192,133586,1,0,0:0:0:0:
36,192,133586,1,0,0:0:0:0:
329,192,133659,1,0,0:0:0:0:
402,192,133732,1,0,0:0:0:0:
475,192,133805,1,0,0:0:0:0:
182,192,133878,1,0,0:0:0:0:
36,192,133878,1,0,0:0:0:0:
402,192,134025,1,0,0:0:0:0:
109,192,134025,1,0,0:0:0:0:
475,192,134098,1,0,0:0:0:0:
36,192,134098,1,0,0:0:0:0:
109,192,134171,1,0,0:0:0:0:
402,192,134171,1,0,0:0:0:0:
329,192,134244,1,0,0:0:0:0:
182,192,134244,1,0,0:0:0:0:
36,192,134317,1,0,0:0:0:0:
475,192,134317,128,0,135488:0:0:0:0:
256,192,134317,1,0,0:0:0:0:
182,192,134464,1,0,0:0:0:0:
329,192,134464,1,0,0:0:0:0:
402,192,134610,1,0,0:0:0:0:
256,192,134683,1,0,0:0:0:0:
109,192,134756,1,0,0:0:0:0:
36,192,134756,1,0,0:0:0:0:
182,192,134903,1,0,0:0:0:0:
256,192,135049,1,0,0:0:0:0:
402,192,135049,1,0,0:0:0:0:
36,192,135195,1,0,0:0:0:0:
109,192,135268,1,0,0:0:0:0:
182,192,135342,1,0,0:0:0:0:
329,192,135342,1,0,0:0:0:0:
256,192,135488,1,0,0:0:0:0:
109,192,135634,1,0,0:0:0:0:
402,192,135634,1,0,0:0:0:0:
329,192,135781,1,0,0:0:0:0:
182,192,135854,1,0,0:0:0:0:
475,192,135927,1,0,0:0:0:0:
36,192,135927,1,0,0:0:0:0:
256,192,136073,1,0,0:0:0:0:
402,192,136220,1,0,0:0:0:0:
109,192,136220,1,0,0:0:0:0:
182,192,136366,1,0,0:0:0:0:
329,192,136439,1,0,0:0:0:0:
36,192,136512,1,0,0:0:0:0:
475,192,136512,1,0,0:0:0:0:
36,192,136659,1,0,0:0:0:0:
109,192,136732,1,0,0:0:0:0:
182,192,136805,1,0,0:0:0:0:
329,192,136805,1,0,0:0:0:0:
402,192,136878,1,0,0:0:0:0:
475,192,136951,1,0,0:0:0:0:
402,192,137025,1,0,0:0:0:0:
329,192,137098,1,0,0:0:0:0:
182,192,137098,1,0,0:0:0:0:
109,192,137171,1,0,0:0:0:0:
36,192,137244,1,0,0:0:0:0:
109,192,137317,1,0,0:0:0:0:
329,192,137390,1,0,0:0:0:0:
182,192,137390,1,0,0:0:0:0:
402,192,137464,1,0,0:0:0:0:
475,192,137537,1,0,0:0:0:0:
402,192,137610,1,0,0:0:0:0:
36,192,137683,1,0,0:0:0:0:
329,192,137683,1,0,0:0:0:0:
109,192,137756,1,0,0:0:0:0:
182,192,137829,1,0,0:0:0:0:
109,192,137903,1,0,0:0:0:0:
475,192,137976,1,0,0:0:0:0:
36,192,137976,1,0,0:0:0:0:
402,192,138049,1,0,0:0:0:0:
329,192,138122,1,0,0:0:0:0:
402,192,138195,1,0,0:0:0:0:
475,192,138268,1,0,0:0:0:0:
36,192,138268,1,0,0:0:0:0:
109,192,138342,1,0,0:0:0:0:
182,192,138415,1,0,0:0:0:0:
109,192,138488,1,0,0:0:0:0:
475,192,138561,1,0,0:0:0:0:
36,192,138561,1,0,0:0:0:0:
402,192,138634,1,0,0:0:0:0:
329,192,138707,1,0,0:0:0:0:
256,192,138781,1,0,0:0:0:0:
36,192,138854,1,0,0:0:0:0:
475,192,138854,1,0,0:0:0:0:
109,192,138927,1,0,0:0:0:0:
182,192,139000,1,0,0:0:0:0:
256,192,139073,1,0,0:0:0:0:
329,192,139147,1,0,0:0:0:0:
475,192,139147,1,0,0:0:0:0:
109,192,139293,1,0,0:0:0:0:
182,192,139366,1,0,0:0:0:0:
256,192,139439,1,0,0:0:0:0:
402,192,139439,1,0,0:0:0:0:
36,192,139586,1,0,0:0:0:0:
329,192,139732,1,0,0:0:0:0:
182,192,139732,1,0,0:0:0:0:
475,192,139878,1,0,0:0:0:0:
329,192,139951,1,0,0:0:0:0:
36,192,140025,1,0,0:0:0:0:
182,192,140025,1,0,0:0:0:0:
256,192,140171,1,0,0:0:0:0:
329,192,140317,1,0,0:0:0:0:
182,192,140317,1,0,0:0:0:0:
36,192,140464,1,0,0:0:0:0:
182,192,140537,1,0,0:0:0:0:
475,192,140610,1,0,0:0:0:0:
329,192,140610,1,0,0:0:0:0:
36,192,140756,1,0,0:0:0:0:
109,192,140829,1,0,0:0:0:0:
329,192,140903,1,0,0:0:0:0:
182,192,140903,1,0,0:0:0:0:
475,192,140976,1,0,0:0:0:0:
329,192,141049,1,0,0:0:0:0:
182,192,141122,1,0,0:0:0:0:
402,192,141195,1,0,0:0:0:0:
109,192,141195,1,0,0:0:0:0:
256,192,141268,1,0,0:0:0:0:
36,192,141342,1,0,0:0:0:0:
475,192,141342,1,0,0:0:0:0:
402,192,141415,1,0,0:0:0:0:
109,192,141415,1,0,0:0:0:0:
182,192,141488,1,0,0:0:0:0:
329,192,141488,1,0,0:0:0:0:
256,192,141561,1,0,0:0:0:0:
182,192,141634,1,0,0:0:0:0:
329,192,141634,1,0,0:0:0:0:
109,192,141707,1,0,0:0:0:0:
402,192,141707,1,0,0:0:0:0:
475,192,141781,1,0,0:0:0:0:
36,192,141781,1,0,0:0:0:0:
402,192,141854,1,0,0:0:0:0:
109,192,141854,1,0,0:0:0:0:
182,192,141927,1,0,0:0:0:0:
329,192,141927,1,0,0:0:0:0:
256,192,142000,1,0,0:0:0:0:
329,192,142073,1,0,0:0:0:0:
182,192,142073,1,0,0:0:0:0:
475,192,142147,1,0,0:0:0:0:
36,192,142147,1,0,0:0:0:0:
402,192,142220,1,0,0:0:0:0:
109,192,142220,1,0,0:0:0:0:
329,192,142293,1,0,0:0:0:0:
182,192,142293,1,0,0:0:0:0:
256,192,142366,1,0,0:0:0:0:
109,192,142439,1,0,0:0:0:0:
402,192,142439,1,0,0:0:0:0:
36,192,142512,1,0,0:0:0:0:
475,192,142586,1,0,0:0:0:0:
109,192,142659,1,0,0:0:0:0:
402,192,142732,1,0,0:0:0:0:
182,192,142805,1,0,0:0:0:0:
329,192,142878,1,0,0:0:0:0:
36,192,142951,1,0,0:0:0:0:
182,192,143025,1,0,0:0:0:0:
475,192,143098,1,0,0:0:0:0:
329,192,143098,1,0,0:0:0:0:
182,192,143171,1,0,0:0:0:0:
36,192,143171,1,0,0:0:0:0:
329,192,143244,1,0,0:0:0:0:
475,192,143244,1,0,0:0:0:0:
182,192,143317,1,0,0:0:0:0:
36,192,143317,1,0,0:0:0:0:
402,192,143390,1,0,0:0:0:0:
329,192,143390,1,0,0:0:0:0:
182,192,143464,1,0,0:0:0:0:
109,192,143464,1,0,0:0:0:0:
329,192,143537,1,0,0:0:0:0:
402,192,143537,1,0,0:0:0:0:
182,192,143610,1,0,0:0:0:0:
109,192,143610,1,0,0:0:0:0:
256,192,143683,128,0,144854:0:0:0:0:
475,192,143683,1,0,0:0:0:0:
36,192,143683,1,0,0:0:0:0:
402,192,143756,1,0,0:0:0:0:
329,192,143829,1,0,0:0:0:0:
182,192,143829,1,0,0:0:0:0:
109,192,143903,1,0,0:0:0:0:
36,192,143976,1,0,0:0:0:0:
109,192,144049,1,0,0:0:0:0:
182,192,144122,1,0,0:0:0:0:
329,192,144122,1,0,0:0:0:0:
402,192,144195,1,0,0:0:0:0:
475,192,144268,1,0,0:0:0:0:
402,192,144342,1,0,0:0:0:0:
329,192,144415,1,0,0:0:0:0:
182,192,144415,1,0,0:0:0:0:
109,192,144488,1,0,0:0:0:0:
36,192,144561,1,0,0:0:0:0:
109,192,144634,1,0,0:0:0:0:
182,192,144707,1,0,0:0:0:0:
329,192,144707,1,0,0:0:0:0:
402,192,144781,1,0,0:0:0:0:
475,192,144854,128,0,146025:0:0:0:0:
36,192,144854,1,0,0:0:0:0:
109,192,144927,1,0,0:0:0:0:
182,192,145000,1,0,0:0:0:0:
329,192,145000,1,0,0:0:0:0:
109,192,145073,1,0,0:0:0:0:
36,192,145147,1,0,0:0:0:0:
109,192,145220,1,0,0:0:0:0:
402,192,145293,1,0,0:0:0:0:
182,192,145293,1,0,0:0:0:0:
329,192,145366,1,0,0:0:0:0:
256,192,145439,1,0,0:0:0:0:
182,192,145512,1,0,0:0:0:0:
109,192,145586,1,0,0:0:0:0:
402,192,145586,1,0,0:0:0:0:
182,192,145659,1,0,0:0:0:0:
256,192,145732,1,0,0:0:0:0:
329,192,145805,1,0,0:0:0:0:
109,192,145878,1,0,0:0:0:0:
256,192,145878,1,0,0:0:0:0:
36,192,145951,1,0,0:0:0:0:
109,192,146025,1,0,0:0:0:0:
182,192,146098,1,0,0:0:0:0:
256,192,146171,1,0,0:0:0:0:
402,192,146171,1,0,0:0:0:0:
475,192,146244,1,0,0:0:0:0:
402,192,146317,1,0,0:0:0:0:
329,192,146390,1,0,0:0:0:0:
256,192,146464,1,0,0:0:0:0:
36,192,146464,1,0,0:0:0:0:
109,192,146537,1,0,0:0:0:0:
182,192,146610,1,0,0:0:0:0:
256,192,146683,1,0,0:0:0:0:
329,192,146756,1,0,0:0:0:0:
475,192,146756,1,0,0:0:0:0:
109,192,146829,1,0,0:0:0:0:
182,192,146903,1,0,0:0:0:0:
256,192,146976,1,0,0:0:0:0:
329,192,147049,1,0,0:0:0:0:
475,192,147049,1,0,0:0:0:0:
256,192,147122,1,0,0:0:0:0:
36,192,147195,128,0,148366:0:0:0:0:
182,192,147195,1,0,0:0:0:0:
109,192,147268,1,0,0:0:0:0:
182,192,147342,1,0,0:0:0:0:
329,192,147342,1,0,0:0:0:0:
402,192,147415,1,0,0:0:0:0:
475,192,147488,1,0,0:0:0:0:
402,192,147561,1,0,0:0:0:0:
329,192,147634,1,0,0:0:0:0:
182,192,147634,1,0,0:0:0:0:
109,192,147707,1,0,0:0:0:0:
182,192,147781,1,0,0:0:0:0:
256,192,147854,1,0,0:0:0:0:
329,192,147927,1,0,0:0:0:0:
475,192,147927,1,0,0:0:0:0:
256,192,148000,1,0,0:0:0:0:
182,192,148073,1,0,0:0:0:0:
109,192,148147,1,0,0:0:0:0:
182,192,148220,1,0,0:0:0:0:
402,192,148220,1,0,0:0:0:0:
256,192,148293,1,0,0:0:0:0:
329,192,148366,1,0,0:0:0:0:
475,192,148366,1,0,0:0:0:0:
109,192,148439,1,0,0:0:0:0:
402,192,148512,1,0,0:0:0:0:
182,192,148512,1,0,0:0:0:0:
475,192,148586,1,0,0:0:0:0:
402,192,148659,1,0,0:0:0:0:
329,192,148732,1,0,0:0:0:0:
109,192,148805,1,0,0:0:0:0:
256,192,148805,1,0,0:0:0:0:
402,192,148878,1,0,0:0:0:0:
329,192,148951,1,0,0:0:0:0:
256,192,149025,1,0,0:0:0:0:
36,192,149098,1,0,0:0:0:0:
182,192,149098,1,0,0:0:0:0:
475,192,149171,1,0,0:0:0:0:
402,192,149244,1,0,0:0:0:0:
329,192,149317,1,0,0:0:0:0:
109,192,149390,1,0,0:0:0:0:
256,192,149390,1,0,0:0:0:0:
36,192,149464,1,0,0:0:0:0:
109,192,149537,1,0,0:0:0:0:
182,192,149610,1,0,0:0:0:0:
402,192,149683,1,0,0:0:0:0:
256,192,149683,1,0,0:0:0:0:
109,192,149756,1,0,0:0:0:0:
182,192,149829,1,0,0:0:0:0:
256,192,149903,1,0,0:0:0:0:
329,192,149976,1,0,0:0:0:0:
475,192,149976,1,0,0:0:0:0:
36,192,150049,1,0,0:0:0:0:
109,192,150122,1,0,0:0:0:0:
182,192,150195,1,0,0:0:0:0:
402,192,150268,1,0,0:0:0:0:
256,192,150268,1,0,0:0:0:0:
475,192,150342,1,0,0:0:0:0:
402,192,150415,1,0,0:0:0:0:
329,192,150488,1,0,0:0:0:0:
109,192,150561,1,0,0:0:0:0:
256,192,150561,1,0,0:0:0:0:
182,192,150634,1,0,0:0:0:0:
329,192,150707,1,0,0:0:0:0:
36,192,150707,128,0,151878:0:0:0:0:
475,192,150781,1,0,0:0:0:0:
402,192,150854,1,0,0:0:0:0:
256,192,150854,1,0,0:0:0:0:
182,192,150927,1,0,0:0:0:0:
109,192,151000,1,0,0:0:0:0:
182,192,151073,1,0,0:0:0:0:
256,192,151147,1,0,0:0:0:0:
402,192,151147,1,0,0:0:0:0:
475,192,151220,1,0,0:0:0:0:
402,192,151293,1,0,0:0:0:0:
329,192,151366,1,0,0:0:0:0:
256,192,151439,1,0,0:0:0:0:
475,192,151439,1,0,0:0:0:0:
182,192,151512,1,0,0:0:0:0:
109,192,151586,1,0,0:0:0:0:
182,192,151659,1,0,0:0:0:0:
475,192,151732,1,0,0:0:0:0:
256,192,151732,1,0,0:0:0:0:
402,192,151805,1,0,0:0:0:0:
329,192,151878,1,0,0:0:0:0:
109,192,151878,128,0,153049:0:0:0:0:
256,192,151951,1,0,0:0:0:0:
475,192,152025,1,0,0:0:0:0:
182,192,152025,1,0,0:0:0:0:
402,192,152098,1,0,0:0:0:0:
329,192,152171,1,0,0:0:0:0:
256,192,152244,1,0,0:0:0:0:
36,192,152317,1,0,0:0:0:0:
182,192,152317,1,0,0:0:0:0:
256,192,152390,1,0,0:0:0:0:
329,192,152464,1,0,0:0:0:0:
402,192,152537,1,0,0:0:0:0:
475,192,152610,1,0,0:0:0:0:
182,192,152610,1,0,0:0:0:0:
402,192,152683,1,0,0:0:0:0:
329,192,152756,1,0,0:0:0:0:
256,192,152829,1,0,0:0:0:0:
182,192,152903,1,0,0:0:0:0:
36,192,152903,1,0,0:0:0:0:
256,192,152976,1,0,0:0:0:0:
329,192,153049,1,0,0:0:0:0:
475,192,153049,128,0,154220:0:0:0:0:
402,192,153195,1,0,0:0:0:0:
182,192,153195,1,0,0:0:0:0:
329,192,153342,1,0,0:0:0:0:
256,192,153415,1,0,0:0:0:0:
182,192,153488,1,0,0:0:0:0:
36,192,153488,1,0,0:0:0:0:
329,192,153634,1,0,0:0:0:0:
256,192,153781,1,0,0:0:0:0:
109,192,153781,1,0,0:0:0:0:
329,192,153927,1,0,0:0:0:0:
256,192,154000,1,0,0:0:0:0:
182,192,154073,1,0,0:0:0:0:
36,192,154073,1,0,0:0:0:0:
329,192,154220,1,0,0:0:0:0:
256,192,154220,128,0,155390:0:0:0:0:
402,192,154366,1,0,0:0:0:0:
109,192,154366,1,0,0:0:0:0:
182,192,154512,1,0,0:0:0:0:
109,192,154586,1,0,0:0:0:0:
475,192,154659,1,0,0:0:0:0:
36,192,154659,1,0,0:0:0:0:
329,192,154805,1,0,0:0:0:0:
36,192,154951,1,0,0:0:0:0:
475,192,154951,1,0,0:0:0:0:
109,192,155025,1,0,0:0:0:0:
402,192,155025,1,0,0:0:0:0:
329,192,155171,1,0,0:0:0:0:
182,192,155171,1,0,0:0:0:0:
402,192,155244,1,0,0:0:0:0:
109,192,155244,1,0,0:0:0:0:
36,192,155390,1,0,0:0:0:0:
475,192,155390,1,0,0:0:0:0:
109,192,155464,1,0,0:0:0:0:
182,192,155537,1,0,0:0:0:0:
475,192,155537,1,0,0:0:0:0:
402,192,155610,1,0,0:0:0:0:
329,192,155683,1,0,0:0:0:0:
36,192,155756,1,0,0:0:0:0:
109,192,155829,1,0,0:0:0:0:
475,192,155829,1,0,0:0:0:0:
182,192,155903,1,0,0:0:0:0:
256,192,155976,1,0,0:0:0:0:
475,192,156049,1,0,0:0:0:0:
402,192,156122,1,0,0:0:0:0:
109,192,156122,1,0,0:0:0:0:
329,192,156195,1,0,0:0:0:0:
256,192,156268,1,0,0:0:0:0:
109,192,156342,1,0,0:0:0:0:
475,192,156415,1,0,0:0:0:0:
36,192,156415,1,0,0:0:0:0:
182,192,156488,1,0,0:0:0:0:
329,192,156561,1,0,0:0:0:0:
256,192,156634,1,0,0:0:0:0:
329,192,156707,1,0,0:0:0:0:
182,192,156707,1,0,0:0:0:0:
402,192,156781,1,0,0:0:0:0:
109,192,156781,1,0,0:0:0:0:
475,192,156854,1,0,0:0:0:0:
36,192,156854,1,0,0:0:0:0:
475,192,157000,1,0,0:0:0:0:
36,192,157000,1,0,0:0:0:0:
402,192,157147,1,0,0:0:0:0:
109,192,157147,1,0,0:0:0:0:
402,192,157293,1,0,0:0:0:0:
109,192,157293,1,0,0:0:0:0:
329,192,157439,1,0,0:0:0:0:
182,192,157439,1,0,0:0:0:0:
402,192,157586,1,0,0:0:0:0:
109,192,157586,1,0,0:0:0:0:
36,192,157732,128,0,158903:0:0:0:0:
475,192,157732,128,0,158903:0:0:0:0:
182,192,157732,1,0,0:0:0:0:
329,192,157732,1,0,0:0:0:0:
256,192,158317,1,0,0:0:0:0:
109,192,158903,128,0,159488:0:0:0:0:
182,192,158903,1,0,0:0:0:0:
402,192,158903,128,0,159488:0:0:0:0:
329,192,158903,1,0,0:0:0:0:
182,192,159488,128,0,160073:0:0:0:0:
36,192,159488,1,0,0:0:0:0:
475,192,159488,1,0,0:0:0:0:
329,192,159488,128,0,160073:0:0:0:0:
109,192,159927,1,0,0:0:0:0:
256,192,160000,1,0,0:0:0:0:
475,192,160073,128,0,161244:0:0:0:0:
402,192,160073,128,0,161244:0:0:0:0:
36,192,160073,1,0,0:0:0:0:
182,192,160147,1,0,0:0:0:0:
329,192,160220,1,0,0:0:0:0:
109,192,160293,1,0,0:0:0:0:
256,192,160366,1,0,0:0:0:0:
36,192,160439,1,0,0:0:0:0:
182,192,160512,1,0,0:0:0:0:
329,192,160586,1,0,0:0:0:0:
109,192,160659,1,0,0:0:0:0:
256,192,160732,1,0,0:0:0:0:
36,192,160805,1,0,0:0:0:0:
182,192,160878,1,0,0:0:0:0:
329,192,160951,1,0,0:0:0:0:
109,192,161025,1,0,0:0:0:0:
256,192,161098,1,0,0:0:0:0:
36,192,161171,1,0,0:0:0:0:
329,192,161244,1,0,0:0:0:0:
182,192,161244,1,0,0:0:0:0:
256,192,161537,128,0,162415:0:0:0:0:
402,192,161537,1,0,0:0:0:0:
109,192,161537,1,0,0:0:0:0:
402,192,161829,128,0,162415:0:0:0:0:
329,192,161829,1,0,0:0:0:0:
182,192,161829,1,0,0:0:0:0:
109,192,162122,128,0,162415:0:0:0:0:
36,192,162122,1,0,0:0:0:0:
475,192,162415,1,0,0:0:0:0:
36,192,162415,128,0,163586:0:0:0:0:
256,192,162561,1,0,0:0:0:0:
402,192,162561,1,0,0:0:0:0:
109,192,162561,1,0,0:0:0:0:
475,192,162634,1,0,0:0:0:0:
329,192,162707,1,0,0:0:0:0:
182,192,162707,1,0,0:0:0:0:
475,192,162854,1,0,0:0:0:0:
109,192,162854,1,0,0:0:0:0:
256,192,162854,1,0,0:0:0:0:
402,192,163000,1,0,0:0:0:0:
182,192,163000,1,0,0:0:0:0:
329,192,163147,1,0,0:0:0:0:
475,192,163147,1,0,0:0:0:0:
109,192,163147,1,0,0:0:0:0:
256,192,163220,1,0,0:0:0:0:
402,192,163293,1,0,0:0:0:0:
182,192,163366,1,0,0:0:0:0:
475,192,163439,1,0,0:0:0:0:
109,192,163439,1,0,0:0:0:0:
329,192,163439,1,0,0:0:0:0:
475,192,163586,128,0,164756:0:0:0:0:
402,192,163586,1,0,0:0:0:0:
256,192,163586,1,0,0:0:0:0:
36,192,163732,1,0,0:0:0:0:
182,192,163732,1,0,0:0:0:0:
329,192,163732,1,0,0:0:0:0:
402,192,163805,1,0,0:0:0:0:
109,192,163878,1,0,0:0:0:0:
256,192,163878,1,0,0:0:0:0:
329,192,163951,1,0,0:0:0:0:
36,192,164025,1,0,0:0:0:0:
402,192,164025,1,0,0:0:0:0:
182,192,164025,1,0,0:0:0:0:
109,192,164171,1,0,0:0:0:0:
256,192,164171,1,0,0:0:0:0:
36,192,164317,1,0,0:0:0:0:
329,192,164317,1,0,0:0:0:0:
182,192,164317,1,0,0:0:0:0:
402,192,164390,1,0,0:0:0:0:
256,192,164464,1,0,0:0:0:0:
109,192,164537,1,0,0:0:0:0:
36,192,164610,1,0,0:0:0:0:
402,192,164610,1,0,0:0:0:0:
182,192,164610,1,0,0:0:0:0:
109,192,164756,1,0,0:0:0:0:
256,192,164756,1,0,0:0:0:0:
329,192,164756,128,0,165927:0:0:0:0:
36,192,164903,1,0,0:0:0:0:
475,192,164903,1,0,0:0:0:0:
182,192,164903,1,0,0:0:0:0:
256,192,164976,1,0,0:0:0:0:
402,192,165049,1,0,0:0:0:0:
109,192,165049,1,0,0:0:0:0:
256,192,165122,1,0,0:0:0:0:
182,192,165195,1,0,0:0:0:0:
475,192,165195,1,0,0:0:0:0:
36,192,165195,1,0,0:0:0:0:
109,192,165342,1,0,0:0:0:0:
402,192,165342,1,0,0:0:0:0:
36,192,165488,1,0,0:0:0:0:
475,192,165488,1,0,0:0:0:0:
182,192,165488,1,0,0:0:0:0:
256,192,165561,1,0,0:0:0:0:
402,192,165634,1,0,0:0:0:0:
36,192,165707,1,0,0:0:0:0:
475,192,165781,1,0,0:0:0:0:
256,192,165781,1,0,0:0:0:0:
109,192,165781,1,0,0:0:0:0:
36,192,165927,1,0,0:0:0:0:
182,192,166000,1,0,0:0:0:0:
329,192,166073,1,0,0:0:0:0:
109,192,166147,1,0,0:0:0:0:
256,192,166220,1,0,0:0:0:0:
402,192,166293,1,0,0:0:0:0:
182,192,166366,1,0,0:0:0:0:
329,192,166439,1,0,0:0:0:0:
475,192,166512,1,0,0:0:0:0:
36,192,166586,1,0,0:0:0:0:
182,192,166659,1,0,0:0:0:0:
329,192,166732,1,0,0:0:0:0:
475,192,166805,1,0,0:0:0:0:
109,192,166878,1,0,0:0:0:0:
256,192,166951,1,0,0:0:0:0:
402,192,167025,1,0,0:0:0:0:
329,192,167098,1,0,0:0:0:0:
109,192,167098,1,0,0:0:0:0:
36,192,167098,128,0,168268:0:0:0:0:
402,192,167244,1,0,0:0:0:0:
182,192,167244,1,0,0:0:0:0:
475,192,167244,1,0,0:0:0:0:
329,192,167317,1,0,0:0:0:0:
256,192,167390,1,0,0:0:0:0:
109,192,167390,1,0,0:0:0:0:
329,192,167464,1,0,0:0:0:0:
182,192,167537,1,0,0:0:0:0:
402,192,167537,1,0,0:0:0:0:
475,192,167537,1,0,0:0:0:0:
109,192,167683,1,0,0:0:0:0:
256,192,167683,1,0,0:0:0:0:
475,192,167829,1,0,0:0:0:0:
182,192,167829,1,0,0:0:0:0:
329,192,167829,1,0,0:0:0:0:
109,192,167903,1,0,0:0:0:0:
256,192,167976,1,0,0:0:0:0:
182,192,168049,1,0,0:0:0:0:
329,192,168122,1,0,0:0:0:0:
109,192,168122,1,0,0:0:0:0:
475,192,168122,1,0,0:0:0:0:
402,192,168268,1,0,0:0:0:0:
182,192,168268,128,0,169439:0:0:0:0:
109,192,168268,1,0,0:0:0:0:
329,192,168342,1,0,0:0:0:0:
256,192,168415,1,0,0:0:0:0:
475,192,168415,1,0,0:0:0:0:
36,192,168415,1,0,0:0:0:0:
402,192,168488,1,0,0:0:0:0:
109,192,168561,1,0,0:0:0:0:
329,192,168561,1,0,0:0:0:0:
475,192,168634,1,0,0:0:0:0:
36,192,168707,1,0,0:0:0:0:
256,192,168707,1,0,0:0:0:0:
402,192,168707,1,0,0:0:0:0:
329,192,168854,1,0,0:0:0:0:
109,192,168854,1,0,0:0:0:0:
256,192,169000,1,0,0:0:0:0:
475,192,169000,1,0,0:0:0:0:
36,192,169000,1,0,0:0:0:0:
402,192,169073,1,0,0:0:0:0:
109,192,169147,1,0,0:0:0:0:
329,192,169220,1,0,0:0:0:0:
256,192,169293,1,0,0:0:0:0:
475,192,169293,1,0,0:0:0:0:
36,192,169293,1,0,0:0:0:0:
475,192,169439,128,0,170610:0:0:0:0:
329,192,169439,1,0,0:0:0:0:
109,192,169439,1,0,0:0:0:0:
402,192,169586,1,0,0:0:0:0:
182,192,169586,1,0,0:0:0:0:
36,192,169586,1,0,0:0:0:0:
329,192,169659,1,0,0:0:0:0:
109,192,169732,1,0,0:0:0:0:
256,192,169732,1,0,0:0:0:0:
402,192,169805,1,0,0:0:0:0:
182,192,169878,1,0,0:0:0:0:
329,192,169878,1,0,0:0:0:0:
256,192,170025,1,0,0:0:0:0:
109,192,170025,1,0,0:0:0:0:
329,192,170098,1,0,0:0:0:0:
402,192,170171,1,0,0:0:0:0:
182,192,170171,1,0,0:0:0:0:
36,192,170171,1,0,0:0:0:0:
109,192,170244,1,0,0:0:0:0:
329,192,170244,1,0,0:0:0:0:
256,192,170317,1,0,0:0:0:0:
402,192,170390,1,0,0:0:0:0:
182,192,170390,1,0,0:0:0:0:
329,192,170464,1,0,0:0:0:0:
109,192,170464,1,0,0:0:0:0:
36,192,170464,1,0,0:0:0:0:
256,192,170537,1,0,0:0:0:0:
36,192,170610,1,0,0:0:0:0:
109,192,170647,1,0,0:0:0:0:
182,192,170683,1,0,0:0:0:0:
256,192,170720,1,0,0:0:0:0:
475,192,170756,1,0,0:0:0:0:
402,192,170793,1,0,0:0:0:0:
329,192,170829,1,0,0:0:0:0:
256,192,170866,1,0,0:0:0:0:
36,192,170903,1,0,0:0:0:0:
109,192,170939,1,0,0:0:0:0:
182,192,170976,1,0,0:0:0:0:
256,192,171012,1,0,0:0:0:0:
475,192,171049,1,0,0:0:0:0:
402,192,171086,1,0,0:0:0:0:
329,192,171122,1,0,0:0:0:0:
256,192,171159,1,0,0:0:0:0:
475,192,171195,128,0,171781:0:0:0:0:
182,192,171195,1,0,0:0:0:0:
36,192,171195,1,0,0:0:0:0:
329,192,171268,1,0,0:0:0:0:
109,192,171342,1,0,0:0:0:0:
256,192,171342,1,0,0:0:0:0:
402,192,171415,1,0,0:0:0:0:
329,192,171488,1,0,0:0:0:0:
182,192,171488,1,0,0:0:0:0:
36,192,171561,1,0,0:0:0:0:
182,192,171634,1,0,0:0:0:0:
329,192,171707,1,0,0:0:0:0:
256,192,171781,1,0,0:0:0:0:
109,192,171781,1,0,0:0:0:0:
475,192,171854,1,0,0:0:0:0:
329,192,171854,1,0,0:0:0:0:
182,192,171927,1,0,0:0:0:0:
36,192,171927,1,0,0:0:0:0:
256,192,172000,1,0,0:0:0:0:
402,192,172000,1,0,0:0:0:0:
109,192,172073,1,0,0:0:0:0:
475,192,172073,1,0,0:0:0:0:
402,192,172147,1,0,0:0:0:0:
36,192,172147,1,0,0:0:0:0:
182,192,172220,1,0,0:0:0:0:
329,192,172220,1,0,0:0:0:0:
402,192,172293,1,0,0:0:0:0:
109,192,172293,1,0,0:0:0:0:
36,192,172366,1,0,0:0:0:0:
475,192,172366,1,0,0:0:0:0:
109,192,172439,1,0,0:0:0:0:
402,192,172439,1,0,0:0:0:0:
182,192,172512,1,0,0:0:0:0:
329,192,172512,1,0,0:0:0:0:
256,192,172586,1,0,0:0:0:0:
36,192,172586,1,0,0:0:0:0:
182,192,172659,1,0,0:0:0:0:
109,192,172659,1,0,0:0:0:0:
475,192,172732,1,0,0:0:0:0:
329,192,172732,1,0,0:0:0:0:
182,192,172805,1,0,0:0:0:0:
256,192,172805,1,0,0:0:0:0:
109,192,172878,1,0,0:0:0:0:
402,192,172878,1,0,0:0:0:0:
256,192,172951,1,0,0:0:0:0:
329,192,172951,1,0,0:0:0:0:
182,192,173025,1,0,0:0:0:0:
36,192,173025,1,0,0:0:0:0:
329,192,173098,1,0,0:0:0:0:
402,192,173098,1,0,0:0:0:0:
256,192,173171,1,0,0:0:0:0:
109,192,173171,1,0,0:0:0:0:
402,192,173244,1,0,0:0:0:0:
475,192,173244,1,0,0:0:0:0:
329,192,173317,1,0,0:0:0:0:
182,192,173317,1,0,0:0:0:0:
36,192,173390,1,0,0:0:0:0:
109,192,173390,1,0,0:0:0:0:
256,192,173464,1,0,0:0:0:0:
402,192,173464,1,0,0:0:0:0:
182,192,173537,1,0,0:0:0:0:
109,192,173537,1,0,0:0:0:0:
329,192,173610,1,0,0:0:0:0:
475,192,173610,1,0,0:0:0:0:
182,192,173683,1,0,0:0:0:0:
256,192,173683,1,0,0:0:0:0:
402,192,173756,1,0,0:0:0:0:
36,192,173756,1,0,0:0:0:0:
329,192,173829,1,0,0:0:0:0:
109,192,173829,1,0,0:0:0:0:
182,192,173903,1,0,0:0:0:0:
256,192,173903,1,0,0:0:0:0:
329,192,173976,1,0,0:0:0:0:
475,192,173976,1,0,0:0:0:0:
182,192,174049,1,0,0:0:0:0:
36,192,174049,1,0,0:0:0:0:
475,192,174122,1,0,0:0:0:0:
329,192,174122,1,0,0:0:0:0:
182,192,174195,1,0,0:0:0:0:
36,192,174195,1,0,0:0:0:0:
329,192,174268,1,0,0:0:0:0:
475,192,174268,1,0,0:0:0:0:
182,192,174342,1,0,0:0:0:0:
36,192,174342,1,0,0:0:0:0:
329,192,174415,1,0,0:0:0:0:
402,192,174415,1,0,0:0:0:0:
182,192,174488,1,0,0:0:0:0:
109,192,174488,1,0,0:0:0:0:
329,192,174561,1,0,0:0:0:0:
402,192,174561,1,0,0:0:0:0:
182,192,174634,1,0,0:0:0:0:
109,192,174634,1,0,0:0:0:0:
329,192,174707,1,0,0:0:0:0:
402,192,174707,1,0,0:0:0:0:
182,192,174781,1,0,0:0:0:0:
109,192,174781,1,0,0:0:0:0:
475,192,174854,1,0,0:0:0:0:
36,192,174854,1,0,0:0:0:0:
402,192,174927,1,0,0:0:0:0:
109,192,174927,1,0,0:0:0:0:
36,192,175000,1,0,0:0:0:0:
475,192,175000,1,0,0:0:0:0:
182,192,175073,1,0,0:0:0:0:
329,192,175073,1,0,0:0:0:0:
475,192,175147,1,0,0:0:0:0:
36,192,175147,1,0,0:0:0:0:
329,192,175220,1,0,0:0:0:0:
182,192,175220,1,0,0:0:0:0:
475,192,175293,5,0,0:0:0:0:
36,192,175293,1,0,0:0:0:0:
402,192,175366,1,0,0:0:0:0:
109,192,175366,1,0,0:0:0:0:
329,192,175439,1,0,0:0:0:0:
182,192,175439,1,0,0:0:0:0:
402,192,175512,1,0,0:0:0:0:
109,192,175512,1,0,0:0:0:0:
475,192,175586,1,0,0:0:0:0:
36,192,175586,1,0,0:0:0:0:
402,192,175659,1,0,0:0:0:0:
109,192,175659,1,0,0:0:0:0:
329,192,175732,1,0,0:0:0:0:
182,192,175732,1,0,0:0:0:0:
402,192,175805,1,0,0:0:0:0:
109,192,175805,1,0,0:0:0:0:
475,192,175878,1,0,0:0:0:0:
36,192,175878,1,0,0:0:0:0:
256,192,175878,128,0,176464:0:0:0:0:
109,192,176171,1,0,0:0:0:0:
402,192,176171,1,0,0:0:0:0:
329,192,176317,1,0,0:0:0:0:
182,192,176317,1,0,0:0:0:0:
109,192,176390,1,0,0:0:0:0:
402,192,176390,1,0,0:0:0:0:
36,192,176464,1,0,0:0:0:0:
475,192,176464,1,0,0:0:0:0:
109,192,176537,1,0,0:0:0:0:
402,192,176537,1,0,0:0:0:0:
329,192,176610,1,0,0:0:0:0:
182,192,176610,1,0,0:0:0:0:
475,192,176683,1,0,0:0:0:0:
36,192,176683,1,0,0:0:0:0:
402,192,176756,1,0,0:0:0:0:
109,192,176756,1,0,0:0:0:0:
329,192,176829,1,0,0:0:0:0:
182,192,176829,1,0,0:0:0:0:
475,192,176903,1,0,0:0:0:0:
36,192,176903,1,0,0:0:0:0:
329,192,176976,1,0,0:0:0:0:
182,192,176976,1,0,0:0:0:0:
402,192,177049,1,0,0:0:0:0:
109,192,177049,1,0,0:0:0:0:
36,192,177122,1,0,0:0:0:0:
475,192,177122,1,0,0:0:0:0:
256,192,177195,1,0,0:0:0:0:
402,192,177195,1,0,0:0:0:0:
182,192,177268,1,0,0:0:0:0:
109,192,177268,1,0,0:0:0:0:
329,192,177342,1,0,0:0:0:0:
475,192,177342,1,0,0:0:0:0:
256,192,177415,1,0,0:0:0:0:
182,192,177415,1,0,0:0:0:0:
36,192,177488,1,0,0:0:0:0:
402,192,177488,1,0,0:0:0:0:
329,192,177561,1,0,0:0:0:0:
256,192,177561,1,0,0:0:0:0:
475,192,177634,1,0,0:0:0:0:
109,192,177634,1,0,0:0:0:0:
329,192,177707,1,0,0:0:0:0:
402,192,177707,1,0,0:0:0:0:
182,192,177781,1,0,0:0:0:0:
36,192,177781,1,0,0:0:0:0:
475,192,177854,1,0,0:0:0:0:
402,192,177854,1,0,0:0:0:0:
109,192,177927,1,0,0:0:0:0:
256,192,177927,1,0,0:0:0:0:
402,192,178000,1,0,0:0:0:0:
329,192,178000,1,0,0:0:0:0:
182,192,178073,1,0,0:0:0:0:
475,192,178073,1,0,0:0:0:0:
256,192,178147,1,0,0:0:0:0:
329,192,178147,1,0,0:0:0:0:
109,192,178220,1,0,0:0:0:0:
402,192,178220,1,0,0:0:0:0:
256,192,178293,1,0,0:0:0:0:
182,192,178293,1,0,0:0:0:0:
36,192,178366,1,0,0:0:0:0:
329,192,178366,1,0,0:0:0:0:
109,192,178439,1,0,0:0:0:0:
182,192,178439,1,0,0:0:0:0:
256,192,178512,1,0,0:0:0:0:
402,192,178512,1,0,0:0:0:0:
109,192,178586,1,0,0:0:0:0:
36,192,178586,1,0,0:0:0:0:
329,192,178659,1,0,0:0:0:0:
182,192,178659,1,0,0:0:0:0:
402,192,178732,1,0,0:0:0:0:
109,192,178732,1,0,0:0:0:0:
475,192,178805,128,0,179244:0:0:0:0:
256,192,178805,1,0,0:0:0:0:
36,192,178878,1,0,0:0:0:0:
329,192,178951,1,0,0:0:0:0:
109,192,179025,1,0,0:0:0:0:
256,192,179098,1,0,0:0:0:0:
402,192,179244,128,0,179683:0:0:0:0:
36,192,179244,1,0,0:0:0:0:
329,192,179244,1,0,0:0:0:0:
182,192,179317,1,0,0:0:0:0:
329,192,179390,1,0,0:0:0:0:
109,192,179464,1,0,0:0:0:0:
256,192,179537,1,0,0:0:0:0:
329,192,179683,128,0,180122:0:0:0:0:
182,192,179683,1,0,0:0:0:0:
36,192,179683,1,0,0:0:0:0:
475,192,179829,128,0,180122:0:0:0:0:
256,192,179829,1,0,0:0:0:0:
109,192,179829,1,0,0:0:0:0:
182,192,180122,1,0,0:0:0:0:
36,192,180122,1,0,0:0:0:0:
256,192,180268,1,0,0:0:0:0:
402,192,180268,1,0,0:0:0:0:
182,192,180415,1,0,0:0:0:0:
36,192,180415,1,0,0:0:0:0:
475,192,180561,1,0,0:0:0:0:
329,192,180561,1,0,0:0:0:0:
109,192,180561,1,0,0:0:0:0:
402,192,180707,1,0,0:0:0:0:
182,192,180707,1,0,0:0:0:0:
475,192,180854,1,0,0:0:0:0:
256,192,180854,1,0,0:0:0:0:
402,192,181000,1,0,0:0:0:0:
109,192,181000,1,0,0:0:0:0:
36,192,181147,128,0,182317:0:0:0:0:
256,192,181147,1,0,0:0:0:0:
475,192,181147,1,0,0:0:0:0:
329,192,182317,128,0,183488:0:0:0:0:
109,192,182317,1,0,0:0:0:0:
402,192,182317,1,0,0:0:0:0:
109,192,183488,128,0,184659:0:0:0:0:
475,192,183488,1,0,0:0:0:0:
36,192,183488,1,0,0:0:0:0:
256,192,184659,128,0,184951:0:0:0:0:
36,192,184659,1,0,0:0:0:0:
402,192,184659,1,0,0:0:0:0:
36,192,184951,1,0,0:0:0:0:
182,192,184951,1,0,0:0:0:0:
329,192,185098,1,0,0:0:0:0:
475,192,185098,1,0,0:0:0:0:
402,192,185244,128,0,185537:0:0:0:0:
109,192,185244,1,0,0:0:0:0:
36,192,185537,1,0,0:0:0:0:
182,192,185537,1,0,0:0:0:0:
109,192,185683,1,0,0:0:0:0:
256,192,185683,1,0,0:0:0:0:
182,192,185829,1,0,0:0:0:0:
329,192,185829,128,0,186561:0:0:0:0:
475,192,185829,1,0,0:0:0:0:
109,192,186561,128,0,186707:0:0:0:0:
256,192,186707,128,0,186854:0:0:0:0:
402,192,186854,128,0,187000:0:0:0:0:
36,192,187000,128,0,187732:0:0:0:0:
182,192,187000,1,0,0:0:0:0:
475,192,187000,1,0,0:0:0:0:
475,192,187732,128,0,187878:0:0:0:0:
329,192,187878,128,0,188025:0:0:0:0:
182,192,188025,128,0,188171:0:0:0:0:
256,192,188171,128,0,189049:0:0:0:0:
402,192,188171,1,0,0:0:0:0:
36,192,188171,1,0,0:0:0:0:
475,192,189049,128,0,189195:0:0:0:0:
36,192,189195,128,0,189342:0:0:0:0:
329,192,189195,1,0,0:0:0:0:
402,192,189195,1,0,0:0:0:0:
256,192,189268,1,0,0:0:0:0:
109,192,189342,1,0,0:0:0:0:
182,192,189342,1,0,0:0:0:0:
329,192,189488,1,0,0:0:0:0:
475,192,189488,1,0,0:0:0:0:
182,192,189634,1,0,0:0:0:0:
36,192,189634,1,0,0:0:0:0:
402,192,189781,1,0,0:0:0:0:
109,192,189781,1,0,0:0:0:0:
475,192,189927,1,0,0:0:0:0:
36,192,189927,1,0,0:0:0:0:
256,192,189927,1,0,0:0:0:0:
109,192,190000,1,0,0:0:0:0:
402,192,190000,1,0,0:0:0:0:
329,192,190073,1,0,0:0:0:0:
182,192,190073,1,0,0:0:0:0:
402,192,190147,1,0,0:0:0:0:
109,192,190147,1,0,0:0:0:0:
36,192,190220,1,0,0:0:0:0:
475,192,190220,1,0,0:0:0:0:
256,192,190220,1,0,0:0:0:0:
109,192,190366,1,0,0:0:0:0:
256,192,190512,1,0,0:0:0:0:
329,192,190512,1,0,0:0:0:0:
402,192,190659,1,0,0:0:0:0:
475,192,190805,1,0,0:0:0:0:
256,192,190805,1,0,0:0:0:0:
36,192,190805,1,0,0:0:0:0:
109,192,190951,1,0,0:0:0:0:
36,192,191098,1,0,0:0:0:0:
182,192,191098,1,0,0:0:0:0:
329,192,191244,1,0,0:0:0:0:
402,192,191244,1,0,0:0:0:0:
256,192,191390,1,0,0:0:0:0:
475,192,191390,1,0,0:0:0:0:
109,192,191390,1,0,0:0:0:0:
182,192,191537,1,0,0:0:0:0:
329,192,191683,1,0,0:0:0:0:
36,192,191683,1,0,0:0:0:0:
256,192,191829,1,0,0:0:0:0:
182,192,191976,1,0,0:0:0:0:
402,192,191976,1,0,0:0:0:0:
475,192,191976,1,0,0:0:0:0:
109,192,192122,1,0,0:0:0:0:
329,192,192268,1,0,0:0:0:0:
256,192,192268,1,0,0:0:0:0:
182,192,192415,1,0,0:0:0:0:
36,192,192415,1,0,0:0:0:0:
402,192,192561,1,0,0:0:0:0:
109,192,192561,1,0,0:0:0:0:
475,192,192561,1,0,0:0:0:0:
256,192,192707,1,0,0:0:0:0:
329,192,192854,1,0,0:0:0:0:
182,192,192854,1,0,0:0:0:0:
475,192,193000,1,0,0:0:0:0:
256,192,193147,1,0,0:0:0:0:
402,192,193147,1,0,0:0:0:0:
36,192,193147,1,0,0:0:0:0:
329,192,193293,1,0,0:0:0:0:
182,192,193439,1,0,0:0:0:0:
109,192,193439,1,0,0:0:0:0:
402,192,193586,1,0,0:0:0:0:
329,192,193586,1,0,0:0:0:0:
475,192,193732,1,0,0:0:0:0:
256,192,193732,1,0,0:0:0:0:
36,192,193732,1,0,0:0:0:0:
109,192,193878,1,0,0:0:0:0:
182,192,194025,1,0,0:0:0:0:
329,192,194025,1,0,0:0:0:0:
402,192,194171,1,0,0:0:0:0:
475,192,194317,1,0,0:0:0:0:
256,192,194317,1,0,0:0:0:0:
36,192,194317,1,0,0:0:0:0:
109,192,194464,1,0,0:0:0:0:
36,192,194610,1,0,0:0:0:0:
182,192,194610,1,0,0:0:0:0:
402,192,194683,1,0,0:0:0:0:
329,192,194683,1,0,0:0:0:0:
256,192,194756,1,0,0:0:0:0:
109,192,194756,1,0,0:0:0:0:
36,192,194903,1,0,0:0:0:0:
475,192,194903,1,0,0:0:0:0:
329,192,194903,1,0,0:0:0:0:
182,192,195049,1,0,0:0:0:0:
329,192,195195,1,0,0:0:0:0:
402,192,195195,1,0,0:0:0:0:
109,192,195342,1,0,0:0:0:0:
36,192,195488,1,0,0:0:0:0:
256,192,195488,1,0,0:0:0:0:
475,192,195488,1,0,0:0:0:0:
182,192,195634,1,0,0:0:0:0:
256,192,195781,1,0,0:0:0:0:
329,192,195781,1,0,0:0:0:0:
402,192,195927,1,0,0:0:0:0:
109,192,195927,1,0,0:0:0:0:
475,192,196073,1,0,0:0:0:0:
36,192,196073,1,0,0:0:0:0:
256,192,196073,1,0,0:0:0:0:
182,192,196220,1,0,0:0:0:0:
329,192,196366,1,0,0:0:0:0:
109,192,196366,1,0,0:0:0:0:
402,192,196512,1,0,0:0:0:0:
475,192,196659,1,0,0:0:0:0:
256,192,196659,1,0,0:0:0:0:
36,192,196659,1,0,0:0:0:0:
182,192,196805,1,0,0:0:0:0:
109,192,196951,1,0,0:0:0:0:
329,192,196951,1,0,0:0:0:0:
475,192,197098,1,0,0:0:0:0:
256,192,197098,1,0,0:0:0:0:
402,192,197244,1,0,0:0:0:0:
182,192,197244,1,0,0:0:0:0:
36,192,197244,1,0,0:0:0:0:
109,192,197390,1,0,0:0:0:0:
256,192,197537,1,0,0:0:0:0:
475,192,197537,1,0,0:0:0:0:
329,192,197683,1,0,0:0:0:0:
402,192,197683,1,0,0:0:0:0:
475,192,197829,1,0,0:0:0:0:
182,192,197829,1,0,0:0:0:0:
36,192,197829,1,0,0:0:0:0:
256,192,197976,1,0,0:0:0:0:
109,192,198122,1,0,0:0:0:0:
329,192,198122,1,0,0:0:0:0:
182,192,198268,1,0,0:0:0:0:
402,192,198268,1,0,0:0:0:0:
475,192,198415,1,0,0:0:0:0:
256,192,198415,1,0,0:0:0:0:
36,192,198415,1,0,0:0:0:0:
329,192,198561,1,0,0:0:0:0:
109,192,198634,1,0,0:0:0:0:
402,192,198707,1,0,0:0:0:0:
475,192,198707,1,0,0:0:0:0:
182,192,198707,1,0,0:0:0:0:
256,192,198854,1,0,0:0:0:0:
329,192,199000,1,0,0:0:0:0:
402,192,199000,1,0,0:0:0:0:
36,192,199000,1,0,0:0:0:0:
256,192,199147,1,0,0:0:0:0:
182,192,199293,1,0,0:0:0:0:
475,192,199293,1,0,0:0:0:0:
109,192,199366,1,0,0:0:0:0:
402,192,199366,1,0,0:0:0:0:
36,192,199439,1,0,0:0:0:0:
329,192,199439,1,0,0:0:0:0:
402,192,199512,1,0,0:0:0:0:
109,192,199512,1,0,0:0:0:0:
475,192,199586,1,0,0:0:0:0:
182,192,199586,1,0,0:0:0:0:
402,192,199659,1,0,0:0:0:0:
256,192,199659,1,0,0:0:0:0:
182,192,199732,1,0,0:0:0:0:
329,192,199732,1,0,0:0:0:0:
402,192,199805,1,0,0:0:0:0:
109,192,199805,1,0,0:0:0:0:
36,192,199878,128,0,201049:0:0:0:0:
256,192,199878,1,0,0:0:0:0:
475,192,199878,1,0,0:0:0:0:
182,192,200025,1,0,0:0:0:0:
329,192,200025,1,0,0:0:0:0:
256,192,200171,1,0,0:0:0:0:
402,192,200244,1,0,0:0:0:0:
475,192,200317,1,0,0:0:0:0:
109,192,200317,1,0,0:0:0:0:
182,192,200464,1,0,0:0:0:0:
256,192,200610,1,0,0:0:0:0:
329,192,200610,1,0,0:0:0:0:
475,192,200683,1,0,0:0:0:0:
402,192,200756,1,0,0:0:0:0:
256,192,200829,1,0,0:0:0:0:
475,192,200903,1,0,0:0:0:0:
109,192,200903,1,0,0:0:0:0:
182,192,201049,128,0,202220:0:0:0:0:
329,192,201049,1,0,0:0:0:0:
402,192,201049,1,0,0:0:0:0:
256,192,201195,1,0,0:0:0:0:
475,192,201195,1,0,0:0:0:0:
329,192,201342,1,0,0:0:0:0:
109,192,201415,1,0,0:0:0:0:
36,192,201488,1,0,0:0:0:0:
402,192,201488,1,0,0:0:0:0:
256,192,201634,1,0,0:0:0:0:
36,192,201781,1,0,0:0:0:0:
329,192,201781,1,0,0:0:0:0:
475,192,201854,1,0,0:0:0:0:
402,192,202000,1,0,0:0:0:0:
109,192,202073,1,0,0:0:0:0:
329,192,202073,1,0,0:0:0:0:
475,192,202220,128,0,203390:0:0:0:0:
402,192,202220,1,0,0:0:0:0:
36,192,202220,1,0,0:0:0:0:
329,192,202366,1,0,0:0:0:0:
256,192,202366,1,0,0:0:0:0:
36,192,202586,1,0,0:0:0:0:
256,192,202659,1,0,0:0:0:0:
109,192,202659,1,0,0:0:0:0:
329,192,202805,1,0,0:0:0:0:
182,192,202951,1,0,0:0:0:0:
36,192,202951,1,0,0:0:0:0:
109,192,203025,1,0,0:0:0:0:
402,192,203098,1,0,0:0:0:0:
329,192,203171,1,0,0:0:0:0:
182,192,203244,1,0,0:0:0:0:
256,192,203244,1,0,0:0:0:0:
402,192,203390,1,0,0:0:0:0:
109,192,203390,1,0,0:0:0:0:
329,192,203537,1,0,0:0:0:0:
36,192,203537,1,0,0:0:0:0:
182,192,203683,1,0,0:0:0:0:
109,192,203756,1,0,0:0:0:0:
256,192,203829,1,0,0:0:0:0:
402,192,203829,1,0,0:0:0:0:
36,192,203976,1,0,0:0:0:0:
329,192,204049,1,0,0:0:0:0:
475,192,204122,1,0,0:0:0:0:
182,192,204122,1,0,0:0:0:0:
109,192,204268,1,0,0:0:0:0:
256,192,204342,1,0,0:0:0:0:
402,192,204415,1,0,0:0:0:0:
329,192,204415,1,0,0:0:0:0:
109,192,204561,128,0,205732:0:0:0:0:
36,192,204561,1,0,0:0:0:0:
475,192,204561,1,0,0:0:0:0:
329,192,204707,1,0,0:0:0:0:
256,192,204707,1,0,0:0:0:0:
182,192,204854,1,0,0:0:0:0:
256,192,204927,1,0,0:0:0:0:
329,192,205000,1,0,0:0:0:0:
475,192,205000,1,0,0:0:0:0:
402,192,205147,1,0,0:0:0:0:
329,192,205293,1,0,0:0:0:0:
36,192,205293,1,0,0:0:0:0:
402,192,205366,1,0,0:0:0:0:
475,192,205439,1,0,0:0:0:0:
329,192,205512,1,0,0:0:0:0:
182,192,205586,1,0,0:0:0:0:
402,192,205586,1,0,0:0:0:0:
256,192,205732,128,0,206903:0:0:0:0:
475,192,205732,1,0,0:0:0:0:
36,192,205732,1,0,0:0:0:0:
329,192,205878,1,0,0:0:0:0:
402,192,205878,1,0,0:0:0:0:
109,192,206025,1,0,0:0:0:0:
182,192,206098,1,0,0:0:0:0:
329,192,206171,1,0,0:0:0:0:
36,192,206171,1,0,0:0:0:0:
475,192,206317,1,0,0:0:0:0:
182,192,206464,1,0,0:0:0:0:
402,192,206464,1,0,0:0:0:0:
109,192,206537,1,0,0:0:0:0:
36,192,206610,1,0,0:0:0:0:
329,192,206683,1,0,0:0:0:0:
182,192,206756,1,0,0:0:0:0:
109,192,206756,1,0,0:0:0:0:
402,192,206903,128,0,208073:0:0:0:0:
36,192,206903,1,0,0:0:0:0:
475,192,206903,1,0,0:0:0:0:
109,192,207049,1,0,0:0:0:0:
329,192,207049,1,0,0:0:0:0:
256,192,207195,1,0,0:0:0:0:
475,192,207268,1,0,0:0:0:0:
329,192,207342,1,0,0:0:0:0:
182,192,207342,1,0,0:0:0:0:
109,192,207488,1,0,0:0:0:0:
36,192,207634,1,0,0:0:0:0:
256,192,207634,1,0,0:0:0:0:
182,192,207781,1,0,0:0:0:0:
329,192,207854,1,0,0:0:0:0:
475,192,207927,1,0,0:0:0:0:
36,192,207927,1,0,0:0:0:0:
256,192,208073,1,0,0:0:0:0:
109,192,208073,1,0,0:0:0:0:
182,192,208147,1,0,0:0:0:0:
329,192,208220,1,0,0:0:0:0:
36,192,208220,1,0,0:0:0:0:
475,192,208220,1,0,0:0:0:0:
256,192,208293,1,0,0:0:0:0:
109,192,208366,1,0,0:0:0:0:
329,192,208439,1,0,0:0:0:0:
36,192,208512,1,0,0:0:0:0:
182,192,208512,1,0,0:0:0:0:
402,192,208512,1,0,0:0:0:0:
256,192,208586,1,0,0:0:0:0:
109,192,208659,1,0,0:0:0:0:
402,192,208732,1,0,0:0:0:0:
256,192,208805,1,0,0:0:0:0:
475,192,208805,1,0,0:0:0:0:
36,192,208805,1,0,0:0:0:0:
182,192,208878,1,0,0:0:0:0:
329,192,208951,1,0,0:0:0:0:
402,192,208951,1,0,0:0:0:0:
109,192,209025,1,0,0:0:0:0:
36,192,209025,1,0,0:0:0:0:
182,192,209098,1,0,0:0:0:0:
256,192,209098,1,0,0:0:0:0:
402,192,209171,1,0,0:0:0:0:
475,192,209171,1,0,0:0:0:0:
36,192,209244,128,0,210415:0:0:0:0:
109,192,209244,1,0,0:0:0:0:
329,192,209244,1,0,0:0:0:0:
256,192,209317,1,0,0:0:0:0:
182,192,209390,1,0,0:0:0:0:
402,192,209390,1,0,0:0:0:0:
329,192,209537,1,0,0:0:0:0:
402,192,209683,1,0,0:0:0:0:
475,192,209683,1,0,0:0:0:0:
256,192,209829,1,0,0:0:0:0:
329,192,209976,1,0,0:0:0:0:
109,192,209976,1,0,0:0:0:0:
402,192,210122,1,0,0:0:0:0:
182,192,210268,1,0,0:0:0:0:
256,192,210268,1,0,0:0:0:0:
475,192,210415,128,0,211586:0:0:0:0:
109,192,210415,1,0,0:0:0:0:
329,192,210561,1,0,0:0:0:0:
402,192,210561,1,0,0:0:0:0:
256,192,210707,1,0,0:0:0:0:
109,192,210854,1,0,0:0:0:0:
182,192,210854,1,0,0:0:0:0:
329,192,211000,1,0,0:0:0:0:
256,192,211147,1,0,0:0:0:0:
36,192,211147,1,0,0:0:0:0:
109,192,211293,1,0,0:0:0:0:
182,192,211439,1,0,0:0:0:0:
402,192,211439,1,0,0:0:0:0:
109,192,211586,128,0,212756:0:0:0:0:
36,192,211586,1,0,0:0:0:0:
329,192,211732,1,0,0:0:0:0:
256,192,211732,1,0,0:0:0:0:
182,192,211878,1,0,0:0:0:0:
36,192,212025,1,0,0:0:0:0:
402,192,212025,1,0,0:0:0:0:
475,192,212171,1,0,0:0:0:0:
182,192,212317,1,0,0:0:0:0:
402,192,212317,1,0,0:0:0:0:
329,192,212464,1,0,0:0:0:0:
475,192,212610,1,0,0:0:0:0:
256,192,212610,1,0,0:0:0:0:
329,192,212756,1,0,0:0:0:0:
402,192,212903,1,0,0:0:0:0:
182,192,212903,1,0,0:0:0:0:
36,192,212903,1,0,0:0:0:0:
329,192,213049,1,0,0:0:0:0:
256,192,213195,1,0,0:0:0:0:
475,192,213195,1,0,0:0:0:0:
109,192,213195,1,0,0:0:0:0:
402,192,213342,1,0,0:0:0:0:
329,192,213488,1,0,0:0:0:0:
182,192,213488,1,0,0:0:0:0:
36,192,213488,1,0,0:0:0:0:
402,192,213634,1,0,0:0:0:0:
475,192,213781,1,0,0:0:0:0:
109,192,213781,1,0,0:0:0:0:
256,192,213781,1,0,0:0:0:0:
402,192,213927,128,0,215098:0:0:0:0:
182,192,213927,1,0,0:0:0:0:
36,192,214073,1,0,0:0:0:0:
109,192,214073,1,0,0:0:0:0:
182,192,214220,1,0,0:0:0:0:
256,192,214366,1,0,0:0:0:0:
329,192,214366,1,0,0:0:0:0:
36,192,214512,1,0,0:0:0:0:
182,192,214659,1,0,0:0:0:0:
475,192,214659,1,0,0:0:0:0:
256,192,214805,1,0,0:0:0:0:
36,192,214951,1,0,0:0:0:0:
109,192,214951,1,0,0:0:0:0:
182,192,215098,128,0,216268:0:0:0:0:
475,192,215098,1,0,0:0:0:0:
256,192,215244,1,0,0:0:0:0:
329,192,215244,1,0,0:0:0:0:
109,192,215390,1,0,0:0:0:0:
475,192,215537,1,0,0:0:0:0:
36,192,215537,1,0,0:0:0:0:
256,192,215683,1,0,0:0:0:0:
329,192,215829,1,0,0:0:0:0:
402,192,215829,1,0,0:0:0:0:
36,192,215976,1,0,0:0:0:0:
109,192,216122,1,0,0:0:0:0:
475,192,216122,1,0,0:0:0:0:
329,192,216268,128,0,217439:0:0:0:0:
256,192,216268,1,0,0:0:0:0:
36,192,216342,1,0,0:0:0:0:
182,192,216415,1,0,0:0:0:0:
402,192,216488,1,0,0:0:0:0:
109,192,216561,1,0,0:0:0:0:
182,192,216634,1,0,0:0:0:0:
36,192,216707,1,0,0:0:0:0:
256,192,216707,1,0,0:0:0:0:
475,192,216707,1,0,0:0:0:0:
402,192,216781,1,0,0:0:0:0:
109,192,216854,1,0,0:0:0:0:
256,192,216927,1,0,0:0:0:0:
475,192,217000,1,0,0:0:0:0:
182,192,217000,1,0,0:0:0:0:
109,192,217073,1,0,0:0:0:0:
402,192,217147,1,0,0:0:0:0:
256,192,217147,1,0,0:0:0:0:
36,192,217147,1,0,0:0:0:0:
182,192,217220,1,0,0:0:0:0:
109,192,217293,1,0,0:0:0:0:
402,192,217366,1,0,0:0:0:0:
256,192,217439,128,0,218610:0:0:0:0:
36,192,217439,1,0,0:0:0:0:
475,192,217439,1,0,0:0:0:0:
182,192,217439,1,0,0:0:0:0:
402,192,217586,1,0,0:0:0:0:
109,192,217586,1,0,0:0:0:0:
475,192,217586,1,0,0:0:0:0:
36,192,217878,1,0,0:0:0:0:
182,192,217878,1,0,0:0:0:0:
329,192,217878,1,0,0:0:0:0:
475,192,218025,1,0,0:0:0:0:
402,192,218025,1,0,0:0:0:0:
109,192,218025,1,0,0:0:0:0:
402,192,218317,1,0,0:0:0:0:
36,192,218317,1,0,0:0:0:0:
182,192,218317,1,0,0:0:0:0:
329,192,218464,1,0,0:0:0:0:
109,192,218464,1,0,0:0:0:0:
475,192,218464,1,0,0:0:0:0:
402,192,218610,5,0,0:0:0:0:
36,192,218610,5,0,0:0:0:0:
475,192,218610,1,0,0:0:0:0:
182,192,218610,1,0,0:0:0:0:
36,192,218756,1,0,0:0:0:0:
109,192,218756,1,0,0:0:0:0:
256,192,218829,1,0,0:0:0:0:
475,192,218903,1,0,0:0:0:0:
402,192,218903,1,0,0:0:0:0:
36,192,219049,1,0,0:0:0:0:
109,192,219049,1,0,0:0:0:0:
256,192,219122,1,0,0:0:0:0:
402,192,219195,1,0,0:0:0:0:
475,192,219195,1,0,0:0:0:0:
329,192,219342,1,0,0:0:0:0:
475,192,219488,1,0,0:0:0:0:
182,192,219488,1,0,0:0:0:0:
36,192,219634,1,0,0:0:0:0:
329,192,219781,1,0,0:0:0:0:
402,192,219781,1,0,0:0:0:0:
109,192,219927,1,0,0:0:0:0:
182,192,219927,1,0,0:0:0:0:
256,192,220000,1,0,0:0:0:0:
329,192,220073,1,0,0:0:0:0:
402,192,220073,1,0,0:0:0:0:
109,192,220220,1,0,0:0:0:0:
182,192,220220,1,0,0:0:0:0:
256,192,220293,1,0,0:0:0:0:
329,192,220366,1,0,0:0:0:0:
402,192,220366,1,0,0:0:0:0:
182,192,220512,1,0,0:0:0:0:
109,192,220586,1,0,0:0:0:0:
256,192,220659,1,0,0:0:0:0:
36,192,220659,1,0,0:0:0:0:
329,192,220951,1,0,0:0:0:0:
475,192,220951,1,0,0:0:0:0:
182,192,221098,1,0,0:0:0:0:
36,192,221098,1,0,0:0:0:0:
256,192,221244,1,0,0:0:0:0:
402,192,221244,1,0,0:0:0:0:
329,192,221390,1,0,0:0:0:0:
109,192,221390,1,0,0:0:0:0:
475,192,221537,1,0,0:0:0:0:
36,192,221537,1,0,0:0:0:0:
182,192,221610,1,0,0:0:0:0:
402,192,221683,1,0,0:0:0:0:
109,192,221756,1,0,0:0:0:0:
329,192,221829,1,0,0:0:0:0:
475,192,221829,1,0,0:0:0:0:
36,192,221976,1,0,0:0:0:0:
109,192,221976,1,0,0:0:0:0:
182,192,222049,1,0,0:0:0:0:
256,192,222122,1,0,0:0:0:0:
402,192,222122,1,0,0:0:0:0:
475,192,222268,1,0,0:0:0:0:
329,192,222268,1,0,0:0:0:0:
256,192,222415,1,0,0:0:0:0:
36,192,222415,1,0,0:0:0:0:
109,192,222561,1,0,0:0:0:0:
182,192,222634,1,0,0:0:0:0:
402,192,222707,1,0,0:0:0:0:
256,192,222707,1,0,0:0:0:0:
109,192,222854,1,0,0:0:0:0:
329,192,222854,1,0,0:0:0:0:
402,192,223000,1,0,0:0:0:0:
256,192,223000,1,0,0:0:0:0:
182,192,223073,1,0,0:0:0:0:
109,192,223147,1,0,0:0:0:0:
256,192,223220,1,0,0:0:0:0:
329,192,223293,1,0,0:0:0:0:
475,192,223293,1,0,0:0:0:0:
36,192,223293,1,0,0:0:0:0:
182,192,223439,1,0,0:0:0:0:
109,192,223439,1,0,0:0:0:0:
256,192,223512,1,0,0:0:0:0:
329,192,223586,1,0,0:0:0:0:
475,192,223586,1,0,0:0:0:0:
182,192,223732,1,0,0:0:0:0:
109,192,223732,1,0,0:0:0:0:
256,192,223805,1,0,0:0:0:0:
329,192,223878,1,0,0:0:0:0:
475,192,223878,1,0,0:0:0:0:
182,192,224025,1,0,0:0:0:0:
109,192,224098,1,0,0:0:0:0:
36,192,224171,1,0,0:0:0:0:
256,192,224171,1,0,0:0:0:0:
475,192,224464,1,0,0:0:0:0:
402,192,224464,1,0,0:0:0:0:
36,192,224610,1,0,0:0:0:0:
109,192,224610,1,0,0:0:0:0:
256,192,224683,1,0,0:0:0:0:
475,192,224756,1,0,0:0:0:0:
402,192,224756,1,0,0:0:0:0:
36,192,224903,1,0,0:0:0:0:
109,192,224903,1,0,0:0:0:0:
256,192,224976,1,0,0:0:0:0:
475,192,225049,1,0,0:0:0:0:
402,192,225049,1,0,0:0:0:0:
329,192,225195,1,0,0:0:0:0:
256,192,225268,1,0,0:0:0:0:
182,192,225342,1,0,0:0:0:0:
36,192,225342,1,0,0:0:0:0:
475,192,225634,1,0,0:0:0:0:
329,192,225634,1,0,0:0:0:0:
256,192,225707,1,0,0:0:0:0:
402,192,225707,1,0,0:0:0:0:
182,192,225781,1,0,0:0:0:0:
329,192,225781,1,0,0:0:0:0:
109,192,225854,1,0,0:0:0:0:
36,192,225927,1,0,0:0:0:0:
329,192,225927,1,0,0:0:0:0:
475,192,225927,1,0,0:0:0:0:
109,192,226000,1,0,0:0:0:0:
256,192,226000,1,0,0:0:0:0:
402,192,226073,1,0,0:0:0:0:
475,192,226073,1,0,0:0:0:0:
256,192,226147,1,0,0:0:0:0:
109,192,226147,1,0,0:0:0:0:
329,192,226220,1,0,0:0:0:0:
475,192,226220,1,0,0:0:0:0:
402,192,226293,1,0,0:0:0:0:
256,192,226293,1,0,0:0:0:0:
329,192,226366,1,0,0:0:0:0:
182,192,226366,1,0,0:0:0:0:
109,192,226439,1,0,0:0:0:0:
36,192,226512,1,0,0:0:0:0:
329,192,226512,1,0,0:0:0:0:
475,192,226512,1,0,0:0:0:0:
256,192,226586,1,0,0:0:0:0:
109,192,226586,1,0,0:0:0:0:
402,192,226659,1,0,0:0:0:0:
475,192,226659,1,0,0:0:0:0:
256,192,226732,1,0,0:0:0:0:
109,192,226732,1,0,0:0:0:0:
329,192,226805,1,0,0:0:0:0:
36,192,226805,1,0,0:0:0:0:
109,192,226878,1,0,0:0:0:0:
402,192,226878,1,0,0:0:0:0:
329,192,226951,1,0,0:0:0:0:
36,192,226951,1,0,0:0:0:0:
402,192,227025,1,0,0:0:0:0:
109,192,227025,1,0,0:0:0:0:
329,192,227098,1,0,0:0:0:0:
36,192,227098,1,0,0:0:0:0:
402,192,227171,1,0,0:0:0:0:
109,192,227171,1,0,0:0:0:0:
329,192,227244,1,0,0:0:0:0:
182,192,227244,1,0,0:0:0:0:
256,192,227317,1,0,0:0:0:0:
402,192,227317,1,0,0:0:0:0:
329,192,227390,1,0,0:0:0:0:
475,192,227390,1,0,0:0:0:0:
182,192,227464,1,0,0:0:0:0:
36,192,227464,1,0,0:0:0:0:
109,192,227537,1,0,0:0:0:0:
402,192,227537,1,0,0:0:0:0:
182,192,227610,1,0,0:0:0:0:
256,192,227683,1,0,0:0:0:0:
329,192,227756,1,0,0:0:0:0:
402,192,227829,1,0,0:0:0:0:
329,192,227903,1,0,0:0:0:0:
402,192,227976,1,0,0:0:0:0:
475,192,227976,1,0,0:0:0:0:
109,192,227976,1,0,0:0:0:0:
36,192,227976,1,0,0:0:0:0:
329,192,228049,1,0,0:0:0:0:
256,192,228122,1,0,0:0:0:0:
182,192,228122,1,0,0:0:0:0:
109,192,228268,1,0,0:0:0:0:
329,192,228342,1,0,0:0:0:0:
256,192,228415,1,0,0:0:0:0:
182,192,228415,1,0,0:0:0:0:
475,192,228488,1,0,0:0:0:0:
36,192,228561,1,0,0:0:0:0:
182,192,228707,1,0,0:0:0:0:
402,192,228707,1,0,0:0:0:0:
329,192,228854,1,0,0:0:0:0:
402,192,228927,1,0,0:0:0:0:
475,192,229000,1,0,0:0:0:0:
256,192,229000,1,0,0:0:0:0:
109,192,229147,1,0,0:0:0:0:
36,192,229147,1,0,0:0:0:0:
402,192,229293,1,0,0:0:0:0:
329,192,229293,1,0,0:0:0:0:
109,192,229439,1,0,0:0:0:0:
182,192,229512,1,0,0:0:0:0:
256,192,229586,1,0,0:0:0:0:
36,192,229586,1,0,0:0:0:0:
256,192,229732,1,0,0:0:0:0:
329,192,229805,1,0,0:0:0:0:
256,192,229878,1,0,0:0:0:0:
36,192,229878,1,0,0:0:0:0:
329,192,229951,1,0,0:0:0:0:
256,192,230025,1,0,0:0:0:0:
329,192,230098,1,0,0:0:0:0:
182,192,230171,1,0,0:0:0:0:
36,192,230171,1,0,0:0:0:0:
475,192,230317,1,0,0:0:0:0:
402,192,230317,1,0,0:0:0:0:
256,192,230390,1,0,0:0:0:0:
475,192,230464,1,0,0:0:0:0:
36,192,230464,1,0,0:0:0:0:
475,192,230537,1,0,0:0:0:0:
256,192,230610,1,0,0:0:0:0:
182,192,230683,1,0,0:0:0:0:
182,192,230756,1,0,0:0:0:0:
36,192,230756,1,0,0:0:0:0:
402,192,230829,1,0,0:0:0:0:
256,192,230903,1,0,0:0:0:0:
402,192,230976,1,0,0:0:0:0:
256,192,231049,1,0,0:0:0:0:
36,192,231049,1,0,0:0:0:0:
402,192,231122,1,0,0:0:0:0:
256,192,231195,1,0,0:0:0:0:
182,192,231268,1,0,0:0:0:0:
36,192,231342,1,0,0:0:0:0:
475,192,231342,1,0,0:0:0:0:
329,192,231415,1,0,0:0:0:0:
256,192,231488,1,0,0:0:0:0:
182,192,231561,1,0,0:0:0:0:
256,192,231634,1,0,0:0:0:0:
475,192,231634,1,0,0:0:0:0:
182,192,231707,1,0,0:0:0:0:
109,192,231781,1,0,0:0:0:0:
182,192,231854,1,0,0:0:0:0:
109,192,231927,1,0,0:0:0:0:
475,192,231927,1,0,0:0:0:0:
36,192,232000,1,0,0:0:0:0:
109,192,232073,1,0,0:0:0:0:
182,192,232147,1,0,0:0:0:0:
256,192,232220,1,0,0:0:0:0:
475,192,232220,1,0,0:0:0:0:
329,192,232293,1,0,0:0:0:0:
402,192,232366,128,0,232659:0:0:0:0:
109,192,232512,1,0,0:0:0:0:
475,192,232659,128,0,233244:0:0:0:0:
256,192,232659,1,0,0:0:0:0:
109,192,232805,1,0,0:0:0:0:
256,192,232951,1,0,0:0:0:0:
109,192,233098,1,0,0:0:0:0:
36,192,233244,1,0,0:0:0:0:
109,192,233317,1,0,0:0:0:0:
36,192,233390,1,0,0:0:0:0:
329,192,233390,1,0,0:0:0:0:
109,192,233464,1,0,0:0:0:0:
182,192,233537,1,0,0:0:0:0:
256,192,233610,1,0,0:0:0:0:
182,192,233683,1,0,0:0:0:0:
402,192,233683,1,0,0:0:0:0:
256,192,233756,1,0,0:0:0:0:
475,192,233829,1,0,0:0:0:0:
36,192,233829,1,0,0:0:0:0:
182,192,233829,1,0,0:0:0:0:
109,192,233903,1,0,0:0:0:0:
182,192,233976,1,0,0:0:0:0:
402,192,233976,1,0,0:0:0:0:
256,192,234049,1,0,0:0:0:0:
329,192,234122,1,0,0:0:0:0:
402,192,234195,1,0,0:0:0:0:
475,192,234268,1,0,0:0:0:0:
36,192,234268,1,0,0:0:0:0:
109,192,234342,1,0,0:0:0:0:
329,192,234415,1,0,0:0:0:0:
182,192,234415,1,0,0:0:0:0:
256,192,234488,1,0,0:0:0:0:
475,192,234488,1,0,0:0:0:0:
182,192,234561,1,0,0:0:0:0:
329,192,234561,1,0,0:0:0:0:
109,192,234634,1,0,0:0:0:0:
402,192,234634,1,0,0:0:0:0:
182,192,234707,1,0,0:0:0:0:
475,192,234707,1,0,0:0:0:0:
256,192,234781,1,0,0:0:0:0:
329,192,234854,1,0,0:0:0:0:
109,192,234854,1,0,0:0:0:0:
402,192,234927,1,0,0:0:0:0:
475,192,235000,1,0,0:0:0:0:
36,192,235000,1,0,0:0:0:0:
402,192,235073,1,0,0:0:0:0:
475,192,235147,1,0,0:0:0:0:
402,192,235220,1,0,0:0:0:0:
329,192,235293,1,0,0:0:0:0:
256,192,235366,1,0,0:0:0:0:
402,192,235439,1,0,0:0:0:0:
36,192,235439,1,0,0:0:0:0:
329,192,235512,1,0,0:0:0:0:
256,192,235586,1,0,0:0:0:0:
329,192,235659,1,0,0:0:0:0:
402,192,235732,1,0,0:0:0:0:
182,192,235732,1,0,0:0:0:0:
329,192,235805,1,0,0:0:0:0:
109,192,235805,1,0,0:0:0:0:
256,192,235878,1,0,0:0:0:0:
36,192,235878,1,0,0:0:0:0:
182,192,235951,1,0,0:0:0:0:
109,192,236025,1,0,0:0:0:0:
329,192,236025,1,0,0:0:0:0:
182,192,236098,1,0,0:0:0:0:
402,192,236098,1,0,0:0:0:0:
475,192,236171,1,0,0:0:0:0:
36,192,236171,1,0,0:0:0:0:
256,192,236171,1,0,0:0:0:0:
402,192,236244,1,0,0:0:0:0:
109,192,236244,1,0,0:0:0:0:
329,192,236317,1,0,0:0:0:0:
182,192,236317,1,0,0:0:0:0:
402,192,236390,1,0,0:0:0:0:
109,192,236390,1,0,0:0:0:0:
36,192,236464,1,0,0:0:0:0:
475,192,236464,128,0,236756:0:0:0:0:
109,192,236537,1,0,0:0:0:0:
182,192,236610,1,0,0:0:0:0:
256,192,236683,1,0,0:0:0:0:
329,192,236756,1,0,0:0:0:0:
182,192,236756,1,0,0:0:0:0:
402,192,236829,1,0,0:0:0:0:
109,192,236829,1,0,0:0:0:0:
329,192,236903,1,0,0:0:0:0:
182,192,236903,1,0,0:0:0:0:
402,192,236976,1,0,0:0:0:0:
109,192,236976,1,0,0:0:0:0:
329,192,237049,1,0,0:0:0:0:
182,192,237049,1,0,0:0:0:0:
402,192,237122,1,0,0:0:0:0:
109,192,237122,1,0,0:0:0:0:
329,192,237195,1,0,0:0:0:0:
182,192,237195,1,0,0:0:0:0:
402,192,237268,1,0,0:0:0:0:
109,192,237268,1,0,0:0:0:0:
36,192,237342,1,0,0:0:0:0:
256,192,237342,1,0,0:0:0:0:
475,192,237342,1,0,0:0:0:0:
182,192,237488,1,0,0:0:0:0:
329,192,237634,1,0,0:0:0:0:
475,192,237781,1,0,0:0:0:0:
109,192,237927,1,0,0:0:0:0:
256,192,238073,1,0,0:0:0:0:
402,192,238220,1,0,0:0:0:0:
36,192,238366,1,0,0:0:0:0:
329,192,238512,1,0,0:0:0:0:
109,192,238659,1,0,0:0:0:0:
402,192,238805,1,0,0:0:0:0:
182,192,238951,1,0,0:0:0:0:
256,192,239244,1,0,0:0:0:0:
182,192,239317,1,0,0:0:0:0:
329,192,239317,1,0,0:0:0:0:
256,192,239390,1,0,0:0:0:0:
475,192,239464,1,0,0:0:0:0:
36,192,239464,1,0,0:0:0:0:
402,192,239537,1,0,0:0:0:0:
109,192,239537,1,0,0:0:0:0:
329,192,239610,1,0,0:0:0:0:
182,192,239610,1,0,0:0:0:0:
109,192,239683,1,0,0:0:0:0:
256,192,239683,1,0,0:0:0:0:
402,192,239683,1,0,0:0:0:0:
475,192,239829,1,0,0:0:0:0:
329,192,239976,1,0,0:0:0:0:
182,192,240122,1,0,0:0:0:0:
402,192,240268,1,0,0:0:0:0:
256,192,240415,1,0,0:0:0:0:
109,192,240561,1,0,0:0:0:0:
329,192,240707,1,0,0:0:0:0:
182,192,240854,1,0,0:0:0:0:
36,192,241000,1,0,0:0:0:0:
402,192,241147,1,0,0:0:0:0:
109,192,241293,1,0,0:0:0:0:
182,192,241586,1,0,0:0:0:0:
329,192,241586,1,0,0:0:0:0:
36,192,241659,1,0,0:0:0:0:
475,192,241659,1,0,0:0:0:0:
329,192,241732,1,0,0:0:0:0:
182,192,241732,1,0,0:0:0:0:
475,192,241805,1,0,0:0:0:0:
36,192,241805,1,0,0:0:0:0:
329,192,241878,1,0,0:0:0:0:
182,192,241878,1,0,0:0:0:0:
475,192,241951,1,0,0:0:0:0:
36,192,241951,1,0,0:0:0:0:
256,192,242025,1,0,0:0:0:0:
109,192,242025,1,0,0:0:0:0:
402,192,242025,1,0,0:0:0:0:
36,192,242171,1,0,0:0:0:0:
182,192,242317,1,0,0:0:0:0:
329,192,242464,1,0,0:0:0:0:
475,192,242610,1,0,0:0:0:0:
256,192,242756,1,0,0:0:0:0:
109,192,242829,1,0,0:0:0:0:
402,192,242829,1,0,0:0:0:0:
182,192,242903,1,0,0:0:0:0:
329,192,242903,1,0,0:0:0:0:
109,192,242976,1,0,0:0:0:0:
402,192,242976,1,0,0:0:0:0:
182,192,243049,1,0,0:0:0:0:
329,192,243049,1,0,0:0:0:0:
109,192,243122,1,0,0:0:0:0:
402,192,243122,1,0,0:0:0:0:
36,192,243195,1,0,0:0:0:0:
475,192,243195,1,0,0:0:0:0:
256,192,243195,1,0,0:0:0:0:
402,192,243342,1,0,0:0:0:0:
256,192,243488,1,0,0:0:0:0:
109,192,243634,1,0,0:0:0:0:
256,192,243781,1,0,0:0:0:0:
329,192,243927,1,0,0:0:0:0:
182,192,243927,1,0,0:0:0:0:
402,192,244000,1,0,0:0:0:0:
109,192,244000,1,0,0:0:0:0:
475,192,244073,1,0,0:0:0:0:
36,192,244073,1,0,0:0:0:0:
402,192,244147,1,0,0:0:0:0:
109,192,244147,1,0,0:0:0:0:
329,192,244220,1,0,0:0:0:0:
182,192,244220,1,0,0:0:0:0:
402,192,244293,1,0,0:0:0:0:
109,192,244293,1,0,0:0:0:0:
475,192,244366,1,0,0:0:0:0:
256,192,244366,1,0,0:0:0:0:
36,192,244366,1,0,0:0:0:0:
329,192,244439,1,0,0:0:0:0:
182,192,244512,1,0,0:0:0:0:
329,192,244586,1,0,0:0:0:0:
36,192,244659,1,0,0:0:0:0:
109,192,244732,1,0,0:0:0:0:
182,192,244805,1,0,0:0:0:0:
329,192,244805,1,0,0:0:0:0:
256,192,244805,1,0,0:0:0:0:
402,192,244878,1,0,0:0:0:0:
475,192,244951,1,0,0:0:0:0:
256,192,245025,1,0,0:0:0:0:
36,192,245098,1,0,0:0:0:0:
109,192,245171,1,0,0:0:0:0:
182,192,245244,1,0,0:0:0:0:
329,192,245244,1,0,0:0:0:0:
256,192,245244,1,0,0:0:0:0:
402,192,245317,1,0,0:0:0:0:
475,192,245390,1,0,0:0:0:0:
402,192,245464,1,0,0:0:0:0:
329,192,245537,1,0,0:0:0:0:
109,192,245610,1,0,0:0:0:0:
36,192,245683,1,0,0:0:0:0:
182,192,245756,1,0,0:0:0:0:
109,192,245829,1,0,0:0:0:0:
256,192,245903,1,0,0:0:0:0:
182,192,245976,1,0,0:0:0:0:
329,192,246049,1,0,0:0:0:0:
256,192,246122,1,0,0:0:0:0:
402,192,246195,1,0,0:0:0:0:
329,192,246268,1,0,0:0:0:0:
475,192,246342,1,0,0:0:0:0:
402,192,246415,1,0,0:0:0:0:
256,192,246415,1,0,0:0:0:0:
36,192,246415,1,0,0:0:0:0:
109,192,246561,1,0,0:0:0:0:
182,192,246707,1,0,0:0:0:0:
329,192,246707,1,0,0:0:0:0:
402,192,246854,1,0,0:0:0:0:
475,192,247000,1,0,0:0:0:0:
36,192,247147,1,0,0:0:0:0:
182,192,247147,1,0,0:0:0:0:
402,192,247147,1,0,0:0:0:0:
256,192,247293,1,0,0:0:0:0:
475,192,247439,1,0,0:0:0:0:
329,192,247439,1,0,0:0:0:0:
109,192,247439,1,0,0:0:0:0:
256,192,247586,1,0,0:0:0:0:
182,192,247732,1,0,0:0:0:0:
36,192,247732,1,0,0:0:0:0:
402,192,247732,1,0,0:0:0:0:
256,192,247878,1,0,0:0:0:0:
475,192,248025,1,0,0:0:0:0:
329,192,248025,1,0,0:0:0:0:
109,192,248025,1,0,0:0:0:0:
256,192,248171,1,0,0:0:0:0:
182,192,248317,1,0,0:0:0:0:
36,192,248317,1,0,0:0:0:0:
402,192,248317,1,0,0:0:0:0:
256,192,248464,1,0,0:0:0:0:
475,192,248610,1,0,0:0:0:0:
329,192,248610,1,0,0:0:0:0:
182,192,248610,1,0,0:0:0:0:
402,192,248756,1,0,0:0:0:0:
109,192,248829,1,0,0:0:0:0:
36,192,248903,1,0,0:0:0:0:
329,192,248903,1,0,0:0:0:0:
182,192,248903,1,0,0:0:0:0:
256,192,249049,1,0,0:0:0:0:
402,192,249049,1,0,0:0:0:0:
475,192,249195,1,0,0:0:0:0:
36,192,249195,1,0,0:0:0:0:
182,192,249195,1,0,0:0:0:0:
402,192,249342,1,0,0:0:0:0:
182,192,249488,1,0,0:0:0:0:
329,192,249488,1,0,0:0:0:0:
475,192,249488,1,0,0:0:0:0:
109,192,249634,1,0,0:0:0:0:
36,192,249781,1,0,0:0:0:0:
256,192,249781,1,0,0:0:0:0:
402,192,249781,1,0,0:0:0:0:
109,192,249927,5,0,0:0:0:0:
329,192,250073,1,0,0:0:0:0:
182,192,250073,1,0,0:0:0:0:
36,192,250073,1,0,0:0:0:0:
402,192,250220,1,0,0:0:0:0:
475,192,250366,1,0,0:0:0:0:
256,192,250366,1,0,0:0:0:0:
109,192,250366,1,0,0:0:0:0:
402,192,250512,1,0,0:0:0:0:
36,192,250586,1,0,0:0:0:0:
329,192,250659,1,0,0:0:0:0:
182,192,250659,1,0,0:0:0:0:
475,192,250659,1,0,0:0:0:0:
109,192,250805,1,0,0:0:0:0:
256,192,250878,1,0,0:0:0:0:
36,192,250951,1,0,0:0:0:0:
402,192,250951,1,0,0:0:0:0:
109,192,251098,128,0,251390:0:0:0:0:
329,192,251098,1,0,0:0:0:0:
36,192,251390,128,0,251829:0:0:0:0:
402,192,251390,1,0,0:0:0:0:
256,192,251390,1,0,0:0:0:0:
182,192,251464,1,0,0:0:0:0:
256,192,251537,1,0,0:0:0:0:
182,192,251610,1,0,0:0:0:0:
256,192,251683,1,0,0:0:0:0:
402,192,251756,1,0,0:0:0:0:
475,192,251829,128,0,252268:0:0:0:0:
329,192,251829,1,0,0:0:0:0:
109,192,251829,1,0,0:0:0:0:
256,192,251903,1,0,0:0:0:0:
182,192,251976,1,0,0:0:0:0:
109,192,252049,1,0,0:0:0:0:
182,192,252122,1,0,0:0:0:0:
256,192,252195,1,0,0:0:0:0:
402,192,252268,128,0,252561:0:0:0:0:
329,192,252268,1,0,0:0:0:0:
36,192,252268,1,0,0:0:0:0:
109,192,252342,1,0,0:0:0:0:
182,192,252415,1,0,0:0:0:0:
109,192,252488,1,0,0:0:0:0:
36,192,252561,128,0,252854:0:0:0:0:
475,192,252561,1,0,0:0:0:0:
256,192,252561,1,0,0:0:0:0:
329,192,252634,1,0,0:0:0:0:
256,192,252707,1,0,0:0:0:0:
329,192,252781,1,0,0:0:0:0:
109,192,252854,128,0,253439:0:0:0:0:
256,192,252854,1,0,0:0:0:0:
475,192,252927,1,0,0:0:0:0:
402,192,253000,1,0,0:0:0:0:
182,192,253000,1,0,0:0:0:0:
475,192,253073,1,0,0:0:0:0:
402,192,253147,1,0,0:0:0:0:
475,192,253220,1,0,0:0:0:0:
182,192,253293,1,0,0:0:0:0:
256,192,253366,1,0,0:0:0:0:
402,192,253439,128,0,253732:0:0:0:0:
329,192,253439,1,0,0:0:0:0:
36,192,253439,1,0,0:0:0:0:
256,192,253512,1,0,0:0:0:0:
182,192,253586,1,0,0:0:0:0:
109,192,253659,1,0,0:0:0:0:
329,192,253732,128,0,255488:0:0:0:0:
36,192,253732,1,0,0:0:0:0:
256,192,253805,1,0,0:0:0:0:
182,192,253878,1,0,0:0:0:0:
109,192,253951,1,0,0:0:0:0:
36,192,254025,1,0,0:0:0:0:
182,192,254098,1,0,0:0:0:0:
256,192,254171,1,0,0:0:0:0:
402,192,254244,1,0,0:0:0:0:
475,192,254317,1,0,0:0:0:0:
402,192,254390,1,0,0:0:0:0:
256,192,254464,1,0,0:0:0:0:
182,192,254537,1,0,0:0:0:0:
109,192,254610,1,0,0:0:0:0:
182,192,254683,1,0,0:0:0:0:
256,192,254756,1,0,0:0:0:0:
36,192,254829,1,0,0:0:0:0:
109,192,254903,1,0,0:0:0:0:
402,192,254903,1,0,0:0:0:0:
182,192,254976,1,0,0:0:0:0:
109,192,255049,1,0,0:0:0:0:
36,192,255122,1,0,0:0:0:0:
475,192,255195,1,0,0:0:0:0:
402,192,255268,1,0,0:0:0:0:
256,192,255342,1,0,0:0:0:0:
402,192,255415,1,0,0:0:0:0:
109,192,255488,128,0,255781:0:0:0:0:
475,192,255488,1,0,0:0:0:0:
182,192,255488,1,0,0:0:0:0:
256,192,255561,1,0,0:0:0:0:
182,192,255634,1,0,0:0:0:0:
256,192,255707,1,0,0:0:0:0:
182,192,255781,128,0,256073:0:0:0:0:
329,192,255781,1,0,0:0:0:0:
402,192,255854,1,0,0:0:0:0:
329,192,255927,1,0,0:0:0:0:
402,192,256000,1,0,0:0:0:0:
256,192,256073,128,0,258415:0:0:0:0:
475,192,256073,1,0,0:0:0:0:
36,192,256073,1,0,0:0:0:0:
109,192,256147,1,0,0:0:0:0:
402,192,256147,1,0,0:0:0:0:
329,192,256220,1,0,0:0:0:0:
182,192,256220,1,0,0:0:0:0:
109,192,256293,1,0,0:0:0:0:
36,192,256366,1,0,0:0:0:0:
475,192,256366,1,0,0:0:0:0:
402,192,256439,1,0,0:0:0:0:
109,192,256439,1,0,0:0:0:0:
329,192,256512,1,0,0:0:0:0:
182,192,256512,1,0,0:0:0:0:
402,192,256586,1,0,0:0:0:0:
109,192,256586,1,0,0:0:0:0:
475,192,256659,1,0,0:0:0:0:
36,192,256659,1,0,0:0:0:0:
329,192,256805,1,0,0:0:0:0:
182,192,256805,1,0,0:0:0:0:
402,192,256878,1,0,0:0:0:0:
109,192,256878,1,0,0:0:0:0:
329,192,256951,1,0,0:0:0:0:
182,192,256951,1,0,0:0:0:0:
109,192,257025,1,0,0:0:0:0:
402,192,257025,1,0,0:0:0:0:
475,192,257098,1,0,0:0:0:0:
36,192,257098,1,0,0:0:0:0:
329,192,257171,1,0,0:0:0:0:
182,192,257171,1,0,0:0:0:0:
402,192,257244,1,0,0:0:0:0:
109,192,257244,1,0,0:0:0:0:
182,192,257317,1,0,0:0:0:0:
329,192,257317,1,0,0:0:0:0:
475,192,257390,1,0,0:0:0:0:
36,192,257390,1,0,0:0:0:0:
329,192,257537,1,0,0:0:0:0:
182,192,257537,1,0,0:0:0:0:
475,192,257683,1,0,0:0:0:0:
36,192,257683,1,0,0:0:0:0:
329,192,257829,1,0,0:0:0:0:
182,192,257829,1,0,0:0:0:0:
36,192,257976,1,0,0:0:0:0:
475,192,257976,1,0,0:0:0:0:
402,192,258122,1,0,0:0:0:0:
109,192,258122,1,0,0:0:0:0:
36,192,258415,128,0,260171:0:0:0:0:
475,192,258415,128,0,260171:0:0:0:0:
182,192,258415,1,0,0:0:0:0:
329,192,258415,1,0,0:0:0:0:
329,192,258561,1,0,0:0:0:0:
182,192,258561,1,0,0:0:0:0:
402,192,258854,1,0,0:0:0:0:
109,192,258854,1,0,0:0:0:0:
402,192,259000,1,0,0:0:0:0:
109,192,259000,1,0,0:0:0:0:
182,192,259293,1,0,0:0:0:0:
329,192,259293,1,0,0:0:0:0:
329,192,259439,1,0,0:0:0:0:
182,192,259439,1,0,0:0:0:0:
256,192,259732,1,0,0:0:0:0:
329,192,259805,1,0,0:0:0:0:
182,192,259805,1,0,0:0:0:0:
402,192,259878,1,0,0:0:0:0:
109,192,259878,1,0,0:0:0:0:
329,192,260025,1,0,0:0:0:0:
182,192,260025,1,0,0:0:0:0:
402,192,260098,1,0,0:0:0:0:
109,192,260098,1,0,0:0:0:0:
182,192,260171,1,0,0:0:0:0:
329,192,260171,1,0,0:0:0:0:
109,192,260244,1,0,0:0:0:0:
402,192,260244,1,0,0:0:0:0:
36,192,260317,1,0,0:0:0:0:
475,192,260317,1,0,0:0:0:0:
109,192,260464,1,0,0:0:0:0:
402,192,260464,1,0,0:0:0:0:
329,192,260610,1,0,0:0:0:0:
182,192,260610,1,0,0:0:0:0:
36,192,260756,128,0,263098:0:0:0:0:
109,192,260756,1,0,0:0:0:0:
402,192,260756,1,0,0:0:0:0:
475,192,260756,1,0,0:0:0:0:
475,192,263098,128,0,264268:0:0:0:0:
109,192,263098,1,0,0:0:0:0:
256,192,263098,1,0,0:0:0:0:
402,192,263098,1,0,0:0:0:0:
109,192,264268,1,0,0:0:0:0:
402,192,264268,1,0,0:0:0:0:
256,192,264268,1,0,0:0:0:0:
36,192,264561,1,0,0:0:0:0:
329,192,264561,1,0,0:0:0:0:
475,192,264561,1,0,0:0:0:0:
182,192,264561,1,0,0:0:0:0:
402,192,264707,1,0,0:0:0:0:
109,192,264707,1,0,0:0:0:0:
36,192,264854,1,0,0:0:0:0:
475,192,264854,1,0,0:0:0:0:
182,192,264854,128,0,265147:0:0:0:0:
329,192,264854,128,0,265147:0:0:0:0:
475,192,265147,1,0,0:0:0:0:
36,192,265147,1,0,0:0:0:0:
402,192,265293,1,0,0:0:0:0:
109,192,265293,1,0,0:0:0:0:
475,192,265439,1,0,0:0:0:0:
36,192,265439,1,0,0:0:0:0:
329,192,265439,128,0,266464:0:0:0:0:
182,192,265439,128,0,266464:0:0:0:0:
109,192,266464,1,0,0:0:0:0:
402,192,266464,1,0,0:0:0:0:
256,192,266610,1,0,0:0:0:0:
475,192,266610,1,0,0:0:0:0:
36,192,266610,1,0,0:0:0:0:
329,192,266903,1,0,0:0:0:0:
182,192,266903,1,0,0:0:0:0:
402,192,267049,1,0,0:0:0:0:
109,192,267049,1,0,0:0:0:0:
256,192,267049,1,0,0:0:0:0:
475,192,267342,1,0,0:0:0:0:
36,192,267342,1,0,0:0:0:0:
109,192,267488,1,0,0:0:0:0:
256,192,267488,1,0,0:0:0:0:
402,192,267488,1,0,0:0:0:0:
36,192,267781,1,0,0:0:0:0:
475,192,267781,1,0,0:0:0:0:
329,192,267781,1,0,0:0:0:0:
182,192,267781,1,0,0:0:0:0:
402,192,267854,1,0,0:0:0:0:
256,192,267927,1,0,0:0:0:0:
109,192,268000,1,0,0:0:0:0:
402,192,268073,1,0,0:0:0:0:
36,192,268073,1,0,0:0:0:0:
329,192,268147,1,0,0:0:0:0:
182,192,268220,1,0,0:0:0:0:
475,192,268220,1,0,0:0:0:0:
109,192,268293,1,0,0:0:0:0:
402,192,268366,1,0,0:0:0:0:
256,192,268439,1,0,0:0:0:0:
182,192,268512,1,0,0:0:0:0:
36,192,268512,1,0,0:0:0:0:
475,192,268512,1,0,0:0:0:0:
329,192,268586,1,0,0:0:0:0:
109,192,268659,1,0,0:0:0:0:
402,192,268659,1,0,0:0:0:0:
182,192,268659,1,0,0:0:0:0:
256,192,268732,1,0,0:0:0:0:
475,192,268805,1,0,0:0:0:0:
329,192,268878,1,0,0:0:0:0:
182,192,268951,1,0,0:0:0:0:
36,192,269025,1,0,0:0:0:0:
109,192,269061,1,0,0:0:0:0:
182,192,269098,1,0,0:0:0:0:
256,192,269134,1,0,0:0:0:0:
402,192,269171,1,0,0:0:0:0:
109,192,269317,1,0,0:0:0:0:
182,192,269354,1,0,0:0:0:0:
256,192,269390,1,0,0:0:0:0:
329,192,269427,1,0,0:0:0:0:
36,192,269464,1,0,0:0:0:0:
182,192,269610,1,0,0:0:0:0:
256,192,269647,1,0,0:0:0:0:
329,192,269683,1,0,0:0:0:0:
402,192,269720,1,0,0:0:0:0:
109,192,269756,1,0,0:0:0:0:
36,192,269829,1,0,0:0:0:0:
182,192,269829,1,0,0:0:0:0:
475,192,269903,1,0,0:0:0:0:
402,192,269939,1,0,0:0:0:0:
329,192,269976,1,0,0:0:0:0:
256,192,270012,1,0,0:0:0:0:
109,192,270049,1,0,0:0:0:0:
36,192,270122,1,0,0:0:0:0:
182,192,270122,1,0,0:0:0:0:
475,192,270122,1,0,0:0:0:0:
402,192,270195,1,0,0:0:0:0:
256,192,270268,1,0,0:0:0:0:
475,192,270268,1,0,0:0:0:0:
109,192,270342,1,0,0:0:0:0:
329,192,270415,1,0,0:0:0:0:
36,192,270415,1,0,0:0:0:0:
182,192,270488,1,0,0:0:0:0:
109,192,270561,1,0,0:0:0:0:
402,192,270561,1,0,0:0:0:0:
475,192,270634,1,0,0:0:0:0:
182,192,270707,1,0,0:0:0:0:
329,192,270707,1,0,0:0:0:0:
256,192,270781,1,0,0:0:0:0:
329,192,270854,1,0,0:0:0:0:
402,192,270854,1,0,0:0:0:0:
109,192,270927,1,0,0:0:0:0:
36,192,271000,1,0,0:0:0:0:
475,192,271000,1,0,0:0:0:0:
402,192,271073,1,0,0:0:0:0:
256,192,271147,1,0,0:0:0:0:
182,192,271147,1,0,0:0:0:0:
329,192,271220,1,0,0:0:0:0:
475,192,271293,1,0,0:0:0:0:
109,192,271293,1,0,0:0:0:0:
36,192,271366,1,0,0:0:0:0:
329,192,271439,1,0,0:0:0:0:
182,192,271439,1,0,0:0:0:0:
109,192,271512,1,0,0:0:0:0:
402,192,271586,1,0,0:0:0:0:
256,192,271586,1,0,0:0:0:0:
475,192,271659,1,0,0:0:0:0:
36,192,271732,1,0,0:0:0:0:
182,192,271732,1,0,0:0:0:0:
329,192,271805,1,0,0:0:0:0:
109,192,271878,1,0,0:0:0:0:
475,192,271878,1,0,0:0:0:0:
182,192,272025,1,0,0:0:0:0:
256,192,272025,1,0,0:0:0:0:
402,192,272098,1,0,0:0:0:0:
329,192,272171,1,0,0:0:0:0:
36,192,272171,1,0,0:0:0:0:
109,192,272244,1,0,0:0:0:0:
256,192,272317,1,0,0:0:0:0:
475,192,272317,1,0,0:0:0:0:
182,192,272390,1,0,0:0:0:0:
402,192,272464,1,0,0:0:0:0:
109,192,272464,1,0,0:0:0:0:
475,192,272464,128,0,273049:0:0:0:0:
329,192,272537,1,0,0:0:0:0:
182,192,272610,1,0,0:0:0:0:
402,192,272683,1,0,0:0:0:0:
256,192,272756,1,0,0:0:0:0:
36,192,272756,1,0,0:0:0:0:
329,192,272829,1,0,0:0:0:0:
109,192,272903,1,0,0:0:0:0:
402,192,272903,1,0,0:0:0:0:
256,192,272976,1,0,0:0:0:0:
329,192,273049,128,0,273634:0:0:0:0:
182,192,273049,1,0,0:0:0:0:
36,192,273049,1,0,0:0:0:0:
109,192,273122,1,0,0:0:0:0:
256,192,273195,1,0,0:0:0:0:
475,192,273195,1,0,0:0:0:0:
36,192,273268,1,0,0:0:0:0:
402,192,273342,1,0,0:0:0:0:
109,192,273342,1,0,0:0:0:0:
182,192,273415,1,0,0:0:0:0:
475,192,273488,1,0,0:0:0:0:
256,192,273488,1,0,0:0:0:0:
402,192,273561,1,0,0:0:0:0:
182,192,273634,128,0,274220:0:0:0:0:
36,192,273634,1,0,0:0:0:0:
109,192,273634,1,0,0:0:0:0:
475,192,273707,1,0,0:0:0:0:
256,192,273781,1,0,0:0:0:0:
402,192,273781,1,0,0:0:0:0:
36,192,273854,1,0,0:0:0:0:
475,192,273927,1,0,0:0:0:0:
329,192,273927,1,0,0:0:0:0:
109,192,274000,1,0,0:0:0:0:
402,192,274073,1,0,0:0:0:0:
36,192,274073,1,0,0:0:0:0:
256,192,274147,1,0,0:0:0:0:
36,192,274220,128,0,274805:0:0:0:0:
109,192,274220,1,0,0:0:0:0:
475,192,274220,1,0,0:0:0:0:
329,192,274293,1,0,0:0:0:0:
256,192,274366,1,0,0:0:0:0:
402,192,274366,1,0,0:0:0:0:
475,192,274439,1,0,0:0:0:0:
109,192,274512,1,0,0:0:0:0:
402,192,274512,1,0,0:0:0:0:
256,192,274586,1,0,0:0:0:0:
182,192,274659,1,0,0:0:0:0:
329,192,274659,1,0,0:0:0:0:
402,192,274732,1,0,0:0:0:0:
256,192,274805,128,0,275976:0:0:0:0:
475,192,274805,1,0,0:0:0:0:
109,192,274805,1,0,0:0:0:0:
182,192,274878,1,0,0:0:0:0:
329,192,274951,1,0,0:0:0:0:
402,192,274951,1,0,0:0:0:0:
475,192,275025,1,0,0:0:0:0:
402,192,275098,1,0,0:0:0:0:
182,192,275098,1,0,0:0:0:0:
36,192,275171,1,0,0:0:0:0:
109,192,275244,1,0,0:0:0:0:
475,192,275244,1,0,0:0:0:0:
329,192,275317,1,0,0:0:0:0:
36,192,275390,1,0,0:0:0:0:
475,192,275390,1,0,0:0:0:0:
182,192,275464,1,0,0:0:0:0:
329,192,275537,1,0,0:0:0:0:
402,192,275537,1,0,0:0:0:0:
109,192,275610,1,0,0:0:0:0:
475,192,275683,1,0,0:0:0:0:
182,192,275683,1,0,0:0:0:0:
329,192,275756,1,0,0:0:0:0:
36,192,275829,1,0,0:0:0:0:
402,192,275829,1,0,0:0:0:0:
182,192,275903,1,0,0:0:0:0:
402,192,275976,128,0,276415:0:0:0:0:
329,192,275976,1,0,0:0:0:0:
109,192,275976,1,0,0:0:0:0:
36,192,276049,1,0,0:0:0:0:
182,192,276122,1,0,0:0:0:0:
109,192,276122,1,0,0:0:0:0:
329,192,276195,1,0,0:0:0:0:
475,192,276268,1,0,0:0:0:0:
256,192,276268,1,0,0:0:0:0:
36,192,276342,1,0,0:0:0:0:
182,192,276415,1,0,0:0:0:0:
109,192,276415,128,0,277147:0:0:0:0:
329,192,276415,1,0,0:0:0:0:
475,192,276488,1,0,0:0:0:0:
256,192,276561,1,0,0:0:0:0:
36,192,276561,1,0,0:0:0:0:
402,192,276634,1,0,0:0:0:0:
182,192,276707,1,0,0:0:0:0:
475,192,276707,1,0,0:0:0:0:
329,192,276781,1,0,0:0:0:0:
256,192,276854,1,0,0:0:0:0:
475,192,276854,1,0,0:0:0:0:
36,192,276927,1,0,0:0:0:0:
329,192,277000,1,0,0:0:0:0:
402,192,277000,1,0,0:0:0:0:
182,192,277073,1,0,0:0:0:0:
256,192,277147,1,0,0:0:0:0:
36,192,277147,1,0,0:0:0:0:
475,192,277147,1,0,0:0:0:0:
402,192,277220,1,0,0:0:0:0:
182,192,277293,1,0,0:0:0:0:
256,192,277366,1,0,0:0:0:0:
36,192,277439,1,0,0:0:0:0:
329,192,277439,1,0,0:0:0:0:
402,192,277512,1,0,0:0:0:0:
256,192,277586,1,0,0:0:0:0:
475,192,277586,1,0,0:0:0:0:
182,192,277659,1,0,0:0:0:0:
109,192,277732,1,0,0:0:0:0:
36,192,277732,1,0,0:0:0:0:
475,192,277805,1,0,0:0:0:0:
402,192,277878,1,0,0:0:0:0:
182,192,277878,1,0,0:0:0:0:
329,192,277951,1,0,0:0:0:0:
256,192,278025,1,0,0:0:0:0:
109,192,278025,1,0,0:0:0:0:
36,192,278098,1,0,0:0:0:0:
109,192,278171,1,0,0:0:0:0:
329,192,278171,1,0,0:0:0:0:
182,192,278244,1,0,0:0:0:0:
256,192,278317,1,0,0:0:0:0:
475,192,278317,128,0,278390:0:0:0:0:
36,192,278390,128,0,278464:0:0:0:0:
402,192,278464,128,0,278537:0:0:0:0:
109,192,278537,128,0,278610:0:0:0:0:
256,192,278610,128,0,278683:0:0:0:0:
36,192,278683,128,0,278756:0:0:0:0:
182,192,278756,128,0,278829:0:0:0:0:
402,192,278829,128,0,278903:0:0:0:0:
109,192,278903,128,0,278976:0:0:0:0:
475,192,278976,128,0,279049:0:0:0:0:
182,192,279049,128,0,279122:0:0:0:0:
36,192,279122,128,0,279195:0:0:0:0:
402,192,279195,128,0,279268:0:0:0:0:
329,192,279268,128,0,279342:0:0:0:0:
109,192,279342,1,0,0:0:0:0:
182,192,279415,1,0,0:0:0:0:
256,192,279488,1,0,0:0:0:0:
475,192,279488,1,0,0:0:0:0:
36,192,279488,1,0,0:0:0:0:
329,192,279561,1,0,0:0:0:0:
109,192,279634,1,0,0:0:0:0:
402,192,279634,1,0,0:0:0:0:
182,192,279634,1,0,0:0:0:0:
256,192,279707,1,0,0:0:0:0:
329,192,279781,1,0,0:0:0:0:
475,192,279781,1,0,0:0:0:0:
256,192,279854,1,0,0:0:0:0:
36,192,279927,1,0,0:0:0:0:
109,192,279927,1,0,0:0:0:0:
402,192,279927,1,0,0:0:0:0:
182,192,280000,1,0,0:0:0:0:
475,192,280073,1,0,0:0:0:0:
36,192,280147,1,0,0:0:0:0:
402,192,280220,1,0,0:0:0:0:
256,192,280220,1,0,0:0:0:0:
109,192,280220,1,0,0:0:0:0:
329,192,280293,1,0,0:0:0:0:
475,192,280366,1,0,0:0:0:0:
182,192,280439,1,0,0:0:0:0:
402,192,280512,1,0,0:0:0:0:
36,192,280512,1,0,0:0:0:0:
329,192,280512,1,0,0:0:0:0:
109,192,280586,1,0,0:0:0:0:
182,192,280659,1,0,0:0:0:0:
475,192,280659,1,0,0:0:0:0:
329,192,280732,1,0,0:0:0:0:
109,192,280805,1,0,0:0:0:0:
402,192,280805,1,0,0:0:0:0:
256,192,280805,1,0,0:0:0:0:
182,192,280878,1,0,0:0:0:0:
36,192,280951,1,0,0:0:0:0:
329,192,280951,1,0,0:0:0:0:
109,192,281025,1,0,0:0:0:0:
256,192,281098,1,0,0:0:0:0:
402,192,281098,1,0,0:0:0:0:
182,192,281098,1,0,0:0:0:0:
475,192,281171,1,0,0:0:0:0:
329,192,281244,1,0,0:0:0:0:
109,192,281244,1,0,0:0:0:0:
182,192,281317,1,0,0:0:0:0:
402,192,281390,1,0,0:0:0:0:
256,192,281390,1,0,0:0:0:0:
36,192,281390,1,0,0:0:0:0:
109,192,281464,1,0,0:0:0:0:
475,192,281537,1,0,0:0:0:0:
182,192,281537,1,0,0:0:0:0:
329,192,281610,1,0,0:0:0:0:
256,192,281683,1,0,0:0:0:0:
36,192,281683,1,0,0:0:0:0:
402,192,281683,1,0,0:0:0:0:
182,192,281756,1,0,0:0:0:0:
109,192,281829,1,0,0:0:0:0:
402,192,281829,1,0,0:0:0:0:
475,192,281903,1,0,0:0:0:0:
36,192,281976,1,0,0:0:0:0:
329,192,281976,1,0,0:0:0:0:
256,192,281976,1,0,0:0:0:0:
182,192,282049,1,0,0:0:0:0:
109,192,282122,1,0,0:0:0:0:
402,192,282122,1,0,0:0:0:0:
36,192,282195,1,0,0:0:0:0:
256,192,282268,1,0,0:0:0:0:
329,192,282268,1,0,0:0:0:0:
475,192,282268,1,0,0:0:0:0:
402,192,282342,1,0,0:0:0:0:
109,192,282415,1,0,0:0:0:0:
182,192,282415,1,0,0:0:0:0:
475,192,282561,1,0,0:0:0:0:
36,192,282561,1,0,0:0:0:0:
256,192,282561,1,0,0:0:0:0:
182,192,282634,1,0,0:0:0:0:
329,192,282707,1,0,0:0:0:0:
109,192,282707,1,0,0:0:0:0:
402,192,282707,1,0,0:0:0:0:
256,192,282781,1,0,0:0:0:0:
182,192,282854,1,0,0:0:0:0:
36,192,282854,1,0,0:0:0:0:
475,192,282854,1,0,0:0:0:0:
256,192,282927,1,0,0:0:0:0:
109,192,283000,1,0,0:0:0:0:
329,192,283000,1,0,0:0:0:0:
402,192,283073,1,0,0:0:0:0:
475,192,283147,1,0,0:0:0:0:
36,192,283147,1,0,0:0:0:0:
182,192,283147,1,0,0:0:0:0:
256,192,283220,1,0,0:0:0:0:
329,192,283293,1,0,0:0:0:0:
109,192,283293,1,0,0:0:0:0:
402,192,283293,1,0,0:0:0:0:
182,192,283366,1,0,0:0:0:0:
36,192,283439,1,0,0:0:0:0:
256,192,283439,1,0,0:0:0:0:
475,192,283439,1,0,0:0:0:0:
329,192,283512,1,0,0:0:0:0:
109,192,283586,1,0,0:0:0:0:
182,192,283586,1,0,0:0:0:0:
475,192,283586,1,0,0:0:0:0:
402,192,283659,1,0,0:0:0:0:
329,192,283732,1,0,0:0:0:0:
36,192,283732,1,0,0:0:0:0:
256,192,283732,1,0,0:0:0:0:
182,192,283805,1,0,0:0:0:0:
402,192,283878,1,0,0:0:0:0:
256,192,283878,1,0,0:0:0:0:
109,192,283878,1,0,0:0:0:0:
329,192,283951,1,0,0:0:0:0:
475,192,284025,1,0,0:0:0:0:
182,192,284025,1,0,0:0:0:0:
36,192,284025,1,0,0:0:0:0:
402,192,284098,1,0,0:0:0:0:
329,192,284171,1,0,0:0:0:0:
109,192,284171,1,0,0:0:0:0:
475,192,284317,1,0,0:0:0:0:
256,192,284317,1,0,0:0:0:0:
182,192,284317,1,0,0:0:0:0:
402,192,284390,1,0,0:0:0:0:
329,192,284464,1,0,0:0:0:0:
36,192,284464,1,0,0:0:0:0:
182,192,284537,1,0,0:0:0:0:
256,192,284610,1,0,0:0:0:0:
109,192,284610,1,0,0:0:0:0:
402,192,284610,1,0,0:0:0:0:
329,192,284683,1,0,0:0:0:0:
182,192,284756,1,0,0:0:0:0:
475,192,284756,1,0,0:0:0:0:
402,192,284829,1,0,0:0:0:0:
109,192,284903,1,0,0:0:0:0:
256,192,284903,1,0,0:0:0:0:
329,192,284903,1,0,0:0:0:0:
36,192,284976,1,0,0:0:0:0:
402,192,285049,1,0,0:0:0:0:
182,192,285049,1,0,0:0:0:0:
329,192,285122,1,0,0:0:0:0:
475,192,285195,1,0,0:0:0:0:
109,192,285195,1,0,0:0:0:0:
256,192,285195,1,0,0:0:0:0:
402,192,285268,1,0,0:0:0:0:
329,192,285342,1,0,0:0:0:0:
36,192,285342,1,0,0:0:0:0:
182,192,285415,1,0,0:0:0:0:
256,192,285488,1,0,0:0:0:0:
475,192,285488,1,0,0:0:0:0:
109,192,285488,1,0,0:0:0:0:
329,192,285561,1,0,0:0:0:0:
36,192,285634,1,0,0:0:0:0:
402,192,285634,1,0,0:0:0:0:
182,192,285707,1,0,0:0:0:0:
109,192,285781,1,0,0:0:0:0:
256,192,285781,1,0,0:0:0:0:
475,192,285781,1,0,0:0:0:0:
329,192,285854,1,0,0:0:0:0:
36,192,285927,1,0,0:0:0:0:
402,192,285927,1,0,0:0:0:0:
109,192,286000,1,0,0:0:0:0:
182,192,286073,1,0,0:0:0:0:
256,192,286073,1,0,0:0:0:0:
329,192,286147,1,0,0:0:0:0:
402,192,286220,1,0,0:0:0:0:
36,192,286220,1,0,0:0:0:0:
475,192,286293,1,0,0:0:0:0:
109,192,286293,1,0,0:0:0:0:
182,192,286366,1,0,0:0:0:0:
402,192,286366,1,0,0:0:0:0:
256,192,286439,1,0,0:0:0:0:
36,192,286512,1,0,0:0:0:0:
329,192,286512,1,0,0:0:0:0:
475,192,286512,1,0,0:0:0:0:
402,192,286586,1,0,0:0:0:0:
182,192,286659,1,0,0:0:0:0:
256,192,286732,1,0,0:0:0:0:
36,192,286805,1,0,0:0:0:0:
475,192,286805,1,0,0:0:0:0:
109,192,286951,1,0,0:0:0:0:
256,192,286951,1,0,0:0:0:0:
402,192,286951,1,0,0:0:0:0:
329,192,287025,1,0,0:0:0:0:
182,192,287098,1,0,0:0:0:0:
475,192,287098,1,0,0:0:0:0:
36,192,287171,1,0,0:0:0:0:
256,192,287244,1,0,0:0:0:0:
402,192,287317,1,0,0:0:0:0:
475,192,287390,1,0,0:0:0:0:
36,192,287390,1,0,0:0:0:0:
182,192,287390,1,0,0:0:0:0:
256,192,287464,1,0,0:0:0:0:
329,192,287537,1,0,0:0:0:0:
475,192,287610,1,0,0:0:0:0:
256,192,287683,1,0,0:0:0:0:
109,192,287683,1,0,0:0:0:0:
402,192,287683,1,0,0:0:0:0:
36,192,287756,1,0,0:0:0:0:
182,192,287829,1,0,0:0:0:0:
329,192,287829,1,0,0:0:0:0:
475,192,287903,1,0,0:0:0:0:
402,192,287903,1,0,0:0:0:0:
36,192,287976,1,0,0:0:0:0:
329,192,287976,1,0,0:0:0:0:
256,192,288049,1,0,0:0:0:0:
475,192,288122,1,0,0:0:0:0:
329,192,288122,1,0,0:0:0:0:
182,192,288122,1,0,0:0:0:0:
109,192,288195,1,0,0:0:0:0:
402,192,288268,1,0,0:0:0:0:
36,192,288268,1,0,0:0:0:0:
256,192,288342,1,0,0:0:0:0:
182,192,288342,1,0,0:0:0:0:
109,192,288415,1,0,0:0:0:0:
475,192,288415,1,0,0:0:0:0:
329,192,288488,1,0,0:0:0:0:
402,192,288561,1,0,0:0:0:0:
36,192,288561,1,0,0:0:0:0:
256,192,288707,1,0,0:0:0:0:
182,192,288707,1,0,0:0:0:0:
475,192,288854,128,0,289439:0:0:0:0:
109,192,288854,1,0,0:0:0:0:
329,192,289000,1,0,0:0:0:0:
182,192,289147,1,0,0:0:0:0:
402,192,289293,1,0,0:0:0:0:
256,192,289293,1,0,0:0:0:0:
36,192,289439,128,0,290025:0:0:0:0:
329,192,289439,1,0,0:0:0:0:
109,192,289439,1,0,0:0:0:0:
182,192,289586,1,0,0:0:0:0:
402,192,289732,1,0,0:0:0:0:
475,192,289878,1,0,0:0:0:0:
182,192,290025,128,0,290756:0:0:0:0:
329,192,290025,1,0,0:0:0:0:
256,192,290171,1,0,0:0:0:0:
402,192,290317,1,0,0:0:0:0:
109,192,290464,1,0,0:0:0:0:
329,192,290610,1,0,0:0:0:0:
256,192,290610,1,0,0:0:0:0:
402,192,290756,128,0,290903:0:0:0:0:
36,192,290756,1,0,0:0:0:0:
475,192,290756,1,0,0:0:0:0:
329,192,290903,128,0,291049:0:0:0:0:
109,192,290903,1,0,0:0:0:0:
256,192,291049,128,0,291195:0:0:0:0:
182,192,291049,1,0,0:0:0:0:
36,192,291195,128,0,291781:0:0:0:0:
109,192,291195,1,0,0:0:0:0:
475,192,291195,1,0,0:0:0:0:
329,192,291488,1,0,0:0:0:0:
402,192,291488,1,0,0:0:0:0:
329,192,291634,1,0,0:0:0:0:
402,192,291634,1,0,0:0:0:0:
182,192,291781,128,0,292366:0:0:0:0:
256,192,291781,1,0,0:0:0:0:
475,192,291781,1,0,0:0:0:0:
109,192,292073,1,0,0:0:0:0:
329,192,292073,1,0,0:0:0:0:
109,192,292220,1,0,0:0:0:0:
329,192,292220,1,0,0:0:0:0:
402,192,292366,128,0,292951:0:0:0:0:
36,192,292366,1,0,0:0:0:0:
475,192,292366,1,0,0:0:0:0:
256,192,292512,1,0,0:0:0:0:
109,192,292659,1,0,0:0:0:0:
329,192,292805,1,0,0:0:0:0:
256,192,292878,1,0,0:0:0:0:
109,192,292951,128,0,293537:0:0:0:0:
182,192,292951,1,0,0:0:0:0:
36,192,292951,1,0,0:0:0:0:
329,192,293098,1,0,0:0:0:0:
475,192,293244,1,0,0:0:0:0:
256,192,293390,1,0,0:0:0:0:
329,192,293537,128,0,296139:0:0:0:0:
475,192,293537,1,0,0:0:0:0:
36,192,293537,1,0,0:0:0:0:
182,192,293537,1,0,0:0:0:0:
402,192,294122,1,0,0:0:0:0:
256,192,294561,1,0,0:0:0:0:
182,192,294634,1,0,0:0:0:0:
109,192,294707,1,0,0:0:0:0:
475,192,294707,1,0,0:0:0:0:
36,192,294854,1,0,0:0:0:0:
109,192,295147,1,0,0:0:0:0:
256,192,295147,1,0,0:0:0:0:
182,192,295504,1,0,0:0:0:0:
402,192,295504,1,0,0:0:0:0:
256,192,295701,1,0,0:0:0:0:
36,192,295701,1,0,0:0:0:0:
475,192,295909,1,0,0:0:0:0:
182,192,295909,1,0,0:0:0:0:
256,192,296139,128,0,299409:0:0:0:0:
109,192,296139,1,0,0:0:0:0:
402,192,296139,1,0,0:0:0:0:
36,192,296959,1,0,0:0:0:0:
329,192,297664,1,0,0:0:0:0:
475,192,297664,1,0,0:0:0:0:
182,192,298017,1,0,0:0:0:0:
36,192,298017,1,0,0:0:0:0:
329,192,298409,1,0,0:0:0:0:
402,192,298409,1,0,0:0:0:0:
182,192,298843,1,0,0:0:0:0:
109,192,298843,1,0,0:0:0:0:
329,192,299409,1,0,0:0:0:0:
182,192,299409,1,0,0:0:0:0:
36,192,299409,128,0,308853:0:0:0:0:
402,192,299631,1,0,0:0:0:0:
475,192,299927,1,0,0:0:0:0:
109,192,300149,1,0,0:0:0:0:
182,192,300371,1,0,0:0:0:0:
256,192,300594,1,0,0:0:0:0:
329,192,300816,1,0,0:0:0:0:
182,192,301038,1,0,0:0:0:0:
402,192,301260,1,0,0:0:0:0:
256,192,301483,1,0,0:0:0:0:
475,192,301520,128,0,301853:0:0:0:0:
329,192,301853,128,0,302075:0:0:0:0:
109,192,302075,1,0,0:0:0:0:
182,192,302075,1,0,0:0:0:0:
256,192,302186,1,0,0:0:0:0:
402,192,302297,1,0,0:0:0:0:
475,192,302409,1,0,0:0:0:0:
182,192,302409,1,0,0:0:0:0:
329,192,302520,1,0,0:0:0:0:
109,192,302631,1,0,0:0:0:0:
402,192,302742,1,0,0:0:0:0:
256,192,302853,1,0,0:0:0:0:
402,192,302964,1,0,0:0:0:0:
182,192,302964,1,0,0:0:0:0:
475,192,303075,1,0,0:0:0:0:
329,192,303186,1,0,0:0:0:0:
182,192,303297,1,0,0:0:0:0:
109,192,303409,1,0,0:0:0:0:
256,192,303520,1,0,0:0:0:0:
402,192,303631,1,0,0:0:0:0:
182,192,303742,1,0,0:0:0:0:
329,192,303853,1,0,0:0:0:0:
109,192,304001,1,0,0:0:0:0:
256,192,304075,1,0,0:0:0:0:
475,192,304149,1,0,0:0:0:0:
329,192,304260,1,0,0:0:0:0:
182,192,304371,1,0,0:0:0:0:
402,192,304464,1,0,0:0:0:0:
256,192,304575,1,0,0:0:0:0:
475,192,304631,1,0,0:0:0:0:
329,192,304742,1,0,0:0:0:0:
109,192,304853,1,0,0:0:0:0:
402,192,304964,1,0,0:0:0:0:
256,192,305075,1,0,0:0:0:0:
475,192,305186,1,0,0:0:0:0:
182,192,305260,1,0,0:0:0:0:
329,192,305353,1,0,0:0:0:0:
402,192,305483,1,0,0:0:0:0:
256,192,305631,1,0,0:0:0:0:
329,192,305779,1,0,0:0:0:0:
109,192,305927,1,0,0:0:0:0:
256,192,306112,1,0,0:0:0:0:
475,192,306297,1,0,0:0:0:0:
329,192,306483,1,0,0:0:0:0:
182,192,306705,1,0,0:0:0:0:
402,192,306964,1,0,0:0:0:0:
109,192,307260,1,0,0:0:0:0:
256,192,307260,1,0,0:0:0:0:
475,192,307260,1,0,0:0:0:0:
109,192,307964,1,0,0:0:0:0:
182,192,307964,1,0,0:0:0:0:
256,192,308020,1,0,0:0:0:0:
475,192,308112,1,0,0:0:0:0:
329,192,308186,1,0,0:0:0:0:
475,192,308853,1,0,0:0:0:0:
109,192,308853,1,0,0:0:0:0:
256,192,308853,128,0,309409:0:0:0:0:
402,192,309409,1,0,0:0:0:0:
109,192,309409,1,0,0:0:0:0:
475,192,309557,1,0,0:0:0:0:
182,192,309557,1,0,0:0:0:0:
36,192,309557,1,0,0:0:0:0:
475,192,309779,1,0,0:0:0:0:
256,192,309779,1,0,0:0:0:0:
36,192,309779,1,0,0:0:0:0:
36,192,310001,1,0,0:0:0:0:
329,192,310001,1,0,0:0:0:0:
475,192,310001,1,0,0:0:0:0:
