osu file format v13

[General]
AudioFilename: Babymetal - Megitsune.mp3
AudioLeadIn: 0
PreviewTime: 71785
Countdown: 0
SampleSet: Soft
StackLeniency: 0.7
Mode: 3
LetterboxInBreaks: 0
SpecialStyle: 0
WidescreenStoryboard: 1

[Editor]
DistanceSpacing: 1
BeatDivisor: 12
GridSize: 8
TimelineZoom: 2.4

[Metadata]
Title:MEGITSUNE
TitleUnicode:メギツネ
Artist:BABYMETAL
ArtistUnicode:BABYMETAL
Creator:arcwinolivirus
Version:7K HD
Source:
Tags:jpop su yui moa metal
BeatmapID:416267
BeatmapSetID:167880

[Difficulty]
HPDrainRate:7
CircleSize:7
OverallDifficulty:7
ApproachRate:5
SliderMultiplier:1.4
SliderTickRate:1

[Events]
//Background and Video events
0,0,"bgmegitsune.jpg",0,0
Video,0,"megitsune.avi"
//Break Periods
//Storyboard Layer 0 (Background)
//Storyboard Layer 1 (Fail)
//Storyboard Layer 2 (Pass)
//Storyboard Layer 3 (Foreground)
//Storyboard Sound Samples
//Background Colour Transformations
3,100,163,162,255

[TimingPoints]
800,422.535211267606,4,2,0,70,1,0
800,-100,4,2,0,70,0,0
13898,-133.333333333333,4,2,0,70,0,0
14321,-100,4,2,0,70,0,0
42630,-133.333333333333,4,2,0,70,0,0
43053,-100,4,2,0,70,0,0
66715,-100,4,2,0,70,0,0
71363,-133.333333333333,4,2,0,70,0,0
71785,-100,4,2,0,70,0,1
98828,-100,4,2,0,70,0,0
112666,-166.666666666667,4,2,0,70,0,0
113194,315.789473684211,4,2,0,70,1,0
113194,-133.333333333333,4,2,0,70,0,0
122667,-76.9230769230769,4,2,0,70,0,0
122825,-333.333333333333,4,2,0,70,0,0
123299,-133.333333333333,4,2,0,70,0,0
140553,422.535211267606,4,2,0,70,1,0
140553,-100,4,2,0,70,0,0
177736,-100,4,2,0,70,0,0
182383,-133.333333333333,4,2,0,70,0,0
182806,-125,4,2,0,70,0,0
194637,-250,4,2,0,70,0,0
196327,-100,4,2,0,70,0,1
223369,-100,4,2,0,70,0,0

[HitObjects]
475,192,800,5,4,3:0:0:0:
256,192,800,1,0,1:0:0:0:
36,192,905,1,4,3:0:0:0:
475,192,1011,1,4,3:0:0:0:
36,192,1116,1,4,3:0:0:0:
109,192,1328,1,4,3:0:0:0:
402,192,1328,1,0,1:0:0:0:
329,192,1539,1,4,3:0:0:0:
402,192,1539,1,0,0:0:0:0:
182,192,1645,1,4,3:0:0:0:
109,192,1645,1,0,0:0:0:0:
109,192,1856,1,0,0:0:0:0:
256,192,1961,1,0,0:0:0:0:
402,192,2067,128,0,2490:0:0:0:0:
36,192,2490,1,4,3:0:0:0:
182,192,2595,1,0,0:0:0:0:
109,192,2701,1,0,0:0:0:0:
256,192,2807,1,0,0:0:0:0:
182,192,2912,1,0,0:0:0:0:
329,192,3018,1,0,0:0:0:0:
256,192,3123,1,8,3:0:0:0:
402,192,3229,1,0,0:0:0:0:
329,192,3335,1,0,0:0:0:0:
402,192,3440,1,0,0:0:0:0:
475,192,3546,1,0,0:0:0:0:
329,192,3652,1,0,0:0:0:0:
402,192,3757,1,8,3:0:0:0:
256,192,3863,1,0,0:0:0:0:
329,192,3969,1,0,0:0:0:0:
109,192,4180,1,4,3:0:0:0:
402,192,4285,1,4,3:0:0:0:
109,192,4391,1,4,3:0:0:0:
402,192,4497,1,4,3:0:0:0:
182,192,4708,1,4,3:0:0:0:
329,192,4708,1,0,1:0:0:0:
109,192,4919,1,4,3:0:0:0:
36,192,4919,1,0,0:0:0:0:
402,192,5025,1,4,3:0:0:0:
475,192,5025,1,0,0:0:0:0:
109,192,5236,1,0,0:0:0:0:
256,192,5342,1,0,0:0:0:0:
402,192,5447,128,8,5870:3:0:0:0:
182,192,5659,1,0,0:0:0:0:
109,192,5870,1,4,3:0:0:0:
182,192,6081,1,0,0:0:0:0:
256,192,6292,1,0,0:0:0:0:
329,192,6504,1,8,3:0:0:0:
182,192,6715,1,0,0:0:0:0:
475,192,6821,1,0,0:0:0:0:
36,192,6926,1,4,3:0:0:0:
109,192,6997,1,4,3:0:0:0:
182,192,7067,1,4,3:0:0:0:
402,192,7138,1,8,3:0:0:0:
256,192,7138,1,0,1:0:0:0:
182,192,7349,1,4,3:0:0:0:
329,192,7349,1,0,0:0:0:0:
475,192,7560,1,4,2:0:0:0:
256,192,7560,1,0,0:0:0:0:
36,192,7560,1,0,0:0:0:0:
182,192,7771,1,0,0:0:0:0:
402,192,7771,1,0,0:0:0:0:
329,192,7983,1,0,0:0:0:0:
109,192,7983,1,0,0:0:0:0:
402,192,8194,1,0,0:0:0:0:
182,192,8194,1,0,0:0:0:0:
36,192,8405,1,4,2:0:0:0:
256,192,8405,1,4,3:0:0:0:
109,192,8405,1,0,0:0:0:0:
329,192,8828,1,0,0:0:0:0:
109,192,8828,1,0,0:0:0:0:
182,192,9039,1,0,0:0:0:0:
402,192,9039,1,0,0:0:0:0:
475,192,9250,1,4,2:0:0:0:
36,192,9250,1,4,3:0:0:0:
256,192,9250,1,0,0:0:0:0:
256,192,9673,1,0,0:0:0:0:
256,192,9884,1,0,0:0:0:0:
475,192,10095,1,0,0:0:0:0:
36,192,10095,1,0,1:0:0:0:
182,192,10095,1,0,0:0:0:0:
329,192,10307,1,4,3:0:0:0:
402,192,10307,1,0,0:0:0:0:
182,192,10518,1,4,3:0:0:0:
109,192,10518,1,0,0:0:0:0:
36,192,10729,1,4,3:0:0:0:
475,192,10729,1,0,0:0:0:0:
109,192,10800,1,4,3:0:0:0:
182,192,10870,1,4,3:0:0:0:
402,192,10940,1,4,2:0:0:0:
256,192,10940,1,0,0:0:0:0:
475,192,10940,1,0,1:0:0:0:
182,192,11363,1,4,3:0:0:0:
475,192,11363,1,0,0:0:0:0:
109,192,11574,1,4,3:0:0:0:
402,192,11574,1,0,0:0:0:0:
329,192,11785,1,4,3:0:0:0:
36,192,11785,1,0,0:0:0:0:
402,192,11997,1,4,3:0:0:0:
109,192,11997,1,0,0:0:0:0:
182,192,12208,1,4,3:0:0:0:
475,192,12208,1,0,0:0:0:0:
402,192,12419,1,4,3:0:0:0:
109,192,12419,1,0,0:0:0:0:
36,192,12630,1,4,2:0:0:0:
329,192,12630,1,0,0:0:0:0:
475,192,12630,1,0,0:0:0:0:
109,192,12736,1,0,0:0:0:0:
182,192,12842,1,4,3:0:0:0:
256,192,12947,1,4,3:0:0:0:
182,192,13053,1,4,3:0:0:0:
256,192,13159,1,4,3:0:0:0:
329,192,13264,1,4,3:0:0:0:
402,192,13370,1,4,3:0:0:0:
36,192,13476,1,4,3:0:0:0:
109,192,13546,1,4,3:0:0:0:
182,192,13616,1,4,3:0:0:0:
475,192,13687,1,4,3:0:0:0:
402,192,13757,1,4,3:0:0:0:
329,192,13828,1,4,3:0:0:0:
109,192,13898,128,0,14321:0:0:0:0:
256,192,13898,1,0,1:0:0:0:
182,192,14321,1,4,3:0:0:0:
475,192,14321,1,4,1:0:0:0:
329,192,14321,1,0,0:0:0:0:
36,192,14426,1,0,0:0:0:0:
182,192,14532,1,0,0:0:0:0:
329,192,14638,1,4,3:0:0:0:
109,192,14743,1,0,1:0:0:0:
36,192,14743,1,0,0:0:0:0:
402,192,14849,1,4,3:0:0:0:
182,192,15060,1,4,3:0:0:0:
329,192,15166,1,4,3:0:0:0:
109,192,15377,1,4,3:0:0:0:
402,192,15483,1,4,3:0:0:0:
36,192,15588,1,0,1:0:0:0:
256,192,15588,1,0,0:0:0:0:
329,192,15694,1,4,3:0:0:0:
402,192,15800,1,0,0:0:0:0:
475,192,15905,1,4,3:0:0:0:
36,192,16011,1,4,3:0:0:0:
182,192,16011,1,4,1:0:0:0:
329,192,16011,1,0,0:0:0:0:
475,192,16116,1,0,0:0:0:0:
329,192,16222,1,0,0:0:0:0:
182,192,16328,1,4,3:0:0:0:
475,192,16433,1,0,1:0:0:0:
402,192,16433,1,0,0:0:0:0:
109,192,16539,1,4,3:0:0:0:
329,192,16750,1,4,3:0:0:0:
182,192,16856,1,4,3:0:0:0:
402,192,17067,1,4,3:0:0:0:
109,192,17173,1,4,3:0:0:0:
256,192,17278,1,0,1:0:0:0:
475,192,17278,1,0,0:0:0:0:
182,192,17384,1,4,3:0:0:0:
109,192,17490,1,4,3:0:0:0:
36,192,17595,1,4,3:0:0:0:
182,192,17701,1,4,3:0:0:0:
329,192,17701,1,4,1:0:0:0:
475,192,17701,1,0,0:0:0:0:
36,192,17807,1,0,0:0:0:0:
475,192,17912,1,0,0:0:0:0:
182,192,18018,1,4,3:0:0:0:
109,192,18123,1,0,0:0:0:0:
402,192,18123,1,0,1:0:0:0:
329,192,18229,1,4,3:0:0:0:
182,192,18440,1,4,3:0:0:0:
329,192,18546,1,4,3:0:0:0:
109,192,18757,1,4,3:0:0:0:
402,192,18863,1,0,3:0:0:0:
36,192,18969,1,0,1:0:0:0:
256,192,18969,1,0,0:0:0:0:
329,192,19074,1,4,3:0:0:0:
402,192,19180,1,0,0:0:0:0:
475,192,19285,1,4,3:0:0:0:
182,192,19391,1,4,1:0:0:0:
329,192,19391,1,4,3:0:0:0:
36,192,19391,128,0,19602:0:0:0:0:
329,192,19602,128,0,19814:0:0:0:0:
109,192,19814,128,0,20025:1:0:0:0:
256,192,19814,1,0,0:0:0:0:
402,192,20025,128,0,20236:0:0:0:0:
182,192,20236,128,0,20447:1:0:0:0:
256,192,20236,1,0,0:0:0:0:
475,192,20447,128,4,20659:3:0:0:0:
109,192,20659,128,4,20870:3:0:0:0:
402,192,20870,128,0,21081:1:0:0:0:
256,192,20870,1,0,0:0:0:0:
182,192,20976,1,0,1:0:0:0:
256,192,21081,1,4,3:0:0:0:
475,192,21081,1,4,1:0:0:0:
36,192,21081,1,0,0:0:0:0:
182,192,21187,1,0,0:0:0:0:
329,192,21292,1,0,0:0:0:0:
475,192,21398,1,4,3:0:0:0:
182,192,21504,1,0,0:0:0:0:
109,192,21504,1,0,1:0:0:0:
402,192,21609,1,4,3:0:0:0:
36,192,21821,1,4,3:0:0:0:
402,192,21926,1,4,3:0:0:0:
109,192,22138,1,4,3:0:0:0:
475,192,22243,1,4,3:0:0:0:
329,192,22349,1,0,1:0:0:0:
402,192,22349,1,0,0:0:0:0:
256,192,22454,1,4,3:0:0:0:
182,192,22560,1,0,0:0:0:0:
329,192,22666,1,4,3:0:0:0:
36,192,22771,1,4,3:0:0:0:
475,192,22771,1,4,1:0:0:0:
256,192,22771,1,0,0:0:0:0:
329,192,22877,1,0,0:0:0:0:
182,192,22983,1,0,0:0:0:0:
36,192,23088,1,4,3:0:0:0:
329,192,23194,1,0,1:0:0:0:
402,192,23194,1,0,0:0:0:0:
109,192,23300,1,4,3:0:0:0:
475,192,23511,1,4,3:0:0:0:
109,192,23616,1,4,3:0:0:0:
402,192,23828,1,4,3:0:0:0:
36,192,23933,1,4,3:0:0:0:
109,192,24039,1,0,1:0:0:0:
182,192,24039,1,0,0:0:0:0:
256,192,24145,1,4,3:0:0:0:
329,192,24250,1,4,3:0:0:0:
182,192,24356,1,4,3:0:0:0:
256,192,24461,1,4,3:0:0:0:
475,192,24461,1,4,1:0:0:0:
36,192,24461,1,0,0:0:0:0:
329,192,24567,1,0,0:0:0:0:
36,192,24673,1,0,0:0:0:0:
182,192,24778,1,4,3:0:0:0:
402,192,24884,1,0,1:0:0:0:
329,192,24884,1,0,0:0:0:0:
109,192,24990,1,4,3:0:0:0:
402,192,25201,1,4,3:0:0:0:
182,192,25307,1,4,3:0:0:0:
329,192,25518,1,4,3:0:0:0:
36,192,25623,1,4,3:0:0:0:
182,192,25729,1,0,1:0:0:0:
109,192,25729,1,0,0:0:0:0:
256,192,25835,1,4,3:0:0:0:
329,192,25940,1,0,0:0:0:0:
182,192,26046,1,4,3:0:0:0:
475,192,26152,128,0,26363:0:0:0:0:
329,192,26152,1,0,1:0:0:0:
182,192,26363,128,4,26574:3:0:0:0:
36,192,26469,1,0,1:0:0:0:
402,192,26574,128,4,26785:3:0:0:0:
256,192,26680,1,0,1:0:0:0:
109,192,26785,128,4,26997:3:0:0:0:
475,192,26891,1,0,1:0:0:0:
329,192,26997,128,4,27208:3:0:0:0:
36,192,27208,128,4,27419:3:0:0:0:
329,192,27419,1,0,0:0:0:0:
402,192,27419,128,0,27630:1:0:0:0:
182,192,27525,1,0,1:0:0:0:
329,192,27630,1,0,0:0:0:0:
109,192,27630,128,0,27842:1:0:0:0:
256,192,27842,1,4,3:0:0:0:
475,192,27842,1,4,1:0:0:0:
36,192,27842,1,0,0:0:0:0:
329,192,27947,1,0,0:0:0:0:
182,192,28053,1,0,0:0:0:0:
36,192,28159,1,0,0:0:0:0:
36,192,28370,1,0,0:0:0:0:
402,192,28581,1,0,0:0:0:0:
182,192,28687,128,0,28898:0:0:0:0:
329,192,28898,1,0,0:0:0:0:
182,192,29109,1,0,0:0:0:0:
36,192,29109,1,0,1:0:0:0:
256,192,29180,1,0,0:0:0:0:
329,192,29250,1,0,0:0:0:0:
402,192,29321,1,0,0:0:0:0:
475,192,29391,1,0,0:0:0:0:
402,192,29461,1,0,0:0:0:0:
329,192,29532,1,4,2:0:0:0:
182,192,29532,1,4,3:0:0:0:
36,192,29532,1,0,0:0:0:0:
109,192,29743,1,0,0:0:0:0:
256,192,29954,1,4,3:0:0:0:
475,192,29954,1,0,0:0:0:0:
109,192,30166,1,0,0:0:0:0:
182,192,30377,1,4,3:0:0:0:
329,192,30377,1,0,0:0:0:0:
402,192,30588,1,0,0:0:0:0:
256,192,30800,1,4,3:0:0:0:
36,192,30800,1,0,0:0:0:0:
402,192,31011,1,0,0:0:0:0:
329,192,31222,1,4,3:0:0:0:
182,192,31222,1,0,0:0:0:0:
109,192,31328,1,0,0:0:0:0:
182,192,31433,1,0,0:0:0:0:
402,192,31539,1,0,0:0:0:0:
329,192,31645,1,4,3:0:0:0:
36,192,31645,128,0,31856:0:0:0:0:
475,192,31856,128,0,32067:0:0:0:0:
182,192,31856,1,0,0:0:0:0:
182,192,32067,1,4,3:0:0:0:
329,192,32067,1,0,0:0:0:0:
402,192,32173,1,0,0:0:0:0:
329,192,32278,1,0,0:0:0:0:
109,192,32384,1,0,0:0:0:0:
182,192,32490,1,4,3:0:0:0:
475,192,32490,128,0,32701:0:0:0:0:
36,192,32701,128,0,32912:0:0:0:0:
329,192,32701,1,0,0:0:0:0:
109,192,32912,1,4,2:0:0:0:
256,192,32912,1,0,0:0:0:0:
402,192,32912,1,4,3:0:0:0:
329,192,33123,1,0,0:0:0:0:
182,192,33335,1,4,3:0:0:0:
36,192,33335,1,0,0:0:0:0:
475,192,33546,1,0,0:0:0:0:
109,192,33757,1,4,3:0:0:0:
256,192,33757,1,0,0:0:0:0:
182,192,33969,1,0,0:0:0:0:
329,192,34180,1,4,3:0:0:0:
475,192,34180,1,0,0:0:0:0:
36,192,34391,1,0,0:0:0:0:
256,192,34602,1,4,3:0:0:0:
402,192,34602,1,0,0:0:0:0:
109,192,34708,1,0,0:0:0:0:
329,192,34814,1,4,3:0:0:0:
182,192,34919,1,0,0:0:0:0:
402,192,35025,128,0,35236:0:0:0:0:
256,192,35025,1,0,1:0:0:0:
109,192,35236,128,4,35447:3:0:0:0:
329,192,35447,1,0,0:0:0:0:
182,192,35553,1,4,3:0:0:0:
402,192,35659,1,0,0:0:0:0:
109,192,35764,1,4,3:0:0:0:
329,192,35870,128,0,36081:0:0:0:0:
475,192,35870,1,0,1:0:0:0:
36,192,35976,1,0,1:0:0:0:
182,192,36081,128,0,36292:0:0:0:0:
402,192,36081,1,0,1:0:0:0:
109,192,36187,1,0,1:0:0:0:
402,192,36292,1,4,2:0:0:0:
475,192,36292,1,4,3:0:0:0:
329,192,36398,1,0,0:0:0:0:
182,192,36504,1,0,0:0:0:0:
109,192,36609,1,0,0:0:0:0:
402,192,36715,1,0,0:0:0:0:
256,192,36715,128,0,37138:1:0:0:0:
36,192,36926,1,0,0:0:0:0:
109,192,37138,1,4,3:0:0:0:
182,192,37243,1,0,0:0:0:0:
329,192,37349,1,0,0:0:0:0:
402,192,37454,1,0,0:0:0:0:
256,192,37560,128,0,37983:0:0:0:0:
109,192,37560,1,0,1:0:0:0:
475,192,37771,1,0,0:0:0:0:
109,192,37983,1,4,3:0:0:0:
182,192,38088,1,0,0:0:0:0:
329,192,38194,1,0,0:0:0:0:
402,192,38300,1,0,0:0:0:0:
329,192,38405,1,0,0:0:0:0:
36,192,38405,128,0,38616:1:0:0:0:
182,192,38511,1,0,0:0:0:0:
109,192,38616,1,0,0:0:0:0:
475,192,38616,128,0,38828:0:0:0:0:
329,192,38722,1,0,0:0:0:0:
182,192,38828,1,4,3:0:0:0:
402,192,38933,1,0,0:0:0:0:
256,192,39039,1,0,0:0:0:0:
475,192,39145,1,0,0:0:0:0:
256,192,39250,128,0,39673:0:0:0:0:
109,192,39250,128,0,39461:1:0:0:0:
402,192,39461,128,0,39673:0:0:0:0:
329,192,39673,1,4,3:0:0:0:
36,192,39673,1,4,2:0:0:0:
475,192,39673,1,0,0:0:0:0:
109,192,39778,1,0,0:0:0:0:
182,192,39884,1,0,0:0:0:0:
329,192,39990,1,0,0:0:0:0:
402,192,40095,128,0,40518:0:0:0:0:
109,192,40095,1,0,1:0:0:0:
182,192,40307,1,0,0:0:0:0:
475,192,40518,1,4,3:0:0:0:
402,192,40623,1,0,0:0:0:0:
329,192,40729,1,0,0:0:0:0:
182,192,40835,1,0,0:0:0:0:
109,192,40940,128,0,41363:0:0:0:0:
402,192,40940,1,0,1:0:0:0:
329,192,41152,1,0,0:0:0:0:
182,192,41363,1,0,0:0:0:0:
475,192,41363,1,0,1:0:0:0:
329,192,41574,5,0,0:0:0:0:
36,192,41574,1,0,1:0:0:0:
109,192,41785,1,0,0:0:0:0:
402,192,41785,1,0,1:0:0:0:
182,192,41997,1,0,0:0:0:0:
36,192,41997,1,0,1:0:0:0:
329,192,42102,1,0,0:0:0:0:
475,192,42102,1,0,1:0:0:0:
402,192,42314,1,0,0:0:0:0:
109,192,42314,1,0,1:0:0:0:
402,192,42525,1,0,0:0:0:0:
329,192,42525,1,0,1:0:0:0:
109,192,42630,1,0,1:0:0:0:
182,192,42630,1,0,0:0:0:0:
402,192,43053,1,4,3:0:0:0:
109,192,43053,1,4,1:0:0:0:
256,192,43053,1,0,0:0:0:0:
36,192,43159,1,0,0:0:0:0:
182,192,43264,1,0,0:0:0:0:
329,192,43370,1,4,3:0:0:0:
36,192,43476,1,0,0:0:0:0:
475,192,43476,1,0,1:0:0:0:
329,192,43581,1,4,3:0:0:0:
109,192,43792,1,4,3:0:0:0:
402,192,43898,1,4,3:0:0:0:
182,192,44109,1,4,3:0:0:0:
329,192,44215,1,4,3:0:0:0:
36,192,44321,1,0,1:0:0:0:
109,192,44321,1,0,0:0:0:0:
402,192,44426,1,4,3:0:0:0:
182,192,44532,1,0,0:0:0:0:
329,192,44638,1,4,3:0:0:0:
402,192,44743,1,4,3:0:0:0:
256,192,44743,1,4,1:0:0:0:
109,192,44743,1,0,0:0:0:0:
475,192,44849,1,0,0:0:0:0:
329,192,44954,1,0,0:0:0:0:
182,192,45060,1,4,3:0:0:0:
475,192,45166,1,0,1:0:0:0:
36,192,45166,1,0,0:0:0:0:
182,192,45271,1,4,3:0:0:0:
402,192,45483,1,4,3:0:0:0:
109,192,45588,1,4,3:0:0:0:
329,192,45800,1,4,3:0:0:0:
182,192,45905,1,4,3:0:0:0:
475,192,46011,1,0,1:0:0:0:
402,192,46011,1,0,0:0:0:0:
109,192,46116,1,4,3:0:0:0:
329,192,46222,1,4,3:0:0:0:
182,192,46328,1,4,3:0:0:0:
402,192,46433,1,4,3:0:0:0:
256,192,46433,1,4,1:0:0:0:
109,192,46433,1,0,0:0:0:0:
36,192,46539,1,0,0:0:0:0:
475,192,46645,1,0,0:0:0:0:
182,192,46750,1,4,3:0:0:0:
402,192,46856,1,0,0:0:0:0:
329,192,46856,1,0,1:0:0:0:
182,192,46961,1,4,3:0:0:0:
109,192,47173,1,4,3:0:0:0:
402,192,47278,1,4,3:0:0:0:
182,192,47490,1,4,3:0:0:0:
329,192,47595,1,4,3:0:0:0:
36,192,47701,1,0,0:0:0:0:
475,192,47701,1,0,1:0:0:0:
329,192,47807,1,4,3:0:0:0:
109,192,47912,1,0,0:0:0:0:
402,192,48018,1,4,3:0:0:0:
182,192,48123,128,4,48335:1:0:0:0:
36,192,48123,1,0,0:0:0:0:
475,192,48123,1,4,3:0:0:0:
329,192,48335,128,0,48546:0:0:0:0:
256,192,48546,1,0,1:0:0:0:
109,192,48546,128,0,48757:0:0:0:0:
402,192,48757,128,0,48969:0:0:0:0:
256,192,48969,1,0,1:0:0:0:
182,192,48969,128,0,49180:0:0:0:0:
329,192,49180,128,4,49391:3:0:0:0:
36,192,49391,128,4,49602:3:0:0:0:
182,192,49602,1,0,1:0:0:0:
475,192,49602,128,0,49814:0:0:0:0:
329,192,49708,1,0,1:0:0:0:
109,192,49814,1,4,3:0:0:0:
402,192,49919,1,4,3:0:0:0:
109,192,50025,1,4,3:0:0:0:
402,192,50130,1,4,3:0:0:0:
256,192,50236,1,0,0:0:0:0:
36,192,50236,1,0,1:0:0:0:
475,192,50342,1,4,3:0:0:0:
329,192,50553,1,4,3:0:0:0:
109,192,50659,1,4,3:0:0:0:
329,192,50870,1,4,3:0:0:0:
109,192,51081,1,0,1:0:0:0:
402,192,51081,1,0,0:0:0:0:
256,192,51187,1,4,3:0:0:0:
36,192,51292,1,4,3:0:0:0:
402,192,51504,1,4,3:0:0:0:
109,192,51609,1,4,3:0:0:0:
402,192,51715,1,4,3:0:0:0:
109,192,51821,1,4,3:0:0:0:
256,192,51926,1,0,0:0:0:0:
475,192,51926,1,0,1:0:0:0:
36,192,52032,1,4,3:0:0:0:
182,192,52243,1,4,3:0:0:0:
402,192,52349,1,4,3:0:0:0:
329,192,52560,1,4,3:0:0:0:
109,192,52771,1,0,1:0:0:0:
402,192,52771,1,0,0:0:0:0:
256,192,52877,1,4,3:0:0:0:
475,192,52983,1,4,3:0:0:0:
36,192,53194,1,4,3:0:0:0:
475,192,53300,1,4,3:0:0:0:
36,192,53405,1,4,3:0:0:0:
475,192,53511,1,4,3:0:0:0:
256,192,53616,1,0,0:0:0:0:
109,192,53616,1,0,1:0:0:0:
402,192,53722,1,4,3:0:0:0:
36,192,53933,1,4,3:0:0:0:
402,192,54039,1,0,1:0:0:0:
256,192,54039,1,0,0:0:0:0:
329,192,54250,1,4,3:0:0:0:
256,192,54461,1,0,1:0:0:0:
109,192,54461,1,0,0:0:0:0:
329,192,54567,1,4,3:0:0:0:
402,192,54673,1,0,0:0:0:0:
36,192,54778,1,4,3:0:0:0:
475,192,54884,128,0,55095:1:0:0:0:
256,192,54884,1,0,0:0:0:0:
36,192,55095,128,4,55307:3:0:0:0:
256,192,55201,1,0,1:0:0:0:
402,192,55307,128,4,55518:3:0:0:0:
109,192,55518,128,0,55729:1:0:0:0:
256,192,55518,1,0,0:0:0:0:
329,192,55729,128,0,55940:0:0:0:0:
475,192,55729,1,0,1:0:0:0:
36,192,55835,1,0,1:0:0:0:
182,192,55940,128,4,56152:3:0:0:0:
475,192,55940,1,0,0:0:0:0:
402,192,56152,128,4,56363:3:0:0:0:
109,192,56363,128,0,56574:0:0:0:0:
329,192,56363,1,0,1:0:0:0:
182,192,56469,1,0,1:0:0:0:
475,192,56574,128,4,58264:3:0:0:0:
256,192,56574,1,4,1:0:0:0:
329,192,56574,1,0,0:0:0:0:
109,192,56891,1,4,3:0:0:0:
182,192,57208,1,4,3:0:0:0:
329,192,57314,1,4,3:0:0:0:
182,192,57419,1,0,0:0:0:0:
36,192,57419,1,0,1:0:0:0:
256,192,57842,1,0,0:0:0:0:
402,192,57842,1,0,0:0:0:0:
182,192,58053,1,4,3:0:0:0:
329,192,58159,1,4,3:0:0:0:
182,192,58264,1,4,3:0:0:0:
36,192,58264,128,0,59954:0:0:0:0:
329,192,58581,1,4,3:0:0:0:
402,192,58898,1,4,3:0:0:0:
329,192,58969,1,4,3:0:0:0:
256,192,59039,1,4,3:0:0:0:
109,192,59109,1,0,1:0:0:0:
182,192,59109,1,0,0:0:0:0:
402,192,59321,1,4,3:0:0:0:
256,192,59532,1,0,1:0:0:0:
475,192,59532,1,0,0:0:0:0:
329,192,59743,1,0,0:0:0:0:
402,192,59954,1,4,3:0:0:0:
256,192,59954,128,0,62490:0:0:0:0:
182,192,60271,1,4,3:0:0:0:
109,192,60588,1,4,3:0:0:0:
402,192,60694,1,4,3:0:0:0:
36,192,60800,1,0,1:0:0:0:
182,192,60800,1,0,0:0:0:0:
475,192,61116,1,0,0:0:0:0:
329,192,61116,1,0,1:0:0:0:
36,192,61222,1,0,0:0:0:0:
402,192,61433,1,4,3:0:0:0:
109,192,61539,1,4,3:0:0:0:
182,192,61645,1,4,3:0:0:0:
329,192,61645,1,0,0:0:0:0:
402,192,61961,1,4,3:0:0:0:
36,192,62278,1,4,3:0:0:0:
109,192,62349,1,4,3:0:0:0:
182,192,62419,1,4,3:0:0:0:
475,192,62490,1,0,1:0:0:0:
402,192,62490,1,0,0:0:0:0:
329,192,62595,1,4,3:0:0:0:
256,192,62701,1,4,3:0:0:0:
182,192,62807,1,4,3:0:0:0:
36,192,62912,1,0,1:0:0:0:
109,192,62912,1,4,3:0:0:0:
182,192,63018,1,4,3:0:0:0:
256,192,63123,1,4,3:0:0:0:
329,192,63229,1,4,3:0:0:0:
109,192,63335,1,4,3:0:0:0:
402,192,63335,128,0,65025:0:0:0:0:
329,192,63652,1,4,3:0:0:0:
36,192,63969,1,4,3:0:0:0:
329,192,64074,1,4,3:0:0:0:
182,192,64180,1,0,0:0:0:0:
36,192,64180,1,0,1:0:0:0:
475,192,64602,1,0,0:0:0:0:
256,192,64602,1,0,0:0:0:0:
109,192,64814,1,4,3:0:0:0:
329,192,64919,1,4,3:0:0:0:
182,192,65025,1,4,3:0:0:0:
109,192,65025,128,0,66715:0:0:0:0:
402,192,65342,1,4,3:0:0:0:
475,192,65659,1,4,3:0:0:0:
402,192,65729,1,4,3:0:0:0:
329,192,65800,1,4,3:0:0:0:
182,192,65870,1,0,1:0:0:0:
256,192,65870,1,0,0:0:0:0:
36,192,66081,1,4,3:0:0:0:
475,192,66292,1,0,1:0:0:0:
329,192,66398,1,0,1:0:0:0:
402,192,66504,1,4,3:0:0:0:
329,192,66609,1,4,3:0:0:0:
182,192,66715,1,0,0:0:0:0:
256,192,66715,128,0,68405:1:0:0:0:
36,192,66926,1,4,3:0:0:0:
329,192,67138,1,0,1:0:0:0:
109,192,67138,1,0,0:0:0:0:
475,192,67349,1,4,3:0:0:0:
36,192,67454,1,4,3:0:0:0:
182,192,67560,1,0,0:0:0:0:
402,192,67560,1,0,1:0:0:0:
475,192,67771,1,4,3:0:0:0:
109,192,67877,1,4,3:0:0:0:
182,192,67983,1,0,0:0:0:0:
329,192,67983,1,0,1:0:0:0:
402,192,68194,1,4,3:0:0:0:
329,192,68300,1,4,3:0:0:0:
182,192,68405,1,0,0:0:0:0:
36,192,68405,128,0,70095:1:0:0:0:
329,192,68511,1,0,1:0:0:0:
402,192,68616,1,4,3:0:0:0:
109,192,68722,1,4,3:0:0:0:
182,192,68828,1,4,3:0:0:0:
475,192,68898,1,8,3:0:0:0:
402,192,68969,1,4,3:0:0:0:
329,192,69039,1,4,3:0:0:0:
182,192,69145,1,8,3:0:0:0:
329,192,69250,1,0,1:0:0:0:
182,192,69356,1,0,1:0:0:0:
329,192,69461,1,4,3:0:0:0:
256,192,69567,1,4,3:0:0:0:
109,192,69673,1,0,1:0:0:0:
402,192,69778,1,0,1:0:0:0:
109,192,69884,1,0,1:0:0:0:
402,192,69990,1,0,1:0:0:0:
256,192,70095,1,4,3:0:0:0:
109,192,70095,1,0,0:0:0:0:
329,192,70201,1,0,0:0:0:0:
402,192,70307,1,0,0:0:0:0:
475,192,70412,1,0,0:0:0:0:
182,192,70518,1,0,0:0:0:0:
256,192,70623,1,0,0:0:0:0:
329,192,70729,1,0,0:0:0:0:
402,192,70835,1,0,0:0:0:0:
109,192,70940,1,0,0:0:0:0:
182,192,71046,1,0,0:0:0:0:
256,192,71152,1,0,0:0:0:0:
329,192,71257,1,0,0:0:0:0:
109,192,71363,128,0,71785:0:0:0:0:
182,192,71363,128,0,71785:0:0:0:0:
475,192,71785,1,4,1:0:0:0:
256,192,71785,1,4,3:0:0:0:
36,192,71785,1,0,0:0:0:0:
36,192,71997,1,0,0:0:0:0:
182,192,71997,1,0,1:0:0:0:
402,192,72102,1,4,3:0:0:0:
109,192,72314,1,4,3:0:0:0:
329,192,72419,1,0,1:0:0:0:
475,192,72419,1,0,0:0:0:0:
182,192,72630,1,4,3:0:0:0:
329,192,72736,1,4,3:0:0:0:
182,192,72842,1,0,0:0:0:0:
109,192,72842,1,0,1:0:0:0:
402,192,73053,1,4,3:0:0:0:
109,192,73159,1,4,3:0:0:0:
329,192,73264,1,0,0:0:0:0:
402,192,73264,1,0,1:0:0:0:
256,192,73476,1,4,3:0:0:0:
36,192,73476,1,0,0:0:0:0:
475,192,73476,1,0,0:0:0:0:
475,192,73687,1,0,1:0:0:0:
329,192,73687,1,0,0:0:0:0:
109,192,73792,1,0,0:0:0:0:
402,192,74004,1,4,3:0:0:0:
182,192,74109,1,0,1:0:0:0:
36,192,74109,1,0,0:0:0:0:
329,192,74321,1,4,3:0:0:0:
182,192,74426,1,4,3:0:0:0:
402,192,74532,1,0,0:0:0:0:
329,192,74532,1,0,1:0:0:0:
109,192,74743,1,4,3:0:0:0:
402,192,74849,1,4,3:0:0:0:
182,192,74954,1,0,0:0:0:0:
109,192,74954,1,0,1:0:0:0:
256,192,75166,1,4,3:0:0:0:
402,192,75166,1,4,1:0:0:0:
475,192,75166,1,0,0:0:0:0:
109,192,75377,1,0,1:0:0:0:
36,192,75377,1,0,0:0:0:0:
329,192,75483,1,4,3:0:0:0:
182,192,75694,1,4,3:0:0:0:
475,192,75800,1,0,0:0:0:0:
402,192,75800,1,0,1:0:0:0:
109,192,76011,1,4,3:0:0:0:
402,192,76116,1,4,3:0:0:0:
182,192,76222,1,0,1:0:0:0:
36,192,76222,1,0,0:0:0:0:
402,192,76433,1,4,3:0:0:0:
109,192,76539,1,4,3:0:0:0:
475,192,76645,1,0,1:0:0:0:
329,192,76645,1,0,0:0:0:0:
256,192,76856,1,4,3:0:0:0:
109,192,76856,1,0,0:0:0:0:
36,192,76856,1,0,0:0:0:0:
475,192,77067,1,0,0:0:0:0:
402,192,77067,1,0,1:0:0:0:
182,192,77173,1,0,0:0:0:0:
329,192,77384,1,4,3:0:0:0:
36,192,77490,1,0,0:0:0:0:
109,192,77490,1,0,1:0:0:0:
182,192,77701,1,4,3:0:0:0:
475,192,77701,128,0,78335:0:0:0:0:
402,192,77807,1,4,3:0:0:0:
36,192,77912,1,4,3:0:0:0:
109,192,77912,1,0,1:0:0:0:
329,192,78018,1,4,3:0:0:0:
182,192,78123,1,4,3:0:0:0:
402,192,78229,1,4,3:0:0:0:
109,192,78335,1,4,3:0:0:0:
256,192,78335,1,0,1:0:0:0:
402,192,78440,1,4,3:0:0:0:
182,192,78546,1,4,1:0:0:0:
36,192,78546,1,4,3:0:0:0:
256,192,78546,1,0,0:0:0:0:
475,192,78757,1,0,1:0:0:0:
329,192,78757,1,0,0:0:0:0:
182,192,78863,1,4,3:0:0:0:
402,192,79074,1,4,3:0:0:0:
109,192,79180,1,0,1:0:0:0:
36,192,79180,1,0,0:0:0:0:
329,192,79391,1,4,3:0:0:0:
182,192,79497,1,4,3:0:0:0:
402,192,79602,1,0,1:0:0:0:
475,192,79602,1,0,0:0:0:0:
109,192,79814,1,4,3:0:0:0:
402,192,79919,1,4,3:0:0:0:
182,192,80025,1,0,0:0:0:0:
109,192,80025,1,0,1:0:0:0:
329,192,80236,1,4,1:0:0:0:
475,192,80236,1,4,3:0:0:0:
256,192,80236,1,0,0:0:0:0:
182,192,80447,1,0,1:0:0:0:
36,192,80447,1,0,0:0:0:0:
329,192,80553,1,4,3:0:0:0:
109,192,80764,1,4,3:0:0:0:
475,192,80870,1,0,1:0:0:0:
402,192,80870,1,0,0:0:0:0:
182,192,81081,1,4,3:0:0:0:
329,192,81187,1,4,3:0:0:0:
109,192,81292,1,0,0:0:0:0:
36,192,81292,1,0,1:0:0:0:
402,192,81504,1,4,3:0:0:0:
109,192,81609,1,4,3:0:0:0:
329,192,81715,1,0,0:0:0:0:
402,192,81715,1,0,1:0:0:0:
109,192,81926,1,4,3:0:0:0:
256,192,81926,1,4,1:0:0:0:
36,192,81926,1,0,0:0:0:0:
475,192,82138,1,0,1:0:0:0:
402,192,82138,1,0,0:0:0:0:
182,192,82243,1,4,3:0:0:0:
402,192,82454,1,4,3:0:0:0:
182,192,82560,1,0,0:0:0:0:
36,192,82560,1,0,1:0:0:0:
329,192,82771,1,4,3:0:0:0:
182,192,82877,1,4,3:0:0:0:
475,192,82983,1,0,0:0:0:0:
329,192,82983,1,0,1:0:0:0:
109,192,83194,1,4,3:0:0:0:
402,192,83300,1,4,3:0:0:0:
182,192,83405,1,0,1:0:0:0:
329,192,83405,1,0,0:0:0:0:
36,192,83616,1,4,3:0:0:0:
475,192,83722,1,4,3:0:0:0:
109,192,83828,1,0,0:0:0:0:
256,192,83828,1,0,1:0:0:0:
402,192,83933,1,4,3:0:0:0:
182,192,84039,1,4,3:0:0:0:
329,192,84145,1,4,3:0:0:0:
109,192,84250,1,0,1:0:0:0:
256,192,84250,1,0,0:0:0:0:
402,192,84356,1,4,3:0:0:0:
182,192,84461,1,0,1:0:0:0:
36,192,84461,1,0,0:0:0:0:
329,192,84567,1,4,3:0:0:0:
256,192,84778,1,0,1:0:0:0:
109,192,84778,1,0,0:0:0:0:
402,192,84884,1,4,3:0:0:0:
182,192,85095,1,0,1:0:0:0:
329,192,85095,1,0,0:0:0:0:
402,192,85201,1,0,1:0:0:0:
109,192,85307,1,4,3:0:0:0:
329,192,85307,1,0,0:0:0:0:
182,192,85412,1,4,3:0:0:0:
256,192,85518,1,4,3:0:0:0:
475,192,85518,1,0,1:0:0:0:
402,192,85623,1,4,3:0:0:0:
109,192,85729,1,4,3:0:0:0:
329,192,85835,1,4,3:0:0:0:
182,192,85940,1,4,3:0:0:0:
36,192,85940,1,0,1:0:0:0:
402,192,86046,1,4,3:0:0:0:
256,192,86152,1,4,3:0:0:0:
109,192,86257,1,4,3:0:0:0:
329,192,86363,1,4,3:0:0:0:
475,192,86363,1,0,1:0:0:0:
36,192,86469,1,4,3:0:0:0:
402,192,86574,1,4,3:0:0:0:
182,192,86680,1,4,3:0:0:0:
256,192,86785,1,4,3:0:0:0:
475,192,86785,1,0,1:0:0:0:
109,192,86891,1,4,3:0:0:0:
402,192,86997,1,4,3:0:0:0:
329,192,86997,1,0,0:0:0:0:
182,192,87102,1,4,3:0:0:0:
329,192,87208,1,4,3:0:0:0:
36,192,87208,1,0,1:0:0:0:
402,192,87314,1,4,3:0:0:0:
256,192,87419,1,4,3:0:0:0:
109,192,87525,1,4,3:0:0:0:
475,192,87630,1,4,3:0:0:0:
329,192,87630,1,0,1:0:0:0:
182,192,87736,1,4,3:0:0:0:
256,192,87842,1,4,3:0:0:0:
402,192,87947,1,4,3:0:0:0:
36,192,88053,1,4,3:0:0:0:
182,192,88053,1,0,1:0:0:0:
475,192,88159,1,4,3:0:0:0:
109,192,88264,1,4,3:0:0:0:
329,192,88370,1,4,3:0:0:0:
36,192,88476,1,4,3:0:0:0:
256,192,88476,1,0,1:0:0:0:
402,192,88581,1,4,3:0:0:0:
182,192,88687,1,4,3:0:0:0:
475,192,88792,1,4,3:0:0:0:
256,192,88898,1,4,3:0:0:0:
109,192,88898,1,0,1:0:0:0:
329,192,89004,1,4,3:0:0:0:
36,192,89109,1,4,3:0:0:0:
475,192,89215,1,4,3:0:0:0:
402,192,89321,1,4,3:0:0:0:
182,192,89321,1,0,1:0:0:0:
109,192,89426,1,4,3:0:0:0:
256,192,89532,1,4,3:0:0:0:
402,192,89638,1,4,3:0:0:0:
109,192,89743,1,4,3:0:0:0:
182,192,89743,1,0,1:0:0:0:
256,192,89849,1,4,3:0:0:0:
329,192,89954,1,4,3:0:0:0:
36,192,90060,1,4,3:0:0:0:
475,192,90166,1,4,3:0:0:0:
256,192,90166,1,0,1:0:0:0:
182,192,90271,1,4,3:0:0:0:
402,192,90377,1,4,3:0:0:0:
109,192,90483,1,4,3:0:0:0:
329,192,90588,1,4,3:0:0:0:
475,192,90588,1,0,1:0:0:0:
182,192,90694,1,4,3:0:0:0:
402,192,90800,1,4,3:0:0:0:
36,192,90905,1,4,3:0:0:0:
256,192,91011,1,4,3:0:0:0:
329,192,91011,1,0,1:0:0:0:
475,192,91116,1,4,3:0:0:0:
109,192,91222,1,4,3:0:0:0:
329,192,91328,1,4,3:0:0:0:
256,192,91433,1,4,3:0:0:0:
182,192,91433,1,0,1:0:0:0:
402,192,91539,1,4,3:0:0:0:
109,192,91645,1,4,3:0:0:0:
329,192,91750,1,4,3:0:0:0:
182,192,91856,1,4,3:0:0:0:
256,192,91856,1,0,1:0:0:0:
475,192,91961,1,4,3:0:0:0:
109,192,92067,1,4,3:0:0:0:
402,192,92173,1,4,3:0:0:0:
329,192,92278,1,0,1:0:0:0:
182,192,92278,1,4,3:0:0:0:
36,192,92384,1,4,3:0:0:0:
402,192,92490,1,4,3:0:0:0:
256,192,92595,1,4,3:0:0:0:
475,192,92701,1,4,3:0:0:0:
182,192,92701,1,0,1:0:0:0:
329,192,92807,1,4,3:0:0:0:
36,192,92912,1,4,3:0:0:0:
256,192,93018,1,4,3:0:0:0:
109,192,93123,1,4,3:0:0:0:
402,192,93123,1,0,1:0:0:0:
182,192,93229,1,4,3:0:0:0:
475,192,93335,1,4,3:0:0:0:
256,192,93440,1,4,3:0:0:0:
329,192,93546,1,4,3:0:0:0:
36,192,93546,1,0,1:0:0:0:
182,192,93652,1,4,3:0:0:0:
475,192,93757,1,4,3:0:0:0:
329,192,93757,1,0,0:0:0:0:
256,192,93863,1,4,3:0:0:0:
36,192,93969,1,4,3:0:0:0:
109,192,93969,1,0,1:0:0:0:
402,192,94074,1,4,3:0:0:0:
182,192,94180,1,4,3:0:0:0:
329,192,94285,1,4,3:0:0:0:
402,192,94391,1,4,3:0:0:0:
475,192,94391,1,0,1:0:0:0:
36,192,94497,1,4,3:0:0:0:
329,192,94602,1,4,3:0:0:0:
256,192,94708,1,4,3:0:0:0:
182,192,94814,1,4,3:0:0:0:
109,192,94814,1,0,1:0:0:0:
475,192,94919,1,4,3:0:0:0:
36,192,95025,1,4,3:0:0:0:
182,192,95130,1,4,3:0:0:0:
329,192,95236,1,4,3:0:0:0:
402,192,95236,1,0,1:0:0:0:
109,192,95342,1,4,3:0:0:0:
329,192,95447,1,4,3:0:0:0:
182,192,95553,1,4,3:0:0:0:
402,192,95659,1,4,3:0:0:0:
475,192,95659,1,0,1:0:0:0:
109,192,95764,1,4,3:0:0:0:
329,192,95870,1,4,3:0:0:0:
36,192,95976,1,4,3:0:0:0:
475,192,96081,1,4,3:0:0:0:
256,192,96081,1,0,1:0:0:0:
182,192,96187,1,4,3:0:0:0:
402,192,96292,1,4,3:0:0:0:
36,192,96398,1,4,3:0:0:0:
329,192,96504,1,4,3:0:0:0:
182,192,96504,1,0,1:0:0:0:
109,192,96609,1,4,3:0:0:0:
475,192,96715,1,4,3:0:0:0:
182,192,96821,1,4,3:0:0:0:
402,192,96926,1,4,3:0:0:0:
329,192,96926,1,0,1:0:0:0:
36,192,97032,1,4,3:0:0:0:
109,192,97138,1,4,3:0:0:0:
182,192,97138,1,0,1:0:0:0:
475,192,97243,1,4,3:0:0:0:
402,192,97349,1,4,3:0:0:0:
256,192,97454,1,0,1:0:0:0:
109,192,97454,1,4,3:0:0:0:
329,192,97560,1,4,3:0:0:0:
182,192,97666,1,4,3:0:0:0:
402,192,97771,1,4,3:0:0:0:
475,192,97771,1,0,1:0:0:0:
109,192,97877,1,4,3:0:0:0:
36,192,97877,1,0,1:0:0:0:
329,192,97983,1,4,3:0:0:0:
182,192,98088,1,4,3:0:0:0:
402,192,98194,1,4,3:0:0:0:
109,192,98300,1,4,3:0:0:0:
256,192,98300,1,0,1:0:0:0:
182,192,98405,1,4,3:0:0:0:
329,192,98511,1,4,3:0:0:0:
402,192,98511,1,0,1:0:0:0:
109,192,98616,1,4,3:0:0:0:
182,192,98616,1,0,1:0:0:0:
329,192,98722,1,4,3:0:0:0:
402,192,98722,1,0,1:0:0:0:
36,192,98828,1,4,3:0:0:0:
475,192,98828,1,4,2:0:0:0:
256,192,98828,128,0,100518:0:0:0:0:
109,192,99250,1,0,0:0:0:0:
402,192,99673,1,0,0:0:0:0:
109,192,100095,1,0,0:0:0:0:
36,192,100518,128,4,102208:2:0:0:0:
475,192,100518,1,4,3:0:0:0:
256,192,100940,1,0,0:0:0:0:
402,192,101363,1,4,3:0:0:0:
109,192,101574,1,4,3:0:0:0:
329,192,101785,1,0,0:0:0:0:
402,192,101785,1,0,1:0:0:0:
182,192,101997,1,4,3:0:0:0:
256,192,102208,1,0,0:0:0:0:
475,192,102208,128,4,103898:3:0:0:0:
329,192,102630,1,0,0:0:0:0:
109,192,103053,1,0,0:0:0:0:
329,192,103476,1,0,0:0:0:0:
36,192,103898,1,0,0:0:0:0:
256,192,103898,128,0,105588:1:0:0:0:
182,192,104109,1,4,3:0:0:0:
402,192,104215,1,0,0:0:0:0:
475,192,104215,1,0,1:0:0:0:
329,192,104426,1,4,3:0:0:0:
182,192,104532,1,4,3:0:0:0:
329,192,104638,1,0,1:0:0:0:
109,192,104743,1,4,3:0:0:0:
402,192,104814,1,4,3:0:0:0:
109,192,104884,1,4,3:0:0:0:
329,192,104954,1,4,3:0:0:0:
182,192,105060,1,4,3:0:0:0:
36,192,105166,1,0,1:0:0:0:
109,192,105166,1,4,3:0:0:0:
329,192,105271,1,0,1:0:0:0:
475,192,105377,1,0,1:0:0:0:
329,192,105483,1,0,1:0:0:0:
36,192,105588,128,4,106222:3:0:0:0:
475,192,105588,1,0,1:0:0:0:
182,192,105694,1,0,1:0:0:0:
329,192,105800,1,0,1:0:0:0:
182,192,105905,1,0,1:0:0:0:
475,192,106116,1,0,1:0:0:0:
182,192,106222,128,0,106856:1:0:0:0:
329,192,106222,1,0,0:0:0:0:
402,192,106433,1,4,3:0:0:0:
109,192,106433,1,0,1:0:0:0:
475,192,106856,128,4,107490:3:0:0:0:
36,192,106856,1,0,1:0:0:0:
329,192,106961,1,0,1:0:0:0:
182,192,107067,1,0,1:0:0:0:
329,192,107173,1,0,1:0:0:0:
36,192,107384,1,0,1:0:0:0:
329,192,107490,128,0,108123:0:0:0:0:
182,192,107490,1,0,1:0:0:0:
109,192,107701,1,4,3:0:0:0:
402,192,107701,1,0,0:0:0:0:
36,192,108123,128,0,108757:0:0:0:0:
182,192,108123,1,0,1:0:0:0:
475,192,108229,1,0,1:0:0:0:
182,192,108335,1,0,1:0:0:0:
402,192,108546,1,0,1:0:0:0:
109,192,108652,1,0,1:0:0:0:
402,192,108757,1,0,1:0:0:0:
256,192,108863,1,0,0:0:0:0:
182,192,108969,1,0,1:0:0:0:
475,192,108969,1,0,0:0:0:0:
36,192,109074,1,4,3:0:0:0:
402,192,109180,1,4,3:0:0:0:
109,192,109285,1,0,0:0:0:0:
256,192,109285,1,0,1:0:0:0:
329,192,109391,1,4,3:0:0:0:
182,192,109497,1,4,3:0:0:0:
256,192,109602,1,0,1:0:0:0:
402,192,109602,1,0,0:0:0:0:
109,192,109708,1,4,3:0:0:0:
329,192,109814,1,4,3:0:0:0:
182,192,109919,1,0,1:0:0:0:
475,192,109919,1,0,0:0:0:0:
402,192,110025,1,4,3:0:0:0:
109,192,110130,1,4,3:0:0:0:
475,192,110236,1,0,1:0:0:0:
256,192,110236,1,0,0:0:0:0:
182,192,110342,1,4,3:0:0:0:
329,192,110447,1,4,3:0:0:0:
402,192,110553,1,0,0:0:0:0:
109,192,110553,1,4,3:0:0:0:
182,192,110659,128,0,110976:0:0:0:0:
329,192,110659,1,0,1:0:0:0:
329,192,110976,128,0,111292:0:0:0:0:
109,192,111292,128,0,111609:0:0:0:0:
402,192,111609,128,0,111926:0:0:0:0:
256,192,111926,128,8,112243:3:0:0:0:
109,192,111926,1,0,0:0:0:0:
109,192,112243,128,4,112560:3:0:0:0:
475,192,112243,1,0,0:0:0:0:
329,192,112349,1,4,3:0:0:0:
475,192,112454,1,4,3:0:0:0:
329,192,112560,128,0,113194:1:0:0:0:
182,192,112560,128,0,113194:0:0:0:0:
36,192,113194,128,4,114457:3:0:0:0:
475,192,113194,1,0,0:0:0:0:
475,192,113509,1,4,3:0:0:0:
182,192,113825,1,4,3:0:0:0:
402,192,113904,1,4,3:0:0:0:
182,192,113983,1,4,3:0:0:0:
329,192,114141,1,4,3:0:0:0:
256,192,114299,1,4,3:0:0:0:
475,192,114457,128,4,115720:3:0:0:0:
182,192,114457,1,0,1:0:0:0:
329,192,114536,1,4,3:0:0:0:
182,192,114615,1,4,3:0:0:0:
36,192,114772,1,4,3:0:0:0:
182,192,114930,1,4,3:0:0:0:
109,192,115088,1,4,3:0:0:0:
402,192,115167,1,4,3:0:0:0:
182,192,115246,1,4,3:0:0:0:
329,192,115404,1,4,3:0:0:0:
256,192,115562,1,4,3:0:0:0:
329,192,115720,1,4,3:0:0:0:
182,192,115720,128,4,116983:2:0:0:0:
36,192,115720,1,0,0:0:0:0:
402,192,116036,1,4,3:0:0:0:
402,192,116351,1,4,3:0:0:0:
109,192,116430,1,4,3:0:0:0:
402,192,116509,1,4,3:0:0:0:
329,192,116667,1,4,3:0:0:0:
256,192,116825,1,4,3:0:0:0:
402,192,116983,1,4,3:0:0:0:
329,192,116983,128,0,118246:1:0:0:0:
109,192,117062,1,4,3:0:0:0:
402,192,117141,1,4,3:0:0:0:
475,192,117299,1,4,3:0:0:0:
256,192,117457,1,4,3:0:0:0:
36,192,117615,1,4,3:0:0:0:
109,192,117615,1,0,0:0:0:0:
475,192,117694,1,4,3:0:0:0:
182,192,117772,1,4,3:0:0:0:
402,192,117851,1,4,3:0:0:0:
109,192,117930,1,4,3:0:0:0:
256,192,118009,1,4,3:0:0:0:
36,192,118088,1,4,3:0:0:0:
402,192,118167,1,4,3:0:0:0:
109,192,118246,128,4,118878:3:0:0:0:
182,192,118246,1,4,2:0:0:0:
402,192,118562,1,4,3:0:0:0:
475,192,118878,128,4,119509:3:0:0:0:
329,192,118878,1,4,2:0:0:0:
182,192,118957,1,4,3:0:0:0:
329,192,119036,1,4,3:0:0:0:
36,192,119194,1,4,3:0:0:0:
182,192,119351,1,4,3:0:0:0:
402,192,119509,128,4,120141:2:0:0:0:
256,192,119509,1,0,1:0:0:0:
109,192,119588,1,4,3:0:0:0:
256,192,119667,1,4,3:0:0:0:
475,192,119825,1,4,3:0:0:0:
182,192,119983,1,4,3:0:0:0:
256,192,120141,128,4,120772:3:0:0:0:
329,192,120141,1,4,2:0:0:0:
36,192,120220,1,4,3:0:0:0:
329,192,120299,1,4,3:0:0:0:
109,192,120457,1,4,3:0:0:0:
402,192,120615,1,4,3:0:0:0:
36,192,120772,128,4,121404:3:0:0:0:
475,192,120772,1,4,2:0:0:0:
256,192,121088,1,4,3:0:0:0:
109,192,121404,128,4,121720:3:0:0:0:
329,192,121404,1,4,2:0:0:0:
475,192,121483,1,4,3:0:0:0:
329,192,121562,1,4,3:0:0:0:
182,192,121720,128,4,122036:3:0:0:0:
402,192,121720,1,0,0:0:0:0:
329,192,121878,1,4,3:0:0:0:
256,192,122036,128,4,122667:2:0:0:0:
109,192,122036,1,0,1:0:0:0:
402,192,122115,1,4,3:0:0:0:
109,192,122194,1,4,3:0:0:0:
475,192,122351,1,4,3:0:0:0:
36,192,122509,1,4,3:0:0:0:
329,192,122667,128,0,123299:0:0:0:0:
182,192,122667,128,0,123299:1:0:0:0:
475,192,123299,1,4,3:0:0:0:
36,192,123299,128,0,123930:0:0:0:0:
402,192,123299,1,0,0:0:0:0:
329,192,123615,1,4,3:0:0:0:
109,192,123930,128,4,124562:3:0:0:0:
402,192,123930,1,0,0:0:0:0:
256,192,124009,1,4,3:0:0:0:
402,192,124088,1,4,3:0:0:0:
329,192,124246,1,4,3:0:0:0:
402,192,124404,1,4,3:0:0:0:
475,192,124562,1,4,3:0:0:0:
182,192,124562,128,0,125825:1:0:0:0:
329,192,124641,1,4,3:0:0:0:
475,192,124720,1,4,3:0:0:0:
36,192,124878,1,4,3:0:0:0:
256,192,125036,1,4,3:0:0:0:
402,192,125194,1,4,3:0:0:0:
109,192,125272,1,4,3:0:0:0:
402,192,125351,1,4,3:0:0:0:
256,192,125509,1,4,3:0:0:0:
329,192,125667,1,4,3:0:0:0:
36,192,125825,1,4,3:0:0:0:
475,192,125825,128,0,126457:0:0:0:0:
182,192,126141,1,4,3:0:0:0:
109,192,126457,1,4,3:0:0:0:
402,192,126457,128,0,127088:0:0:0:0:
256,192,126536,1,4,3:0:0:0:
109,192,126615,1,4,3:0:0:0:
182,192,126772,1,4,3:0:0:0:
109,192,126930,1,4,3:0:0:0:
36,192,127088,1,4,3:0:0:0:
329,192,127088,128,0,128351:1:0:0:0:
182,192,127167,1,4,3:0:0:0:
36,192,127246,1,4,3:0:0:0:
475,192,127404,1,4,3:0:0:0:
256,192,127562,1,4,3:0:0:0:
36,192,127720,1,4,3:0:0:0:
109,192,127799,1,4,3:0:0:0:
182,192,127878,1,4,3:0:0:0:
475,192,127957,1,4,3:0:0:0:
402,192,128036,1,4,3:0:0:0:
256,192,128115,1,4,3:0:0:0:
109,192,128194,1,4,3:0:0:0:
182,192,128272,1,4,3:0:0:0:
256,192,128351,1,4,3:0:0:0:
475,192,128351,128,0,128983:0:0:0:0:
109,192,128667,1,4,3:0:0:0:
329,192,128983,1,4,3:0:0:0:
36,192,128983,128,0,129615:0:0:0:0:
182,192,129062,1,4,3:0:0:0:
329,192,129141,1,4,3:0:0:0:
402,192,129299,1,4,3:0:0:0:
256,192,129457,1,4,3:0:0:0:
402,192,129615,128,4,130246:3:0:0:0:
475,192,129615,1,0,1:0:0:0:
182,192,129694,1,4,3:0:0:0:
329,192,129772,1,4,3:0:0:0:
109,192,129930,1,4,3:0:0:0:
256,192,130088,1,4,3:0:0:0:
109,192,130246,128,4,130878:3:0:0:0:
36,192,130246,1,0,0:0:0:0:
329,192,130325,1,4,3:0:0:0:
182,192,130404,1,4,3:0:0:0:
402,192,130562,1,4,3:0:0:0:
256,192,130720,1,4,3:0:0:0:
329,192,130878,128,4,131509:3:0:0:0:
182,192,131194,1,4,3:0:0:0:
402,192,131509,1,4,3:0:0:0:
182,192,131509,128,0,131825:0:0:0:0:
109,192,131588,1,4,3:0:0:0:
402,192,131667,1,4,3:0:0:0:
36,192,131825,1,4,3:0:0:0:
329,192,131825,128,0,132141:0:0:0:0:
475,192,131983,1,4,3:0:0:0:
36,192,132141,128,4,133088:3:0:0:0:
256,192,132141,1,0,1:0:0:0:
402,192,132299,1,4,3:0:0:0:
182,192,132457,1,4,3:0:0:0:
329,192,132615,1,4,3:0:0:0:
402,192,132772,1,4,3:0:0:0:
109,192,132772,1,0,1:0:0:0:
256,192,132930,1,4,3:0:0:0:
402,192,133088,1,4,3:0:0:0:
109,192,133088,1,0,1:0:0:0:
402,192,133246,1,0,1:0:0:0:
109,192,133246,1,0,0:0:0:0:
36,192,133404,128,0,134036:0:0:0:0:
329,192,133404,1,4,3:0:0:0:
475,192,133404,128,0,134036:0:0:0:0:
402,192,134036,128,4,134667:3:0:0:0:
109,192,134036,128,0,134667:0:0:0:0:
182,192,134036,1,0,0:0:0:0:
182,192,134667,128,0,135299:0:0:0:0:
475,192,134667,1,0,1:0:0:0:
329,192,134667,128,0,135299:0:0:0:0:
36,192,135299,1,4,3:0:0:0:
475,192,135299,128,0,135930:0:0:0:0:
109,192,135299,128,0,135930:0:0:0:0:
329,192,135772,1,4,3:0:0:0:
256,192,135851,1,4,3:0:0:0:
402,192,135930,128,0,136562:0:0:0:0:
182,192,135930,128,0,136562:1:0:0:0:
329,192,135930,1,0,0:0:0:0:
256,192,136246,1,4,3:0:0:0:
475,192,136562,128,0,136878:1:0:0:0:
36,192,136562,128,0,136878:0:0:0:0:
256,192,136562,1,0,0:0:0:0:
402,192,136878,1,4,3:0:0:0:
329,192,136878,128,4,137194:2:0:0:0:
182,192,136878,128,0,137194:0:0:0:0:
36,192,137194,128,4,140141:3:0:0:0:
109,192,137194,1,0,0:0:0:0:
475,192,137194,128,0,140141:0:0:0:0:
109,192,139930,1,4,3:0:0:0:
182,192,140009,1,4,3:0:0:0:
256,192,140075,1,4,3:0:0:0:
402,192,140141,1,0,0:0:0:0:
329,192,140141,1,0,1:0:0:0:
256,192,140553,1,4,3:0:0:0:
36,192,140553,1,0,0:0:0:0:
475,192,140553,128,0,140764:0:0:0:0:
329,192,140764,1,0,0:0:0:0:
475,192,140975,128,4,141186:3:0:0:0:
109,192,140975,1,0,0:0:0:0:
329,192,141186,1,0,0:0:0:0:
475,192,141398,128,4,141609:3:0:0:0:
182,192,141398,1,0,0:0:0:0:
329,192,141609,1,0,0:0:0:0:
475,192,141820,128,4,142031:3:0:0:0:
36,192,141820,1,0,0:0:0:0:
182,192,141926,1,0,0:0:0:0:
329,192,142031,1,0,0:0:0:0:
36,192,142243,128,4,142454:3:0:0:0:
475,192,142243,1,0,0:0:0:0:
182,192,142454,1,0,0:0:0:0:
36,192,142665,128,4,142876:3:0:0:0:
402,192,142665,1,0,0:0:0:0:
182,192,142876,1,0,0:0:0:0:
36,192,143088,128,4,143299:3:0:0:0:
329,192,143088,1,0,0:0:0:0:
182,192,143299,1,0,0:0:0:0:
475,192,143510,1,4,3:0:0:0:
36,192,143510,128,0,143722:0:0:0:0:
329,192,143616,1,0,0:0:0:0:
182,192,143722,1,0,0:0:0:0:
475,192,143933,1,4,3:0:0:0:
256,192,143933,128,0,144144:0:0:0:0:
36,192,143933,1,0,0:0:0:0:
402,192,144144,1,0,0:0:0:0:
256,192,144355,128,4,144567:3:0:0:0:
109,192,144355,1,0,0:0:0:0:
402,192,144567,1,0,0:0:0:0:
256,192,144778,128,4,144989:3:0:0:0:
36,192,144778,1,0,0:0:0:0:
402,192,144989,1,0,0:0:0:0:
109,192,145200,1,4,3:0:0:0:
256,192,145200,128,0,145412:0:0:0:0:
402,192,145306,1,0,0:0:0:0:
109,192,145412,1,0,0:0:0:0:
36,192,145623,128,4,145834:3:0:0:0:
475,192,145623,1,0,0:0:0:0:
256,192,145834,1,0,0:0:0:0:
402,192,145834,128,0,146045:0:0:0:0:
329,192,146045,1,4,3:0:0:0:
109,192,146045,128,0,146257:0:0:0:0:
256,192,146257,1,0,0:0:0:0:
475,192,146257,128,0,146468:0:0:0:0:
182,192,146468,1,4,3:0:0:0:
402,192,146468,128,0,146679:0:0:0:0:
256,192,146679,1,0,0:0:0:0:
36,192,146679,128,0,146891:0:0:0:0:
329,192,146891,128,0,147102:0:0:0:0:
109,192,146891,1,0,1:0:0:0:
182,192,146996,1,0,0:0:0:0:
256,192,147102,1,0,0:0:0:0:
36,192,147313,1,4,3:0:0:0:
475,192,147313,128,0,147524:0:0:0:0:
256,192,147313,128,0,152383:0:0:0:0:
329,192,147524,1,0,0:0:0:0:
36,192,147736,128,0,147947:0:0:0:0:
402,192,147736,1,0,1:0:0:0:
182,192,147947,1,0,0:0:0:0:
109,192,148158,1,4,3:0:0:0:
475,192,148158,128,0,148369:0:0:0:0:
329,192,148369,1,0,0:0:0:0:
475,192,148581,1,0,1:0:0:0:
36,192,148581,128,0,148792:0:0:0:0:
329,192,148686,1,0,0:0:0:0:
182,192,148792,1,0,0:0:0:0:
36,192,149003,128,4,149214:3:0:0:0:
475,192,149003,1,0,0:0:0:0:
182,192,149214,1,0,0:0:0:0:
475,192,149426,128,0,149637:0:0:0:0:
109,192,149426,1,0,1:0:0:0:
329,192,149637,1,0,0:0:0:0:
402,192,149848,1,4,3:0:0:0:
36,192,149848,128,0,150060:0:0:0:0:
182,192,150060,1,0,0:0:0:0:
36,192,150271,1,0,1:0:0:0:
475,192,150271,128,0,150482:0:0:0:0:
182,192,150376,1,0,0:0:0:0:
329,192,150482,1,0,0:0:0:0:
402,192,150693,128,4,150905:3:0:0:0:
109,192,150693,1,0,0:0:0:0:
329,192,150905,1,0,0:0:0:0:
402,192,151116,1,0,0:0:0:0:
109,192,151116,128,0,151327:1:0:0:0:
182,192,151327,1,4,3:0:0:0:
475,192,151538,128,0,151750:0:0:0:0:
36,192,151538,1,0,1:0:0:0:
329,192,151750,1,4,3:0:0:0:
36,192,151961,128,0,152172:0:0:0:0:
475,192,151961,1,0,1:0:0:0:
329,192,152067,1,0,0:0:0:0:
182,192,152172,1,4,3:0:0:0:
475,192,152383,1,8,3:0:0:0:
402,192,152489,1,8,3:0:0:0:
329,192,152595,1,4,3:0:0:0:
256,192,152700,1,4,3:0:0:0:
36,192,152806,1,12,3:0:0:0:
109,192,152912,1,8,3:0:0:0:
182,192,153017,1,4,3:0:0:0:
256,192,153123,1,4,3:0:0:0:
109,192,153229,1,4,3:0:0:0:
182,192,153299,1,8,3:0:0:0:
329,192,153369,1,4,3:0:0:0:
402,192,153440,1,4,3:0:0:0:
329,192,153510,1,4,3:0:0:0:
182,192,153581,1,4,3:0:0:0:
402,192,153651,128,0,153862:0:0:0:0:
109,192,153651,128,0,153862:1:0:0:0:
182,192,153862,128,0,154074:0:0:0:0:
329,192,153862,128,0,154074:0:0:0:0:
475,192,154074,1,4,3:0:0:0:
256,192,154074,1,4,1:0:0:0:
36,192,154074,1,0,0:0:0:0:
402,192,154179,1,0,0:0:0:0:
329,192,154285,1,0,0:0:0:0:
256,192,154391,1,4,3:0:0:0:
109,192,154496,1,0,0:0:0:0:
36,192,154496,1,0,1:0:0:0:
182,192,154602,1,4,3:0:0:0:
402,192,154813,1,4,3:0:0:0:
329,192,154919,1,4,3:0:0:0:
109,192,155130,1,4,3:0:0:0:
402,192,155236,1,4,3:0:0:0:
329,192,155341,1,0,1:0:0:0:
182,192,155341,1,0,0:0:0:0:
256,192,155447,1,4,3:0:0:0:
329,192,155553,1,0,0:0:0:0:
402,192,155658,1,4,3:0:0:0:
475,192,155764,1,4,3:0:0:0:
256,192,155764,1,4,1:0:0:0:
36,192,155764,1,0,0:0:0:0:
109,192,155869,1,0,0:0:0:0:
182,192,155975,1,0,0:0:0:0:
256,192,156081,1,4,3:0:0:0:
475,192,156186,1,0,1:0:0:0:
402,192,156186,1,0,0:0:0:0:
329,192,156292,1,4,3:0:0:0:
109,192,156503,1,4,3:0:0:0:
182,192,156609,1,4,3:0:0:0:
402,192,156820,1,4,3:0:0:0:
109,192,156926,1,4,3:0:0:0:
182,192,157031,1,0,1:0:0:0:
329,192,157031,1,0,0:0:0:0:
256,192,157137,1,4,3:0:0:0:
182,192,157243,1,4,3:0:0:0:
109,192,157348,1,4,3:0:0:0:
475,192,157454,1,4,3:0:0:0:
256,192,157454,1,4,1:0:0:0:
36,192,157454,1,0,0:0:0:0:
402,192,157560,1,0,0:0:0:0:
329,192,157665,1,0,0:0:0:0:
256,192,157771,1,4,3:0:0:0:
475,192,157876,1,0,0:0:0:0:
36,192,157876,1,0,1:0:0:0:
182,192,157982,1,4,3:0:0:0:
475,192,158193,1,4,3:0:0:0:
329,192,158299,1,4,3:0:0:0:
109,192,158510,1,4,3:0:0:0:
402,192,158616,1,4,3:0:0:0:
182,192,158722,1,0,1:0:0:0:
36,192,158722,1,0,0:0:0:0:
256,192,158827,1,4,3:0:0:0:
329,192,158933,1,0,0:0:0:0:
402,192,159038,1,4,3:0:0:0:
36,192,159144,128,4,159355:3:0:0:0:
182,192,159144,1,0,0:0:0:0:
475,192,159144,1,0,0:0:0:0:
402,192,159355,128,0,159567:0:0:0:0:
256,192,159567,1,0,1:0:0:0:
109,192,159567,128,0,159778:0:0:0:0:
475,192,159778,128,0,159989:0:0:0:0:
182,192,159989,128,0,160200:1:0:0:0:
256,192,159989,1,0,0:0:0:0:
402,192,160200,128,4,160412:3:0:0:0:
36,192,160412,128,4,160623:3:0:0:0:
182,192,160412,1,0,0:0:0:0:
475,192,160623,1,0,0:0:0:0:
329,192,160623,128,0,160834:1:0:0:0:
182,192,160729,1,0,1:0:0:0:
36,192,160834,1,4,3:0:0:0:
402,192,160940,1,4,3:0:0:0:
36,192,161045,1,4,3:0:0:0:
402,192,161151,1,4,3:0:0:0:
256,192,161257,1,0,1:0:0:0:
109,192,161257,1,0,0:0:0:0:
475,192,161362,1,4,3:0:0:0:
182,192,161574,1,4,3:0:0:0:
329,192,161679,1,4,3:0:0:0:
109,192,161891,1,4,3:0:0:0:
402,192,162102,1,0,0:0:0:0:
475,192,162102,1,0,1:0:0:0:
256,192,162207,1,4,3:0:0:0:
36,192,162313,1,4,3:0:0:0:
475,192,162524,1,4,3:0:0:0:
109,192,162630,1,4,3:0:0:0:
475,192,162736,1,4,3:0:0:0:
109,192,162841,1,4,3:0:0:0:
256,192,162947,1,0,1:0:0:0:
402,192,162947,1,0,0:0:0:0:
36,192,163053,1,4,3:0:0:0:
329,192,163264,1,4,3:0:0:0:
182,192,163369,1,4,3:0:0:0:
402,192,163581,1,4,3:0:0:0:
109,192,163792,1,0,0:0:0:0:
36,192,163792,1,0,1:0:0:0:
256,192,163898,1,4,3:0:0:0:
475,192,164003,1,4,3:0:0:0:
36,192,164214,1,4,3:0:0:0:
475,192,164320,1,4,3:0:0:0:
36,192,164426,1,4,3:0:0:0:
475,192,164531,1,4,3:0:0:0:
256,192,164637,1,0,0:0:0:0:
109,192,164637,1,0,1:0:0:0:
402,192,164743,1,4,3:0:0:0:
36,192,164954,1,4,3:0:0:0:
475,192,165060,1,4,3:0:0:0:
329,192,165060,1,0,0:0:0:0:
109,192,165271,1,4,3:0:0:0:
182,192,165376,1,4,3:0:0:0:
402,192,165482,1,0,1:0:0:0:
329,192,165482,1,0,0:0:0:0:
256,192,165588,1,4,3:0:0:0:
182,192,165693,1,0,0:0:0:0:
402,192,165905,128,0,166116:1:0:0:0:
256,192,165905,1,0,0:0:0:0:
109,192,166116,128,4,166327:3:0:0:0:
256,192,166222,1,0,1:0:0:0:
329,192,166327,128,4,166538:3:0:0:0:
182,192,166538,128,0,166750:0:0:0:0:
256,192,166538,1,0,1:0:0:0:
329,192,166750,1,0,0:0:0:0:
402,192,166750,128,0,166961:1:0:0:0:
256,192,166855,1,4,3:0:0:0:
182,192,166961,1,4,3:0:0:0:
109,192,166961,128,0,167172:0:0:0:0:
475,192,167172,128,4,167383:3:0:0:0:
256,192,167172,1,0,0:0:0:0:
36,192,167383,128,0,167595:0:0:0:0:
329,192,167383,1,0,1:0:0:0:
182,192,167489,1,0,1:0:0:0:
256,192,167595,1,4,1:0:0:0:
475,192,167595,1,0,0:0:0:0:
402,192,167595,128,0,169285:0:0:0:0:
182,192,167912,1,4,3:0:0:0:
109,192,168229,1,4,3:0:0:0:
256,192,168334,1,4,3:0:0:0:
182,192,168440,1,0,1:0:0:0:
36,192,168440,1,0,0:0:0:0:
475,192,168862,1,0,0:0:0:0:
36,192,168862,1,0,0:0:0:0:
182,192,169074,1,4,3:0:0:0:
329,192,169179,1,4,3:0:0:0:
182,192,169285,1,4,3:0:0:0:
109,192,169285,128,0,170975:0:0:0:0:
329,192,169602,1,4,3:0:0:0:
402,192,169919,1,4,3:0:0:0:
329,192,169989,1,4,3:0:0:0:
256,192,170060,1,4,3:0:0:0:
475,192,170130,1,0,1:0:0:0:
182,192,170130,1,0,0:0:0:0:
329,192,170341,1,4,3:0:0:0:
36,192,170553,1,0,0:0:0:0:
475,192,170553,1,0,1:0:0:0:
402,192,170764,1,0,0:0:0:0:
36,192,170975,1,4,3:0:0:0:
256,192,170975,128,0,173510:0:0:0:0:
402,192,171292,1,4,3:0:0:0:
182,192,171609,1,4,3:0:0:0:
329,192,171714,1,4,3:0:0:0:
36,192,171820,1,0,1:0:0:0:
182,192,171820,1,0,0:0:0:0:
475,192,172137,1,0,1:0:0:0:
329,192,172137,1,0,0:0:0:0:
109,192,172243,1,0,0:0:0:0:
402,192,172454,1,4,3:0:0:0:
109,192,172560,1,4,3:0:0:0:
402,192,172665,1,4,3:0:0:0:
329,192,172665,1,0,0:0:0:0:
182,192,172982,1,4,3:0:0:0:
109,192,173299,1,4,3:0:0:0:
182,192,173369,1,4,3:0:0:0:
329,192,173440,1,4,3:0:0:0:
475,192,173510,1,0,1:0:0:0:
402,192,173510,1,0,0:0:0:0:
329,192,173616,1,4,3:0:0:0:
256,192,173722,1,4,3:0:0:0:
182,192,173827,1,4,3:0:0:0:
36,192,173933,1,4,3:0:0:0:
109,192,173933,1,0,1:0:0:0:
182,192,174038,1,4,3:0:0:0:
256,192,174144,1,4,3:0:0:0:
329,192,174250,1,4,3:0:0:0:
475,192,174355,128,4,176045:3:0:0:0:
182,192,174355,1,0,0:0:0:0:
402,192,174672,1,4,3:0:0:0:
36,192,174989,1,4,3:0:0:0:
329,192,175095,1,4,3:0:0:0:
109,192,175200,1,0,1:0:0:0:
182,192,175200,1,0,0:0:0:0:
402,192,175623,1,0,0:0:0:0:
256,192,175623,1,0,0:0:0:0:
109,192,175834,1,4,3:0:0:0:
329,192,175940,1,4,3:0:0:0:
36,192,176045,128,4,177736:3:0:0:0:
182,192,176045,1,0,0:0:0:0:
402,192,176362,1,4,3:0:0:0:
475,192,176679,5,4,3:0:0:0:
402,192,176750,1,4,3:0:0:0:
329,192,176820,1,4,3:0:0:0:
182,192,176891,1,0,0:0:0:0:
256,192,176891,1,0,1:0:0:0:
109,192,177102,1,4,3:0:0:0:
402,192,177313,1,0,1:0:0:0:
182,192,177419,1,0,1:0:0:0:
329,192,177524,1,0,1:0:0:0:
109,192,177630,1,0,1:0:0:0:
475,192,177736,5,4,3:0:0:0:
402,192,177736,1,0,1:0:0:0:
256,192,177736,128,0,179426:0:0:0:0:
36,192,177947,1,0,0:0:0:0:
329,192,178158,1,0,1:0:0:0:
402,192,178158,1,0,0:0:0:0:
475,192,178369,1,0,0:0:0:0:
109,192,178581,1,0,0:0:0:0:
182,192,178581,1,0,1:0:0:0:
36,192,178792,1,0,0:0:0:0:
109,192,179003,1,0,0:0:0:0:
182,192,179003,1,0,1:0:0:0:
329,192,179214,1,4,3:0:0:0:
402,192,179214,1,0,0:0:0:0:
475,192,179426,128,0,181116:0:0:0:0:
36,192,179426,1,0,1:0:0:0:
182,192,179426,1,0,0:0:0:0:
329,192,179637,1,4,3:0:0:0:
109,192,179848,1,0,0:0:0:0:
256,192,179848,1,0,1:0:0:0:
36,192,180060,1,4,3:0:0:0:
182,192,180271,1,0,1:0:0:0:
329,192,180271,1,0,0:0:0:0:
109,192,180482,1,4,3:0:0:0:
256,192,180693,1,0,0:0:0:0:
402,192,180693,1,0,1:0:0:0:
182,192,180905,1,4,3:0:0:0:
36,192,181116,128,4,181538:3:0:0:0:
329,192,181116,1,0,0:0:0:0:
256,192,181222,1,0,0:0:0:0:
182,192,181327,1,0,0:0:0:0:
109,192,181433,1,0,0:0:0:0:
475,192,181538,128,0,181961:0:0:0:0:
402,192,181538,1,0,0:0:0:0:
329,192,181644,1,0,0:0:0:0:
256,192,181750,1,0,0:0:0:0:
182,192,181855,1,0,0:0:0:0:
36,192,181961,128,0,182383:0:0:0:0:
329,192,181961,1,0,0:0:0:0:
256,192,182067,1,0,0:0:0:0:
182,192,182172,1,4,3:0:0:0:
109,192,182243,1,4,3:0:0:0:
402,192,182313,1,4,3:0:0:0:
329,192,182383,128,0,182806:0:0:0:0:
182,192,182383,128,0,182806:1:0:0:0:
256,192,182383,1,0,0:0:0:0:
475,192,182806,128,4,184496:3:0:0:0:
36,192,182806,128,4,184496:1:0:0:0:
256,192,182806,1,0,0:0:0:0:
329,192,184496,128,4,185341:1:0:0:0:
402,192,184496,128,4,185341:3:0:0:0:
182,192,184496,1,0,0:0:0:0:
36,192,185341,128,4,186186:1:0:0:0:
109,192,185341,128,4,186186:3:0:0:0:
256,192,185341,1,0,0:0:0:0:
475,192,186186,128,4,187876:1:0:0:0:
402,192,186186,128,4,187876:3:0:0:0:
256,192,186186,1,0,0:0:0:0:
36,192,187031,1,0,0:0:0:0:
182,192,187876,128,4,188722:1:0:0:0:
36,192,187876,1,4,3:0:0:0:
256,192,187876,128,0,188722:0:0:0:0:
329,192,188722,128,0,189567:0:0:0:0:
475,192,188722,1,0,1:0:0:0:
109,192,188722,128,0,189144:0:0:0:0:
402,192,188933,1,4,3:0:0:0:
182,192,189144,128,4,189567:3:0:0:0:
256,192,189567,1,4,1:0:0:0:
36,192,189567,128,4,191257:3:0:0:0:
475,192,189567,128,0,191257:0:0:0:0:
182,192,190412,1,0,0:0:0:0:
402,192,190834,128,0,191257:0:0:0:0:
182,192,191257,128,4,192947:1:0:0:0:
329,192,191257,1,4,3:0:0:0:
256,192,191257,128,0,192947:0:0:0:0:
36,192,191679,1,0,0:0:0:0:
475,192,192102,1,0,1:0:0:0:
329,192,192102,1,0,0:0:0:0:
109,192,192313,1,4,3:0:0:0:
402,192,192524,1,4,3:0:0:0:
475,192,192736,1,4,3:0:0:0:
402,192,192806,1,4,3:0:0:0:
329,192,192876,1,4,3:0:0:0:
109,192,192947,1,0,0:0:0:0:
36,192,192947,128,0,194637:1:0:0:0:
109,192,193369,1,0,0:0:0:0:
329,192,193369,1,0,1:0:0:0:
402,192,193581,1,0,0:0:0:0:
182,192,193581,1,0,1:0:0:0:
329,192,193792,1,0,0:0:0:0:
109,192,193792,1,0,1:0:0:0:
475,192,194003,128,0,194637:0:0:0:0:
256,192,194003,1,0,1:0:0:0:
182,192,194214,1,0,0:0:0:0:
329,192,194214,1,0,1:0:0:0:
402,192,194426,1,0,0:0:0:0:
109,192,194426,1,0,1:0:0:0:
402,192,195905,1,4,1:0:0:0:
329,192,195905,1,4,1:0:0:0:
182,192,195905,1,0,0:0:0:0:
109,192,195905,1,0,0:0:0:0:
36,192,196327,128,4,196961:3:0:0:0:
475,192,196327,1,4,1:0:0:0:
256,192,196327,1,0,0:0:0:0:
182,192,196433,1,4,3:0:0:0:
402,192,196538,1,4,3:0:0:0:
329,192,196538,1,0,0:0:0:0:
109,192,196644,1,4,3:0:0:0:
256,192,196750,1,4,3:0:0:0:
475,192,196855,1,4,3:0:0:0:
109,192,196961,1,4,3:0:0:0:
402,192,196961,128,0,198017:1:0:0:0:
256,192,197067,1,4,3:0:0:0:
182,192,197172,1,4,3:0:0:0:
329,192,197278,1,4,3:0:0:0:
36,192,197383,1,4,3:0:0:0:
109,192,197383,1,0,1:0:0:0:
475,192,197489,1,4,3:0:0:0:
256,192,197595,1,4,3:0:0:0:
329,192,197700,1,4,3:0:0:0:
109,192,197806,1,4,3:0:0:0:
182,192,197806,1,0,1:0:0:0:
475,192,197912,1,4,3:0:0:0:
329,192,198017,1,4,3:0:0:0:
256,192,198017,1,0,0:0:0:0:
36,192,198123,1,4,3:0:0:0:
182,192,198229,1,4,3:0:0:0:
109,192,198229,1,0,1:0:0:0:
402,192,198334,1,4,3:0:0:0:
329,192,198440,1,4,3:0:0:0:
182,192,198545,1,4,3:0:0:0:
402,192,198651,1,4,3:0:0:0:
475,192,198651,1,0,1:0:0:0:
109,192,198757,1,4,3:0:0:0:
256,192,198862,1,4,3:0:0:0:
36,192,198968,1,4,3:0:0:0:
402,192,199074,1,4,3:0:0:0:
329,192,199074,1,0,1:0:0:0:
109,192,199179,1,4,3:0:0:0:
475,192,199285,1,4,3:0:0:0:
256,192,199391,1,4,3:0:0:0:
36,192,199496,1,4,3:0:0:0:
402,192,199496,1,0,1:0:0:0:
182,192,199602,1,4,3:0:0:0:
329,192,199707,128,4,200130:3:0:0:0:
109,192,199707,1,0,0:0:0:0:
475,192,199813,1,4,3:0:0:0:
36,192,199919,1,4,3:0:0:0:
182,192,199919,1,0,1:0:0:0:
256,192,200024,1,4,3:0:0:0:
402,192,200130,1,4,3:0:0:0:
109,192,200236,1,4,3:0:0:0:
475,192,200341,1,4,3:0:0:0:
256,192,200341,128,0,200764:1:0:0:0:
36,192,200447,1,4,3:0:0:0:
329,192,200553,1,4,3:0:0:0:
182,192,200658,1,4,3:0:0:0:
475,192,200764,1,4,3:0:0:0:
109,192,200764,128,0,201186:1:0:0:0:
329,192,200869,1,4,3:0:0:0:
256,192,200975,1,4,3:0:0:0:
475,192,201081,1,4,3:0:0:0:
329,192,201186,1,4,3:0:0:0:
402,192,201186,1,0,1:0:0:0:
36,192,201292,1,4,3:0:0:0:
182,192,201398,1,4,3:0:0:0:
109,192,201398,1,0,0:0:0:0:
329,192,201503,1,4,3:0:0:0:
36,192,201609,1,4,3:0:0:0:
475,192,201609,1,0,1:0:0:0:
256,192,201714,1,4,3:0:0:0:
402,192,201820,1,4,3:0:0:0:
109,192,201926,1,4,3:0:0:0:
329,192,202031,1,4,3:0:0:0:
182,192,202031,1,0,1:0:0:0:
36,192,202137,1,4,3:0:0:0:
402,192,202243,1,4,3:0:0:0:
256,192,202243,128,0,202876:0:0:0:0:
109,192,202348,1,4,3:0:0:0:
329,192,202454,1,4,3:0:0:0:
475,192,202454,1,0,1:0:0:0:
182,192,202560,1,4,3:0:0:0:
402,192,202665,1,4,3:0:0:0:
36,192,202771,1,4,3:0:0:0:
329,192,202876,1,4,3:0:0:0:
182,192,202876,1,0,1:0:0:0:
109,192,202982,1,4,3:0:0:0:
402,192,203088,1,4,3:0:0:0:
36,192,203193,1,4,3:0:0:0:
475,192,203299,1,4,3:0:0:0:
256,192,203299,1,0,1:0:0:0:
109,192,203405,1,4,3:0:0:0:
329,192,203510,1,4,3:0:0:0:
182,192,203616,1,4,3:0:0:0:
36,192,203722,1,4,3:0:0:0:
475,192,203722,1,0,1:0:0:0:
256,192,203827,1,4,3:0:0:0:
402,192,203933,128,4,204355:3:0:0:0:
109,192,203933,1,0,0:0:0:0:
182,192,204038,1,4,3:0:0:0:
36,192,204144,1,4,3:0:0:0:
329,192,204144,1,0,1:0:0:0:
256,192,204250,1,4,3:0:0:0:
109,192,204355,1,4,3:0:0:0:
475,192,204461,1,4,3:0:0:0:
329,192,204567,1,4,3:0:0:0:
182,192,204567,1,0,1:0:0:0:
36,192,204672,1,4,3:0:0:0:
402,192,204778,1,4,3:0:0:0:
109,192,204883,1,4,3:0:0:0:
329,192,204989,1,4,3:0:0:0:
256,192,204989,1,0,1:0:0:0:
475,192,205095,1,4,3:0:0:0:
182,192,205200,1,4,3:0:0:0:
402,192,205306,1,4,3:0:0:0:
109,192,205412,1,4,3:0:0:0:
36,192,205412,1,0,1:0:0:0:
256,192,205517,1,4,3:0:0:0:
109,192,205623,128,4,206045:3:0:0:0:
402,192,205623,1,0,0:0:0:0:
329,192,205729,1,4,3:0:0:0:
182,192,205834,1,4,3:0:0:0:
256,192,205834,1,0,1:0:0:0:
475,192,205940,1,4,3:0:0:0:
36,192,206045,1,4,3:0:0:0:
329,192,206151,1,4,3:0:0:0:
109,192,206257,1,4,3:0:0:0:
182,192,206257,1,0,1:0:0:0:
475,192,206362,1,4,3:0:0:0:
256,192,206468,128,4,207947:3:0:0:0:
36,192,206468,1,0,0:0:0:0:
109,192,206574,1,4,3:0:0:0:
182,192,206679,1,4,3:0:0:0:
402,192,206679,1,0,1:0:0:0:
109,192,206785,1,4,3:0:0:0:
475,192,206891,1,4,3:0:0:0:
402,192,206996,1,4,3:0:0:0:
109,192,207102,1,4,3:0:0:0:
329,192,207102,1,0,1:0:0:0:
402,192,207207,1,4,3:0:0:0:
36,192,207313,1,4,3:0:0:0:
109,192,207419,1,4,3:0:0:0:
182,192,207524,1,4,3:0:0:0:
402,192,207524,1,0,1:0:0:0:
109,192,207630,1,4,3:0:0:0:
402,192,207736,1,4,3:0:0:0:
329,192,207841,1,4,3:0:0:0:
475,192,207947,1,4,3:0:0:0:
109,192,207947,128,0,208369:1:0:0:0:
402,192,208053,1,4,3:0:0:0:
182,192,208158,1,0,0:0:0:0:
256,192,208158,1,0,1:0:0:0:
329,192,208264,1,4,3:0:0:0:
182,192,208369,1,4,3:0:0:0:
402,192,208369,128,0,208792:0:0:0:0:
36,192,208475,1,4,3:0:0:0:
256,192,208581,1,0,1:0:0:0:
109,192,208581,1,0,0:0:0:0:
329,192,208686,1,4,3:0:0:0:
182,192,208792,1,4,3:0:0:0:
36,192,208792,1,0,0:0:0:0:
475,192,208898,1,4,3:0:0:0:
256,192,209003,128,0,209426:0:0:0:0:
182,192,209003,1,4,3:0:0:0:
109,192,209003,1,0,0:0:0:0:
402,192,209109,1,4,3:0:0:0:
36,192,209320,1,4,3:0:0:0:
182,192,209320,1,0,1:0:0:0:
402,192,209426,1,4,3:0:0:0:
402,192,209637,1,0,0:0:0:0:
475,192,209637,1,0,1:0:0:0:
36,192,209743,1,0,0:0:0:0:
109,192,209743,1,0,1:0:0:0:
329,192,209848,1,4,3:0:0:0:
475,192,209848,128,0,211538:0:0:0:0:
182,192,209848,1,0,0:0:0:0:
256,192,209954,1,4,3:0:0:0:
109,192,210060,1,4,3:0:0:0:
182,192,210165,1,4,3:0:0:0:
402,192,210271,1,4,3:0:0:0:
36,192,210271,1,0,0:0:0:0:
329,192,210376,1,4,3:0:0:0:
109,192,210482,1,4,3:0:0:0:
256,192,210588,1,4,3:0:0:0:
36,192,210693,1,4,3:0:0:0:
182,192,210693,1,0,1:0:0:0:
402,192,210799,1,4,3:0:0:0:
256,192,210905,1,4,3:0:0:0:
36,192,211010,1,4,3:0:0:0:
182,192,211010,1,0,1:0:0:0:
329,192,211116,1,4,3:0:0:0:
109,192,211222,1,4,3:0:0:0:
402,192,211327,1,4,3:0:0:0:
36,192,211433,1,4,3:0:0:0:
256,192,211538,128,4,213229:3:0:0:0:
182,192,211538,1,0,0:0:0:0:
329,192,211644,1,4,3:0:0:0:
109,192,211750,1,4,3:0:0:0:
402,192,211855,1,4,3:0:0:0:
36,192,211961,1,4,3:0:0:0:
475,192,211961,1,0,0:0:0:0:
329,192,212067,1,4,3:0:0:0:
109,192,212172,1,4,3:0:0:0:
475,192,212278,1,4,3:0:0:0:
329,192,212383,1,4,3:0:0:0:
182,192,212383,1,0,1:0:0:0:
36,192,212489,1,4,3:0:0:0:
402,192,212595,1,4,3:0:0:0:
109,192,212700,1,4,3:0:0:0:
329,192,212806,1,4,3:0:0:0:
475,192,212806,1,0,1:0:0:0:
36,192,212912,1,4,3:0:0:0:
402,192,213017,1,4,3:0:0:0:
182,192,213123,1,4,3:0:0:0:
36,192,213229,128,4,214919:3:0:0:0:
475,192,213229,1,0,0:0:0:0:
109,192,213334,1,4,3:0:0:0:
402,192,213440,1,4,3:0:0:0:
256,192,213545,1,4,3:0:0:0:
182,192,213651,1,4,3:0:0:0:
475,192,213651,1,0,0:0:0:0:
329,192,213757,1,4,3:0:0:0:
109,192,213862,1,4,3:0:0:0:
256,192,213968,1,4,3:0:0:0:
329,192,214074,1,4,3:0:0:0:
475,192,214074,1,0,1:0:0:0:
182,192,214179,1,4,3:0:0:0:
109,192,214285,1,4,3:0:0:0:
329,192,214391,1,4,3:0:0:0:
475,192,214391,1,0,1:0:0:0:
256,192,214496,1,4,3:0:0:0:
402,192,214602,1,4,3:0:0:0:
109,192,214707,1,4,3:0:0:0:
182,192,214813,1,4,3:0:0:0:
402,192,214919,128,4,215764:3:0:0:0:
475,192,214919,1,0,0:0:0:0:
109,192,215024,1,4,3:0:0:0:
329,192,215130,1,4,3:0:0:0:
36,192,215236,1,4,3:0:0:0:
256,192,215341,1,4,3:0:0:0:
109,192,215341,1,0,0:0:0:0:
329,192,215447,1,4,3:0:0:0:
36,192,215553,1,4,3:0:0:0:
475,192,215658,1,4,3:0:0:0:
182,192,215764,1,4,3:0:0:0:
109,192,215764,128,0,216609:1:0:0:0:
256,192,215869,1,0,0:0:0:0:
475,192,215975,1,4,3:0:0:0:
36,192,216081,1,4,3:0:0:0:
402,192,216186,1,0,1:0:0:0:
256,192,216292,1,0,1:0:0:0:
402,192,216398,1,0,1:0:0:0:
256,192,216503,1,0,1:0:0:0:
36,192,216609,1,4,3:0:0:0:
475,192,216609,128,0,218299:0:0:0:0:
182,192,216714,1,4,3:0:0:0:
329,192,216820,1,4,3:0:0:0:
109,192,216926,1,4,3:0:0:0:
256,192,217031,1,4,3:0:0:0:
402,192,217031,1,0,0:0:0:0:
182,192,217137,1,4,3:0:0:0:
329,192,217243,1,4,3:0:0:0:
36,192,217348,1,4,3:0:0:0:
402,192,217454,1,4,3:0:0:0:
109,192,217454,1,0,1:0:0:0:
256,192,217560,1,4,3:0:0:0:
329,192,217665,1,4,3:0:0:0:
182,192,217771,1,4,3:0:0:0:
36,192,217771,1,0,1:0:0:0:
402,192,217876,1,4,3:0:0:0:
256,192,217876,1,0,0:0:0:0:
182,192,217982,1,4,3:0:0:0:
329,192,218088,1,4,3:0:0:0:
109,192,218193,1,4,3:0:0:0:
256,192,218299,1,4,3:0:0:0:
36,192,218299,128,0,219989:0:0:0:0:
402,192,218405,1,4,3:0:0:0:
109,192,218510,1,4,3:0:0:0:
329,192,218616,1,4,3:0:0:0:
182,192,218722,1,4,3:0:0:0:
475,192,218722,1,0,0:0:0:0:
256,192,218827,1,4,3:0:0:0:
402,192,218933,1,4,3:0:0:0:
109,192,219038,1,4,3:0:0:0:
182,192,219144,1,4,3:0:0:0:
329,192,219144,1,0,1:0:0:0:
475,192,219250,1,4,3:0:0:0:
109,192,219355,1,4,3:0:0:0:
256,192,219461,1,4,3:0:0:0:
329,192,219567,1,4,3:0:0:0:
402,192,219567,1,0,1:0:0:0:
182,192,219672,1,4,3:0:0:0:
475,192,219778,1,4,3:0:0:0:
109,192,219883,1,4,3:0:0:0:
256,192,219989,128,4,221679:3:0:0:0:
402,192,219989,1,0,1:0:0:0:
182,192,220095,1,4,3:0:0:0:
329,192,220200,1,4,3:0:0:0:
109,192,220306,1,4,3:0:0:0:
475,192,220412,1,4,3:0:0:0:
329,192,220412,1,0,1:0:0:0:
36,192,220517,1,4,3:0:0:0:
329,192,220623,1,4,3:0:0:0:
109,192,220729,1,4,3:0:0:0:
402,192,220834,1,4,3:0:0:0:
475,192,220834,1,0,1:0:0:0:
182,192,220940,1,4,3:0:0:0:
402,192,221045,1,4,3:0:0:0:
109,192,221151,1,4,3:0:0:0:
475,192,221257,1,4,3:0:0:0:
329,192,221257,1,0,1:0:0:0:
36,192,221362,1,4,3:0:0:0:
402,192,221468,1,4,3:0:0:0:
109,192,221574,1,4,3:0:0:0:
475,192,221679,1,4,3:0:0:0:
329,192,221679,128,0,221996:1:0:0:0:
109,192,221785,1,4,3:0:0:0:
256,192,221891,1,4,3:0:0:0:
36,192,221996,1,4,3:0:0:0:
182,192,221996,128,0,222313:1:0:0:0:
402,192,222102,1,4,3:0:0:0:
256,192,222207,1,4,3:0:0:0:
475,192,222313,1,4,3:0:0:0:
36,192,222313,1,0,1:0:0:0:
329,192,222419,1,0,1:0:0:0:
36,192,222524,1,4,3:0:0:0:
256,192,222595,1,4,3:0:0:0:
109,192,222665,1,8,3:0:0:0:
329,192,222736,1,4,3:0:0:0:
182,192,222806,1,4,3:0:0:0:
402,192,222876,1,4,3:0:0:0:
256,192,222947,1,0,1:0:0:0:
36,192,222947,1,0,0:0:0:0:
475,192,223053,1,0,1:0:0:0:
182,192,223053,1,0,0:0:0:0:
329,192,223158,1,0,0:0:0:0:
402,192,223158,1,0,1:0:0:0:
109,192,223264,1,0,1:0:0:0:
182,192,223264,1,0,0:0:0:0:
475,192,223369,1,4,3:0:0:0:
256,192,223369,1,4,1:0:0:0:
36,192,223369,128,0,225060:0:0:0:0:
402,192,223475,1,0,0:0:0:0:
329,192,223581,1,0,0:0:0:0:
182,192,223686,1,4,3:0:0:0:
109,192,223792,1,0,0:0:0:0:
402,192,223792,1,0,1:0:0:0:
329,192,223898,1,4,3:0:0:0:
182,192,224109,1,4,3:0:0:0:
475,192,224214,1,4,3:0:0:0:
256,192,224426,1,4,3:0:0:0:
109,192,224531,1,4,3:0:0:0:
475,192,224637,1,0,0:0:0:0:
402,192,224637,1,0,1:0:0:0:
329,192,224743,1,4,3:0:0:0:
256,192,224848,1,0,0:0:0:0:
182,192,224954,1,4,3:0:0:0:
475,192,225060,128,4,226750:3:0:0:0:
109,192,225060,1,4,1:0:0:0:
402,192,225060,1,0,0:0:0:0:
182,192,225165,1,0,0:0:0:0:
329,192,225271,1,0,0:0:0:0:
402,192,225376,1,4,3:0:0:0:
182,192,225482,1,0,1:0:0:0:
256,192,225482,1,0,0:0:0:0:
109,192,225588,1,4,3:0:0:0:
329,192,225799,1,4,3:0:0:0:
36,192,225905,1,4,3:0:0:0:
182,192,226116,1,4,3:0:0:0:
402,192,226222,1,4,3:0:0:0:
36,192,226327,1,0,0:0:0:0:
109,192,226327,1,0,1:0:0:0:
182,192,226433,1,4,3:0:0:0:
256,192,226538,1,4,3:0:0:0:
329,192,226644,1,4,3:0:0:0:
109,192,226750,128,4,228440:3:0:0:0:
402,192,226750,1,4,1:0:0:0:
256,192,226855,1,0,0:0:0:0:
329,192,226961,1,0,0:0:0:0:
182,192,227067,1,4,3:0:0:0:
36,192,227172,1,0,0:0:0:0:
475,192,227172,1,0,1:0:0:0:
256,192,227278,1,4,3:0:0:0:
329,192,227489,1,4,3:0:0:0:
182,192,227595,1,4,3:0:0:0:
475,192,227806,1,4,3:0:0:0:
329,192,227912,1,4,3:0:0:0:
182,192,228017,1,0,1:0:0:0:
256,192,228017,1,0,0:0:0:0:
402,192,228123,1,4,3:0:0:0:
36,192,228229,1,0,0:0:0:0:
475,192,228334,1,4,3:0:0:0:
402,192,228440,128,4,230130:3:0:0:0:
329,192,228440,1,4,1:0:0:0:
182,192,228545,1,0,0:0:0:0:
475,192,228651,1,0,0:0:0:0:
36,192,228757,1,4,3:0:0:0:
109,192,228862,1,0,1:0:0:0:
256,192,228862,1,0,0:0:0:0:
329,192,228968,1,0,0:0:0:0:
182,192,229179,1,4,3:0:0:0:
256,192,229285,1,0,1:0:0:0:
475,192,229285,1,0,0:0:0:0:
36,192,229391,1,4,3:0:0:0:
329,192,229496,1,4,3:0:0:0:
182,192,229602,1,4,3:0:0:0:
475,192,229707,1,4,3:0:0:0:
329,192,229813,1,4,3:0:0:0:
109,192,229919,1,0,0:0:0:0:
256,192,230024,1,0,1:0:0:0:
475,192,230130,128,4,231820:3:0:0:0:
36,192,230130,1,4,1:0:0:0:
182,192,230236,1,4,3:0:0:0:
36,192,230341,1,4,3:0:0:0:
182,192,230447,1,4,3:0:0:0:
402,192,230553,1,0,1:0:0:0:
329,192,230553,1,0,0:0:0:0:
256,192,230658,1,4,3:0:0:0:
182,192,230869,1,4,3:0:0:0:
36,192,230975,1,4,3:0:0:0:
402,192,231186,1,4,3:0:0:0:
256,192,231398,1,0,1:0:0:0:
182,192,231398,1,0,0:0:0:0:
402,192,231503,1,4,3:0:0:0:
36,192,231609,1,4,3:0:0:0:
329,192,231609,128,0,231820:0:0:0:0:
109,192,231820,128,4,233510:3:0:0:0:
256,192,231820,1,4,1:0:0:0:
402,192,231926,1,4,3:0:0:0:
256,192,232031,1,4,3:0:0:0:
402,192,232137,1,4,3:0:0:0:
182,192,232243,1,0,1:0:0:0:
36,192,232243,1,0,0:0:0:0:
475,192,232348,1,4,3:0:0:0:
402,192,232560,1,4,3:0:0:0:
329,192,232665,1,4,3:0:0:0:
256,192,232876,1,4,3:0:0:0:
475,192,233088,1,0,1:0:0:0:
36,192,233088,1,0,0:0:0:0:
329,192,233193,1,4,3:0:0:0:
256,192,233299,128,4,233510:3:0:0:0:
402,192,233510,128,4,235200:1:0:0:0:
475,192,233510,1,4,3:0:0:0:
36,192,233616,1,4,3:0:0:0:
475,192,233722,1,4,3:0:0:0:
36,192,233827,1,4,3:0:0:0:
329,192,233933,1,0,0:0:0:0:
182,192,233933,1,0,1:0:0:0:
109,192,234038,1,4,3:0:0:0:
256,192,234250,1,4,3:0:0:0:
182,192,234355,1,0,1:0:0:0:
36,192,234355,1,0,0:0:0:0:
329,192,234567,1,4,3:0:0:0:
109,192,234672,1,4,3:0:0:0:
256,192,234778,1,0,1:0:0:0:
475,192,234778,1,0,0:0:0:0:
182,192,234883,1,4,3:0:0:0:
329,192,234989,128,0,235200:0:0:0:0:
256,192,235095,1,4,3:0:0:0:
36,192,235200,128,4,236891:3:0:0:0:
475,192,235200,1,0,1:0:0:0:
182,192,235306,1,4,3:0:0:0:
475,192,235412,1,4,3:0:0:0:
109,192,235517,1,4,3:0:0:0:
182,192,235517,1,0,1:0:0:0:
402,192,235623,1,4,3:0:0:0:
256,192,235729,1,4,3:0:0:0:
329,192,235834,1,4,3:0:0:0:
402,192,235834,1,0,0:0:0:0:
109,192,235940,1,4,3:0:0:0:
475,192,236045,1,0,0:0:0:0:
256,192,236045,1,0,1:0:0:0:
402,192,236151,1,0,0:0:0:0:
182,192,236151,1,0,1:0:0:0:
329,192,236257,1,4,3:0:0:0:
256,192,236362,1,4,3:0:0:0:
182,192,236468,1,4,3:0:0:0:
109,192,236574,1,4,3:0:0:0:
329,192,236679,1,0,0:0:0:0:
256,192,236679,1,0,1:0:0:0:
402,192,236785,1,0,1:0:0:0:
475,192,236785,1,0,0:0:0:0:
182,192,236891,128,4,237736:3:0:0:0:
329,192,236891,1,4,1:0:0:0:
402,192,236996,1,0,0:0:0:0:
109,192,237102,1,0,0:0:0:0:
475,192,237207,1,0,0:0:0:0:
36,192,237313,1,0,0:0:0:0:
256,192,237313,1,0,0:0:0:0:
402,192,237419,1,0,0:0:0:0:
109,192,237630,1,0,0:0:0:0:
329,192,237736,128,4,238581:1:0:0:0:
256,192,237736,1,4,3:0:0:0:
402,192,237736,1,0,0:0:0:0:
109,192,237841,1,0,0:0:0:0:
402,192,237947,1,0,0:0:0:0:
36,192,238053,1,0,0:0:0:0:
475,192,238158,1,0,0:0:0:0:
256,192,238158,1,0,0:0:0:0:
109,192,238264,1,0,0:0:0:0:
402,192,238475,1,0,0:0:0:0:
256,192,238581,128,4,240271:1:0:0:0:
109,192,238581,1,4,3:0:0:0:
402,192,238686,1,0,0:0:0:0:
36,192,238792,1,0,0:0:0:0:
475,192,238898,1,0,0:0:0:0:
182,192,239003,1,4,3:0:0:0:
402,192,239109,1,0,0:0:0:0:
109,192,239320,1,0,0:0:0:0:
329,192,239426,1,0,0:0:0:0:
475,192,239426,1,0,1:0:0:0:
402,192,239637,1,4,3:0:0:0:
329,192,239707,1,4,3:0:0:0:
182,192,239778,1,4,3:0:0:0:
36,192,239848,1,0,0:0:0:0:
109,192,239848,1,0,1:0:0:0:
475,192,239954,1,0,1:0:0:0:
402,192,239954,1,0,0:0:0:0:
109,192,240060,1,4,3:0:0:0:
402,192,240165,1,4,3:0:0:0:
329,192,240271,1,4,3:0:0:0:
36,192,240271,1,0,0:0:0:0:
109,192,240376,1,0,0:0:0:0:
402,192,240376,1,0,1:0:0:0:
475,192,240482,1,0,0:0:0:0:
182,192,240482,1,0,1:0:0:0:
329,192,240588,1,0,0:0:0:0:
36,192,240588,1,0,1:0:0:0:
109,192,240799,1,0,0:0:0:0:
402,192,240799,1,0,1:0:0:0:
329,192,241010,1,0,0:0:0:0:
36,192,241010,1,0,0:0:0:0:
475,192,241116,1,4,3:0:0:0:
182,192,241116,1,0,0:0:0:0:
109,192,241222,1,0,1:0:0:0:
402,192,241222,1,0,0:0:0:0:
36,192,241327,1,0,0:0:0:0:
329,192,241327,1,0,1:0:0:0:
402,192,241433,1,0,0:0:0:0:
109,192,241433,1,0,1:0:0:0:
182,192,241644,1,0,0:0:0:0:
475,192,241644,1,0,1:0:0:0:
109,192,241855,1,0,0:0:0:0:
402,192,241855,1,0,0:0:0:0:
36,192,241961,1,4,3:0:0:0:
475,192,241961,1,0,0:0:0:0:
402,192,242067,1,0,1:0:0:0:
109,192,242067,1,0,0:0:0:0:
182,192,242172,1,0,1:0:0:0:
329,192,242172,1,0,0:0:0:0:
402,192,242278,1,4,3:0:0:0:
109,192,242278,1,0,0:0:0:0:
36,192,242489,1,4,3:0:0:0:
475,192,242489,1,0,0:0:0:0:
182,192,242700,1,4,3:0:0:0:
329,192,242700,1,0,0:0:0:0:
402,192,242806,1,0,1:0:0:0:
109,192,242806,1,0,0:0:0:0:
109,192,243017,1,4,3:0:0:0:
402,192,243088,1,4,3:0:0:0:
182,192,243158,1,4,3:0:0:0:
36,192,243229,1,0,0:0:0:0:
475,192,243229,1,0,1:0:0:0:
182,192,243334,1,0,0:0:0:0:
329,192,243334,1,0,1:0:0:0:
36,192,243440,1,0,1:0:0:0:
475,192,243440,1,0,0:0:0:0:
256,192,243545,1,0,0:0:0:0:
109,192,243545,128,0,243651:0:0:0:0:
402,192,243545,128,0,243651:1:0:0:0:
