osu file format v13

[General]
AudioFilename: Babymetal - Megitsune.mp3
AudioLeadIn: 0
PreviewTime: 71785
Countdown: 0
SampleSet: Soft
StackLeniency: 0.7
Mode: 3
LetterboxInBreaks: 0
SpecialStyle: 0
WidescreenStoryboard: 1

[Editor]
DistanceSpacing: 1
BeatDivisor: 8
GridSize: 8
TimelineZoom: 4.499998

[Metadata]
Title:MEGITSUNE
TitleUnicode:メギツネ
Artist:BABYMETAL
ArtistUnicode:BABYMETAL
Creator:arcwinolivirus
Version:4K NM+
Source:
Tags:jpop su yui moa metal
BeatmapID:409621
BeatmapSetID:167880

[Difficulty]
HPDrainRate:6
CircleSize:4
OverallDifficulty:6.5
ApproachRate:5
SliderMultiplier:1.4
SliderTickRate:1

[Events]
//Background and Video events
0,0,"bgmegitsune.jpg",0,0
Video,0,"megitsune.avi"
//Break Periods
//Storyboard Layer 0 (Background)
//Storyboard Layer 1 (Fail)
//Storyboard Layer 2 (Pass)
//Storyboard Layer 3 (Foreground)
//Storyboard Sound Samples
//Background Colour Transformations
3,100,163,162,255

[TimingPoints]
800,422.535211267606,4,2,0,70,1,0
800,-100,4,2,0,70,0,0
71785,-100,4,2,0,70,0,1
98828,-100,4,2,0,70,0,0
113194,315.789473684211,4,2,0,70,1,0
113194,-133.333333333333,4,2,0,70,0,0
140553,422.535211267606,4,2,0,70,1,0
196327,-100,4,2,0,70,0,1
223369,-100,4,2,0,70,0,0

[HitObjects]
64,192,800,5,4,3:0:0:0:
448,192,905,1,4,3:0:0:0:
64,192,1011,1,4,3:0:0:0:
448,192,1116,1,4,3:0:0:0:
64,192,1328,1,0,0:0:0:0:
448,192,1328,1,4,3:0:0:0:
320,192,1539,1,4,3:0:0:0:
192,192,1645,1,4,3:0:0:0:
320,192,1856,1,0,0:0:0:0:
192,192,1961,1,0,0:0:0:0:
64,192,2067,1,0,0:0:0:0:
448,192,2490,1,4,3:0:0:0:
320,192,2701,1,0,0:0:0:0:
192,192,2912,1,0,0:0:0:0:
64,192,3123,1,8,3:0:0:0:
448,192,3335,1,0,0:0:0:0:
64,192,3546,1,0,0:0:0:0:
320,192,3757,1,8,3:0:0:0:
192,192,3969,1,0,0:0:0:0:
448,192,4180,1,4,3:0:0:0:
64,192,4285,1,4,3:0:0:0:
448,192,4391,1,4,3:0:0:0:
64,192,4497,1,4,3:0:0:0:
64,192,4708,1,4,3:0:0:0:
448,192,4708,1,0,0:0:0:0:
192,192,4919,1,4,3:0:0:0:
320,192,5025,1,4,3:0:0:0:
192,192,5236,1,0,0:0:0:0:
320,192,5342,1,0,0:0:0:0:
448,192,5447,1,8,3:0:0:0:
64,192,5659,1,0,0:0:0:0:
448,192,5870,1,4,3:0:0:0:
64,192,6081,1,0,0:0:0:0:
192,192,6292,1,0,0:0:0:0:
320,192,6504,1,8,3:0:0:0:
192,192,6715,1,0,0:0:0:0:
448,192,6926,1,0,0:0:0:0:
192,192,7138,1,8,3:0:0:0:
320,192,7349,1,0,0:0:0:0:
448,192,7560,1,0,0:0:0:0:
64,192,7560,1,4,2:0:0:0:
448,192,7771,1,0,0:0:0:0:
64,192,7983,1,0,0:0:0:0:
64,192,8194,1,0,0:0:0:0:
448,192,8405,128,4,8828:2:0:0:0:
320,192,8405,1,0,0:0:0:0:
192,192,8828,1,0,0:0:0:0:
320,192,9039,1,0,0:0:0:0:
448,192,9250,1,0,0:0:0:0:
64,192,9250,128,4,9673:2:0:0:0:
448,192,9673,1,0,0:0:0:0:
448,192,9884,1,0,0:0:0:0:
192,192,10095,1,0,1:0:0:0:
64,192,10095,1,0,0:0:0:0:
320,192,10307,1,0,0:0:0:0:
192,192,10518,1,4,3:0:0:0:
448,192,10729,1,4,3:0:0:0:
192,192,10940,1,0,1:0:0:0:
64,192,10940,128,4,11363:2:0:0:0:
448,192,11363,1,4,3:0:0:0:
320,192,11574,1,4,3:0:0:0:
192,192,11785,1,4,3:0:0:0:
64,192,11997,1,4,3:0:0:0:
192,192,12208,1,4,3:0:0:0:
320,192,12419,1,4,3:0:0:0:
64,192,12630,1,0,0:0:0:0:
448,192,12630,1,4,2:0:0:0:
192,192,12842,1,4,3:0:0:0:
448,192,13053,1,4,3:0:0:0:
64,192,13264,1,4,3:0:0:0:
320,192,13476,1,4,3:0:0:0:
448,192,13687,1,4,3:0:0:0:
192,192,13898,128,0,14321:0:0:0:0:
320,192,13898,1,0,1:0:0:0:
64,192,14321,1,4,3:0:0:0:
448,192,14321,1,4,1:0:0:0:
320,192,14426,1,0,0:0:0:0:
192,192,14532,1,0,0:0:0:0:
64,192,14638,1,4,3:0:0:0:
64,192,14849,1,4,3:0:0:0:
448,192,15060,1,4,3:0:0:0:
192,192,15166,1,4,3:0:0:0:
320,192,15377,1,4,3:0:0:0:
192,192,15588,1,0,1:0:0:0:
320,192,15694,1,4,3:0:0:0:
448,192,15800,128,0,16011:0:0:0:0:
64,192,16011,1,4,3:0:0:0:
192,192,16116,1,0,0:0:0:0:
320,192,16222,1,0,0:0:0:0:
448,192,16328,1,4,3:0:0:0:
448,192,16539,1,4,3:0:0:0:
64,192,16750,1,4,3:0:0:0:
320,192,16856,1,4,3:0:0:0:
192,192,17067,1,4,3:0:0:0:
320,192,17278,1,0,1:0:0:0:
192,192,17384,1,4,3:0:0:0:
64,192,17490,128,0,17701:0:0:0:0:
448,192,17701,1,4,3:0:0:0:
320,192,17807,1,0,0:0:0:0:
192,192,17912,1,0,0:0:0:0:
64,192,18018,1,4,3:0:0:0:
448,192,18229,1,4,3:0:0:0:
192,192,18440,1,4,3:0:0:0:
320,192,18546,1,4,3:0:0:0:
64,192,18757,1,4,3:0:0:0:
320,192,18969,1,0,1:0:0:0:
192,192,19074,1,4,3:0:0:0:
320,192,19180,128,0,19391:0:0:0:0:
448,192,19391,128,4,19602:1:0:0:0:
64,192,19602,1,0,0:0:0:0:
320,192,19814,128,0,20025:1:0:0:0:
64,192,20025,1,0,0:0:0:0:
192,192,20236,128,0,20447:1:0:0:0:
448,192,20447,1,4,3:0:0:0:
64,192,20659,128,4,20870:3:0:0:0:
448,192,20870,128,0,21081:1:0:0:0:
64,192,21081,1,4,3:0:0:0:
192,192,21187,1,0,0:0:0:0:
320,192,21292,1,0,0:0:0:0:
448,192,21398,1,4,3:0:0:0:
320,192,21609,1,4,3:0:0:0:
192,192,21821,1,4,3:0:0:0:
320,192,21926,1,4,3:0:0:0:
64,192,22138,1,4,3:0:0:0:
448,192,22349,1,0,1:0:0:0:
320,192,22454,1,4,3:0:0:0:
192,192,22560,128,0,22771:0:0:0:0:
448,192,22771,1,4,3:0:0:0:
320,192,22877,1,0,0:0:0:0:
192,192,22983,1,0,0:0:0:0:
64,192,23088,1,4,3:0:0:0:
192,192,23300,1,4,3:0:0:0:
320,192,23511,1,4,3:0:0:0:
192,192,23616,1,4,3:0:0:0:
448,192,23828,1,4,3:0:0:0:
64,192,24039,1,0,1:0:0:0:
192,192,24145,1,4,3:0:0:0:
320,192,24250,128,0,24461:0:0:0:0:
64,192,24461,1,4,3:0:0:0:
192,192,24567,1,0,0:0:0:0:
320,192,24673,1,0,0:0:0:0:
448,192,24778,1,4,3:0:0:0:
64,192,24990,1,4,3:0:0:0:
448,192,25201,1,4,3:0:0:0:
320,192,25307,1,4,3:0:0:0:
192,192,25518,1,4,3:0:0:0:
320,192,25729,1,0,1:0:0:0:
192,192,25835,1,4,3:0:0:0:
64,192,25940,128,0,26152:0:0:0:0:
448,192,26152,128,0,26363:1:0:0:0:
192,192,26363,1,4,3:0:0:0:
64,192,26574,128,4,26785:3:0:0:0:
320,192,26785,1,4,3:0:0:0:
192,192,26997,128,0,27208:0:0:0:0:
448,192,27208,1,4,3:0:0:0:
320,192,27419,128,0,27630:1:0:0:0:
64,192,27630,1,0,1:0:0:0:
192,192,27842,1,0,0:0:0:0:
320,192,27842,1,4,3:0:0:0:
448,192,27947,1,0,0:0:0:0:
64,192,28053,1,0,0:0:0:0:
320,192,28159,1,0,0:0:0:0:
192,192,28370,1,0,0:0:0:0:
320,192,28581,1,0,0:0:0:0:
64,192,28687,1,0,0:0:0:0:
320,192,28898,1,0,0:0:0:0:
192,192,29109,128,0,29532:1:0:0:0:
448,192,29109,1,0,0:0:0:0:
64,192,29532,1,4,2:0:0:0:
448,192,29532,1,4,3:0:0:0:
192,192,29743,1,0,0:0:0:0:
320,192,29954,1,4,3:0:0:0:
64,192,30166,1,0,0:0:0:0:
448,192,30377,1,4,3:0:0:0:
192,192,30588,1,0,0:0:0:0:
320,192,30800,1,4,3:0:0:0:
64,192,31011,1,0,0:0:0:0:
448,192,31222,1,4,3:0:0:0:
64,192,31328,1,0,0:0:0:0:
448,192,31433,1,0,0:0:0:0:
64,192,31539,1,0,0:0:0:0:
448,192,31645,128,4,31856:3:0:0:0:
64,192,31856,128,0,32067:0:0:0:0:
320,192,32067,1,4,3:0:0:0:
192,192,32173,1,0,0:0:0:0:
320,192,32278,1,0,0:0:0:0:
192,192,32384,1,0,0:0:0:0:
320,192,32490,128,4,32701:3:0:0:0:
192,192,32701,128,0,32912:0:0:0:0:
448,192,32912,1,4,3:0:0:0:
320,192,32912,1,4,2:0:0:0:
64,192,33123,1,0,0:0:0:0:
320,192,33335,1,4,3:0:0:0:
192,192,33546,1,0,0:0:0:0:
448,192,33757,1,4,3:0:0:0:
64,192,33969,1,0,0:0:0:0:
320,192,34180,1,4,3:0:0:0:
192,192,34391,1,0,0:0:0:0:
320,192,34602,1,4,3:0:0:0:
192,192,34708,1,0,0:0:0:0:
320,192,34814,1,4,3:0:0:0:
192,192,34919,1,0,0:0:0:0:
320,192,35025,128,0,35236:1:0:0:0:
192,192,35236,128,4,35447:3:0:0:0:
448,192,35447,1,0,0:0:0:0:
64,192,35553,1,4,3:0:0:0:
448,192,35659,1,0,0:0:0:0:
64,192,35764,1,4,3:0:0:0:
448,192,35870,128,0,36081:1:0:0:0:
64,192,36081,128,0,36292:1:0:0:0:
448,192,36292,1,4,2:0:0:0:
320,192,36292,1,4,3:0:0:0:
192,192,36504,1,0,0:0:0:0:
448,192,36715,1,0,1:0:0:0:
64,192,36926,1,0,0:0:0:0:
320,192,37138,1,4,3:0:0:0:
192,192,37349,1,0,0:0:0:0:
448,192,37560,1,0,1:0:0:0:
64,192,37771,1,0,0:0:0:0:
320,192,37983,1,4,3:0:0:0:
64,192,38088,1,0,0:0:0:0:
320,192,38194,1,0,0:0:0:0:
64,192,38300,1,0,0:0:0:0:
320,192,38405,128,0,38616:1:0:0:0:
64,192,38616,128,0,38828:0:0:0:0:
448,192,38828,1,4,3:0:0:0:
192,192,38933,1,0,0:0:0:0:
448,192,39039,1,0,0:0:0:0:
192,192,39145,1,0,0:0:0:0:
448,192,39250,128,0,39461:1:0:0:0:
192,192,39461,128,0,39673:0:0:0:0:
320,192,39673,1,4,3:0:0:0:
448,192,39673,1,4,2:0:0:0:
64,192,39884,1,0,0:0:0:0:
320,192,40095,1,0,1:0:0:0:
192,192,40307,1,0,0:0:0:0:
448,192,40518,1,4,3:0:0:0:
64,192,40729,1,0,0:0:0:0:
192,192,40940,1,0,1:0:0:0:
320,192,41152,1,0,0:0:0:0:
448,192,41363,1,0,1:0:0:0:
64,192,41574,5,0,1:0:0:0:
448,192,41785,1,0,1:0:0:0:
192,192,41997,1,0,1:0:0:0:
320,192,42102,1,0,1:0:0:0:
192,192,42314,1,0,1:0:0:0:
320,192,42525,1,0,1:0:0:0:
192,192,42630,1,0,1:0:0:0:
64,192,42630,1,0,0:0:0:0:
320,192,43053,1,0,0:0:0:0:
448,192,43053,1,4,1:0:0:0:
64,192,43159,1,0,0:0:0:0:
320,192,43264,1,0,0:0:0:0:
192,192,43370,1,4,3:0:0:0:
192,192,43581,1,4,3:0:0:0:
448,192,43792,1,4,3:0:0:0:
64,192,43898,1,4,3:0:0:0:
320,192,44109,1,4,3:0:0:0:
192,192,44321,1,0,1:0:0:0:
320,192,44426,1,4,3:0:0:0:
448,192,44532,128,0,44743:0:0:0:0:
64,192,44743,1,4,3:0:0:0:
448,192,44849,1,0,0:0:0:0:
192,192,44954,1,0,0:0:0:0:
320,192,45060,1,4,3:0:0:0:
320,192,45271,1,4,3:0:0:0:
64,192,45483,1,4,3:0:0:0:
448,192,45588,1,4,3:0:0:0:
192,192,45800,1,4,3:0:0:0:
320,192,46011,1,0,1:0:0:0:
192,192,46116,1,4,3:0:0:0:
64,192,46222,128,0,46433:0:0:0:0:
448,192,46433,1,4,3:0:0:0:
64,192,46539,1,0,0:0:0:0:
320,192,46645,1,0,0:0:0:0:
192,192,46750,1,4,3:0:0:0:
448,192,46961,1,4,3:0:0:0:
192,192,47173,1,4,3:0:0:0:
320,192,47278,1,4,3:0:0:0:
64,192,47490,1,4,3:0:0:0:
192,192,47701,1,0,1:0:0:0:
320,192,47807,1,4,3:0:0:0:
448,192,47912,128,0,48123:0:0:0:0:
64,192,48123,128,4,48335:1:0:0:0:
320,192,48335,1,0,0:0:0:0:
192,192,48546,128,0,48757:1:0:0:0:
448,192,48757,1,0,0:0:0:0:
320,192,48969,128,0,49180:1:0:0:0:
64,192,49180,1,4,3:0:0:0:
448,192,49391,128,4,49602:3:0:0:0:
192,192,49602,1,0,1:0:0:0:
320,192,49814,1,4,3:0:0:0:
192,192,49919,1,4,3:0:0:0:
64,192,50025,1,4,3:0:0:0:
192,192,50130,1,4,3:0:0:0:
320,192,50342,1,4,3:0:0:0:
64,192,50553,1,4,3:0:0:0:
448,192,50659,1,4,3:0:0:0:
192,192,50870,1,4,3:0:0:0:
64,192,51081,1,0,1:0:0:0:
192,192,51187,1,4,3:0:0:0:
320,192,51292,128,4,51504:3:0:0:0:
192,192,51504,1,4,3:0:0:0:
320,192,51609,1,4,3:0:0:0:
448,192,51715,1,4,3:0:0:0:
320,192,51821,1,4,3:0:0:0:
192,192,52032,1,4,3:0:0:0:
448,192,52243,1,4,3:0:0:0:
64,192,52349,1,4,3:0:0:0:
320,192,52560,1,4,3:0:0:0:
448,192,52771,1,0,1:0:0:0:
320,192,52877,1,4,3:0:0:0:
192,192,52983,128,4,53194:3:0:0:0:
320,192,53194,1,4,3:0:0:0:
192,192,53300,1,4,3:0:0:0:
64,192,53405,1,4,3:0:0:0:
320,192,53511,1,4,3:0:0:0:
448,192,53722,1,4,3:0:0:0:
64,192,53933,1,4,3:0:0:0:
320,192,54039,1,0,1:0:0:0:
192,192,54250,1,4,3:0:0:0:
64,192,54461,1,0,1:0:0:0:
192,192,54567,1,4,3:0:0:0:
320,192,54673,128,0,54884:0:0:0:0:
192,192,54884,128,0,55095:1:0:0:0:
448,192,55095,1,4,3:0:0:0:
64,192,55307,128,4,55518:3:0:0:0:
192,192,55518,5,0,1:0:0:0:
320,192,55729,128,0,55940:1:0:0:0:
64,192,55940,1,4,3:0:0:0:
448,192,56152,128,4,56363:3:0:0:0:
320,192,56363,1,0,1:0:0:0:
192,192,56574,5,0,0:0:0:0:
64,192,56574,1,4,1:0:0:0:
320,192,56891,1,4,3:0:0:0:
192,192,57208,1,4,3:0:0:0:
320,192,57419,1,0,0:0:0:0:
448,192,57419,1,0,1:0:0:0:
64,192,57842,1,0,0:0:0:0:
448,192,58053,1,4,3:0:0:0:
64,192,58264,1,4,3:0:0:0:
320,192,58581,1,4,3:0:0:0:
192,192,58898,1,4,3:0:0:0:
448,192,59109,1,0,1:0:0:0:
320,192,59109,1,0,0:0:0:0:
192,192,59321,1,4,3:0:0:0:
448,192,59532,1,0,1:0:0:0:
64,192,59532,1,0,0:0:0:0:
320,192,59743,1,0,0:0:0:0:
64,192,59954,1,0,0:0:0:0:
192,192,59954,1,4,3:0:0:0:
448,192,60271,1,4,3:0:0:0:
320,192,60588,1,4,3:0:0:0:
64,192,60800,1,0,1:0:0:0:
448,192,60800,1,0,0:0:0:0:
448,192,61116,1,0,0:0:0:0:
64,192,61116,1,0,1:0:0:0:
320,192,61433,1,4,3:0:0:0:
64,192,61645,1,4,3:0:0:0:
448,192,61961,1,4,3:0:0:0:
320,192,62278,1,4,3:0:0:0:
64,192,62490,1,0,1:0:0:0:
192,192,62490,1,0,0:0:0:0:
448,192,62912,1,0,1:0:0:0:
320,192,62912,1,0,0:0:0:0:
448,192,63335,1,0,0:0:0:0:
64,192,63335,1,4,3:0:0:0:
192,192,63652,1,4,3:0:0:0:
320,192,63969,1,4,3:0:0:0:
192,192,64180,1,0,0:0:0:0:
448,192,64180,1,0,1:0:0:0:
320,192,64602,1,0,0:0:0:0:
192,192,64814,1,4,3:0:0:0:
448,192,65025,1,4,3:0:0:0:
64,192,65342,1,4,3:0:0:0:
192,192,65659,1,4,3:0:0:0:
448,192,65870,1,0,1:0:0:0:
320,192,65870,1,0,0:0:0:0:
192,192,66081,1,4,3:0:0:0:
448,192,66292,1,0,1:0:0:0:
64,192,66292,128,0,66715:0:0:0:0:
320,192,66715,1,0,1:0:0:0:
448,192,66715,1,0,0:0:0:0:
64,192,66926,1,4,3:0:0:0:
320,192,67138,1,0,1:0:0:0:
192,192,67138,1,0,0:0:0:0:
448,192,67349,1,4,3:0:0:0:
192,192,67560,1,0,0:0:0:0:
64,192,67560,1,0,1:0:0:0:
448,192,67771,1,4,3:0:0:0:
320,192,67983,1,0,0:0:0:0:
64,192,67983,1,0,1:0:0:0:
192,192,68194,1,4,3:0:0:0:
448,192,68405,128,0,68828:0:0:0:0:
64,192,68405,1,0,1:0:0:0:
320,192,68828,128,0,69250:0:0:0:0:
192,192,68828,1,4,3:0:0:0:
64,192,69250,128,0,69673:1:0:0:0:
448,192,69250,1,0,0:0:0:0:
192,192,69673,128,0,70095:0:0:0:0:
320,192,69673,1,0,1:0:0:0:
320,192,70095,128,0,71363:0:0:0:0:
448,192,70095,1,4,3:0:0:0:
64,192,70518,1,0,0:0:0:0:
448,192,70940,1,0,0:0:0:0:
64,192,71363,128,0,71785:0:0:0:0:
448,192,71785,1,4,1:0:0:0:
320,192,71785,1,4,3:0:0:0:
64,192,71997,1,0,0:0:0:0:
448,192,71997,1,0,1:0:0:0:
320,192,72419,1,0,1:0:0:0:
192,192,72419,1,0,0:0:0:0:
64,192,72630,1,4,3:0:0:0:
320,192,72842,1,0,0:0:0:0:
448,192,72842,1,0,1:0:0:0:
192,192,73053,1,4,3:0:0:0:
320,192,73264,1,0,0:0:0:0:
448,192,73264,1,0,1:0:0:0:
64,192,73476,1,4,3:0:0:0:
448,192,73476,1,4,1:0:0:0:
192,192,73687,1,0,1:0:0:0:
320,192,73687,1,0,0:0:0:0:
64,192,74109,1,0,1:0:0:0:
192,192,74109,1,0,0:0:0:0:
320,192,74321,1,4,3:0:0:0:
192,192,74532,1,0,0:0:0:0:
64,192,74532,1,0,1:0:0:0:
448,192,74743,1,4,3:0:0:0:
192,192,74954,1,0,0:0:0:0:
64,192,74954,1,0,1:0:0:0:
320,192,75166,1,4,3:0:0:0:
192,192,75166,1,4,1:0:0:0:
64,192,75377,1,0,1:0:0:0:
448,192,75377,1,0,0:0:0:0:
448,192,75800,1,0,0:0:0:0:
64,192,75800,1,0,1:0:0:0:
320,192,76011,1,4,3:0:0:0:
64,192,76222,1,0,1:0:0:0:
192,192,76222,1,0,0:0:0:0:
320,192,76433,1,4,3:0:0:0:
448,192,76645,1,0,1:0:0:0:
192,192,76645,1,0,0:0:0:0:
64,192,76856,1,4,3:0:0:0:
192,192,76856,1,4,1:0:0:0:
320,192,77067,1,0,0:0:0:0:
448,192,77067,1,0,1:0:0:0:
192,192,77278,1,4,3:0:0:0:
320,192,77490,1,0,0:0:0:0:
64,192,77490,1,0,1:0:0:0:
192,192,77701,1,4,3:0:0:0:
448,192,77912,1,0,1:0:0:0:
320,192,77912,1,0,0:0:0:0:
64,192,78123,1,4,3:0:0:0:
320,192,78335,1,0,0:0:0:0:
448,192,78335,1,0,1:0:0:0:
64,192,78546,1,4,1:0:0:0:
448,192,78546,1,4,3:0:0:0:
192,192,78757,1,0,1:0:0:0:
320,192,78757,1,0,0:0:0:0:
64,192,79180,1,0,1:0:0:0:
192,192,79180,1,0,0:0:0:0:
320,192,79391,1,4,3:0:0:0:
64,192,79602,1,0,1:0:0:0:
448,192,79602,1,0,0:0:0:0:
320,192,79814,1,4,3:0:0:0:
192,192,80025,1,0,0:0:0:0:
64,192,80025,1,0,1:0:0:0:
448,192,80236,1,4,1:0:0:0:
64,192,80236,1,4,3:0:0:0:
320,192,80447,1,0,1:0:0:0:
192,192,80447,1,0,0:0:0:0:
320,192,80870,1,0,1:0:0:0:
448,192,80870,1,0,0:0:0:0:
64,192,81081,1,4,3:0:0:0:
192,192,81292,1,0,0:0:0:0:
320,192,81292,1,0,1:0:0:0:
448,192,81504,1,4,3:0:0:0:
64,192,81715,1,0,0:0:0:0:
192,192,81715,1,0,1:0:0:0:
320,192,81926,1,4,3:0:0:0:
448,192,81926,1,4,1:0:0:0:
192,192,82138,1,0,0:0:0:0:
448,192,82138,1,0,1:0:0:0:
64,192,82560,1,0,0:0:0:0:
448,192,82560,1,0,1:0:0:0:
192,192,82771,1,4,3:0:0:0:
320,192,82983,1,0,0:0:0:0:
64,192,82983,1,0,1:0:0:0:
192,192,83194,1,4,3:0:0:0:
448,192,83405,1,0,1:0:0:0:
320,192,83405,1,0,0:0:0:0:
64,192,83616,1,4,3:0:0:0:
192,192,83828,1,0,0:0:0:0:
320,192,83828,1,0,1:0:0:0:
448,192,84039,1,4,3:0:0:0:
192,192,84250,1,0,1:0:0:0:
64,192,84250,1,0,0:0:0:0:
320,192,84461,1,0,1:0:0:0:
448,192,84461,1,0,0:0:0:0:
192,192,84778,1,0,1:0:0:0:
320,192,84778,1,0,0:0:0:0:
192,192,85095,1,0,0:0:0:0:
64,192,85095,1,0,1:0:0:0:
448,192,85307,1,4,3:0:0:0:
64,192,85307,1,0,0:0:0:0:
320,192,85518,1,0,0:0:0:0:
192,192,85518,1,0,1:0:0:0:
448,192,85729,1,4,3:0:0:0:
192,192,85940,1,0,1:0:0:0:
64,192,85940,1,0,0:0:0:0:
320,192,86152,1,4,3:0:0:0:
192,192,86363,1,0,1:0:0:0:
64,192,86363,1,0,0:0:0:0:
448,192,86574,1,4,3:0:0:0:
320,192,86785,1,0,0:0:0:0:
192,192,86785,1,0,1:0:0:0:
64,192,86997,1,4,3:0:0:0:
192,192,87208,1,0,1:0:0:0:
320,192,87208,1,0,0:0:0:0:
64,192,87419,1,4,3:0:0:0:
320,192,87630,1,0,1:0:0:0:
448,192,87630,1,0,0:0:0:0:
192,192,87842,1,4,3:0:0:0:
320,192,88053,1,0,1:0:0:0:
448,192,88053,1,0,0:0:0:0:
64,192,88264,1,4,3:0:0:0:
320,192,88476,1,0,1:0:0:0:
192,192,88476,1,0,0:0:0:0:
448,192,88687,1,4,3:0:0:0:
64,192,88898,1,0,0:0:0:0:
192,192,88898,1,0,1:0:0:0:
320,192,89109,1,4,3:0:0:0:
448,192,89321,1,0,0:0:0:0:
192,192,89321,1,0,1:0:0:0:
320,192,89532,1,4,3:0:0:0:
192,192,89743,1,0,1:0:0:0:
64,192,89743,1,0,0:0:0:0:
320,192,89954,1,4,3:0:0:0:
192,192,90166,1,0,1:0:0:0:
448,192,90166,1,0,0:0:0:0:
64,192,90377,1,4,3:0:0:0:
320,192,90588,1,0,1:0:0:0:
448,192,90588,1,0,0:0:0:0:
192,192,90800,1,4,3:0:0:0:
64,192,91011,1,0,0:0:0:0:
320,192,91011,1,0,1:0:0:0:
192,192,91222,1,4,3:0:0:0:
320,192,91433,1,0,1:0:0:0:
448,192,91433,1,0,0:0:0:0:
192,192,91645,1,4,3:0:0:0:
64,192,91856,1,0,0:0:0:0:
320,192,91856,1,0,1:0:0:0:
192,192,92067,1,4,3:0:0:0:
448,192,92278,1,0,0:0:0:0:
320,192,92278,1,0,1:0:0:0:
64,192,92490,1,4,3:0:0:0:
192,192,92701,1,0,1:0:0:0:
320,192,92701,1,0,0:0:0:0:
448,192,92912,1,4,3:0:0:0:
192,192,93123,1,0,1:0:0:0:
64,192,93123,1,0,0:0:0:0:
448,192,93335,1,4,3:0:0:0:
320,192,93546,1,0,0:0:0:0:
192,192,93546,1,0,1:0:0:0:
64,192,93757,1,4,3:0:0:0:
448,192,93969,1,0,0:0:0:0:
320,192,93969,1,0,1:0:0:0:
192,192,94180,1,4,3:0:0:0:
64,192,94391,1,0,0:0:0:0:
320,192,94391,1,0,1:0:0:0:
192,192,94602,1,4,3:0:0:0:
448,192,94814,1,0,0:0:0:0:
320,192,94814,1,0,1:0:0:0:
64,192,95025,1,4,3:0:0:0:
192,192,95236,1,0,1:0:0:0:
448,192,95236,1,0,0:0:0:0:
320,192,95447,1,4,3:0:0:0:
192,192,95659,1,0,1:0:0:0:
64,192,95659,1,0,0:0:0:0:
448,192,95870,1,4,3:0:0:0:
320,192,96081,1,0,0:0:0:0:
192,192,96081,1,0,1:0:0:0:
64,192,96292,1,4,3:0:0:0:
448,192,96504,1,0,0:0:0:0:
320,192,96504,1,0,1:0:0:0:
64,192,96715,1,4,3:0:0:0:
192,192,96926,1,0,1:0:0:0:
320,192,96926,1,0,0:0:0:0:
448,192,97138,1,0,1:0:0:0:
64,192,97138,1,0,0:0:0:0:
320,192,97454,1,0,1:0:0:0:
192,192,97454,1,0,0:0:0:0:
448,192,97771,1,0,1:0:0:0:
192,192,97771,1,0,0:0:0:0:
64,192,97983,1,8,3:0:0:0:
320,192,97983,1,0,1:0:0:0:
192,192,98300,1,8,3:0:0:0:
320,192,98300,1,0,1:0:0:0:
64,192,98616,1,0,1:0:0:0:
320,192,98828,5,4,3:0:0:0:
448,192,98828,128,4,100518:2:0:0:0:
192,192,99250,1,0,0:0:0:0:
320,192,99673,1,0,0:0:0:0:
192,192,100095,1,0,0:0:0:0:
64,192,100518,128,4,102208:2:0:0:0:
320,192,100518,1,4,3:0:0:0:
192,192,100940,1,0,0:0:0:0:
448,192,101363,1,4,3:0:0:0:
192,192,101574,1,4,3:0:0:0:
320,192,101785,1,0,1:0:0:0:
192,192,101997,1,4,3:0:0:0:
320,192,102208,1,4,3:0:0:0:
448,192,102208,128,4,103898:2:0:0:0:
192,192,102630,1,0,0:0:0:0:
320,192,103053,1,0,0:0:0:0:
192,192,103476,1,0,0:0:0:0:
192,192,103898,1,0,0:0:0:0:
64,192,103898,1,0,1:0:0:0:
320,192,104215,1,0,0:0:0:0:
448,192,104215,1,0,1:0:0:0:
64,192,104532,1,4,3:0:0:0:
320,192,104743,1,4,3:0:0:0:
192,192,104954,1,4,3:0:0:0:
448,192,105166,1,0,1:0:0:0:
320,192,105377,1,0,1:0:0:0:
64,192,105588,1,0,1:0:0:0:
448,192,105694,1,0,1:0:0:0:
64,192,105800,1,0,1:0:0:0:
320,192,106116,1,0,1:0:0:0:
192,192,106222,1,0,0:0:0:0:
64,192,106222,1,0,1:0:0:0:
448,192,106433,1,0,1:0:0:0:
320,192,106433,1,0,0:0:0:0:
448,192,106856,1,0,1:0:0:0:
64,192,106961,1,0,1:0:0:0:
448,192,107067,1,0,1:0:0:0:
192,192,107384,1,0,1:0:0:0:
320,192,107490,1,0,0:0:0:0:
448,192,107490,1,0,1:0:0:0:
64,192,107701,1,0,1:0:0:0:
192,192,107701,1,0,0:0:0:0:
64,192,108123,1,0,1:0:0:0:
448,192,108229,1,0,1:0:0:0:
64,192,108335,1,0,1:0:0:0:
448,192,108546,1,0,1:0:0:0:
64,192,108652,1,0,1:0:0:0:
448,192,108757,1,0,1:0:0:0:
320,192,108969,1,0,0:0:0:0:
64,192,108969,1,0,1:0:0:0:
448,192,109285,1,0,0:0:0:0:
192,192,109285,1,0,1:0:0:0:
64,192,109602,1,0,1:0:0:0:
320,192,109602,1,0,0:0:0:0:
192,192,109919,1,0,1:0:0:0:
320,192,109919,128,0,110659:0:0:0:0:
448,192,110236,1,0,0:0:0:0:
64,192,110236,1,0,1:0:0:0:
448,192,110659,128,0,110976:3:0:0:0:
192,192,110659,1,0,1:0:0:0:
64,192,110976,128,0,111292:0:0:0:0:
192,192,111292,128,0,111609:0:0:0:0:
320,192,111609,128,0,111926:0:0:0:0:
64,192,111926,128,0,112243:0:0:0:0:
192,192,111926,1,8,3:0:0:0:
320,192,112243,128,0,112560:0:0:0:0:
448,192,112243,1,4,3:0:0:0:
64,192,112560,1,0,1:0:0:0:
192,192,112560,128,0,113194:0:0:0:0:
64,192,113194,1,0,0:0:0:0:
448,192,113194,1,4,3:0:0:0:
448,192,113509,1,4,3:0:0:0:
192,192,113825,1,4,3:0:0:0:
320,192,113983,1,4,3:0:0:0:
64,192,114141,1,4,3:0:0:0:
448,192,114299,1,4,3:0:0:0:
192,192,114457,1,0,0:0:0:0:
64,192,114457,1,0,1:0:0:0:
320,192,114615,1,4,3:0:0:0:
64,192,114772,1,4,3:0:0:0:
448,192,114930,1,4,3:0:0:0:
192,192,115088,1,4,3:0:0:0:
320,192,115246,1,4,3:0:0:0:
64,192,115404,1,4,3:0:0:0:
448,192,115562,1,4,3:0:0:0:
192,192,115720,1,0,0:0:0:0:
320,192,115720,1,4,3:0:0:0:
64,192,116036,1,4,3:0:0:0:
320,192,116351,1,4,3:0:0:0:
192,192,116509,1,4,3:0:0:0:
448,192,116667,1,4,3:0:0:0:
64,192,116825,1,4,3:0:0:0:
320,192,116983,1,0,0:0:0:0:
448,192,116983,1,0,1:0:0:0:
192,192,117141,1,4,3:0:0:0:
448,192,117299,1,4,3:0:0:0:
64,192,117457,1,4,3:0:0:0:
320,192,117615,1,4,3:0:0:0:
192,192,117772,1,4,3:0:0:0:
448,192,117930,1,4,3:0:0:0:
64,192,118088,1,4,3:0:0:0:
320,192,118246,1,4,3:0:0:0:
192,192,118246,1,0,0:0:0:0:
320,192,118562,1,4,3:0:0:0:
192,192,118878,1,4,3:0:0:0:
64,192,118878,1,0,0:0:0:0:
448,192,119036,1,4,3:0:0:0:
320,192,119194,1,4,3:0:0:0:
64,192,119351,1,4,3:0:0:0:
320,192,119509,1,0,1:0:0:0:
192,192,119509,1,0,0:0:0:0:
448,192,119667,1,4,3:0:0:0:
64,192,119825,1,4,3:0:0:0:
192,192,119983,1,4,3:0:0:0:
448,192,120141,1,0,0:0:0:0:
320,192,120141,1,4,3:0:0:0:
64,192,120299,1,4,3:0:0:0:
320,192,120457,1,4,3:0:0:0:
192,192,120615,1,4,3:0:0:0:
448,192,120772,1,4,3:0:0:0:
64,192,120772,1,0,0:0:0:0:
320,192,121088,1,4,3:0:0:0:
64,192,121404,1,0,0:0:0:0:
192,192,121404,1,4,3:0:0:0:
320,192,121562,1,4,3:0:0:0:
192,192,121720,1,4,3:0:0:0:
320,192,121878,1,4,3:0:0:0:
448,192,122036,1,0,1:0:0:0:
64,192,122036,1,0,0:0:0:0:
320,192,122194,1,4,3:0:0:0:
64,192,122351,1,4,3:0:0:0:
448,192,122509,1,4,3:0:0:0:
192,192,122667,128,0,123299:0:0:0:0:
64,192,122667,1,0,1:0:0:0:
448,192,123299,1,4,3:0:0:0:
320,192,123299,1,0,0:0:0:0:
64,192,123615,1,4,3:0:0:0:
448,192,123930,1,4,3:0:0:0:
192,192,124088,1,4,3:0:0:0:
320,192,124246,1,4,3:0:0:0:
64,192,124404,1,4,3:0:0:0:
320,192,124562,1,0,0:0:0:0:
448,192,124562,1,0,1:0:0:0:
192,192,124720,1,4,3:0:0:0:
448,192,124878,1,4,3:0:0:0:
320,192,125036,1,4,3:0:0:0:
64,192,125194,1,4,3:0:0:0:
448,192,125351,1,4,3:0:0:0:
192,192,125509,1,4,3:0:0:0:
320,192,125667,1,4,3:0:0:0:
64,192,125825,1,4,3:0:0:0:
448,192,125825,1,0,0:0:0:0:
192,192,126141,1,4,3:0:0:0:
320,192,126457,1,4,3:0:0:0:
64,192,126615,1,4,3:0:0:0:
448,192,126772,1,4,3:0:0:0:
192,192,126930,1,4,3:0:0:0:
320,192,127088,1,0,0:0:0:0:
448,192,127088,1,0,1:0:0:0:
192,192,127246,1,4,3:0:0:0:
448,192,127404,1,4,3:0:0:0:
64,192,127562,1,4,3:0:0:0:
448,192,127720,128,0,128351:0:0:0:0:
320,192,127720,1,4,3:0:0:0:
192,192,128036,1,4,3:0:0:0:
192,192,128351,1,4,3:0:0:0:
64,192,128351,1,0,0:0:0:0:
320,192,128667,1,4,3:0:0:0:
448,192,128983,1,4,3:0:0:0:
64,192,129141,1,4,3:0:0:0:
320,192,129299,1,4,3:0:0:0:
192,192,129457,1,4,3:0:0:0:
448,192,129615,1,0,0:0:0:0:
64,192,129615,1,0,1:0:0:0:
192,192,129772,1,4,3:0:0:0:
320,192,129930,1,4,3:0:0:0:
64,192,130088,1,4,3:0:0:0:
192,192,130246,1,4,3:0:0:0:
320,192,130404,1,4,3:0:0:0:
448,192,130562,1,4,3:0:0:0:
64,192,130720,1,4,3:0:0:0:
320,192,130878,1,4,3:0:0:0:
448,192,130878,1,0,0:0:0:0:
192,192,131194,1,4,3:0:0:0:
320,192,131509,1,4,3:0:0:0:
192,192,131667,1,4,3:0:0:0:
448,192,131825,1,4,3:0:0:0:
64,192,131983,1,4,3:0:0:0:
448,192,132141,1,0,1:0:0:0:
320,192,132141,1,0,0:0:0:0:
64,192,132299,1,4,3:0:0:0:
320,192,132457,1,4,3:0:0:0:
192,192,132615,1,4,3:0:0:0:
448,192,132772,1,0,0:0:0:0:
64,192,132772,1,0,1:0:0:0:
320,192,132930,1,4,3:0:0:0:
64,192,133088,1,0,1:0:0:0:
448,192,133246,1,0,1:0:0:0:
192,192,133404,1,4,3:0:0:0:
64,192,133404,128,0,134036:0:0:0:0:
192,192,134036,1,4,3:0:0:0:
320,192,134036,128,0,134667:0:0:0:0:
448,192,134667,128,0,135299:0:0:0:0:
64,192,134667,1,0,1:0:0:0:
320,192,135299,1,4,3:0:0:0:
192,192,135299,128,0,135930:0:0:0:0:
64,192,135930,128,0,136562:0:0:0:0:
448,192,135930,1,0,1:0:0:0:
320,192,136246,1,4,3:0:0:0:
448,192,136562,1,0,1:0:0:0:
192,192,136562,1,0,0:0:0:0:
320,192,136878,1,4,3:0:0:0:
64,192,136878,1,4,2:0:0:0:
192,192,137194,1,4,3:0:0:0:
320,192,137194,128,0,140141:0:0:0:0:
64,192,140141,1,0,1:0:0:0:
192,192,140141,1,0,0:0:0:0:
448,192,140553,128,4,140764:3:0:0:0:
192,192,140764,1,0,0:0:0:0:
64,192,140975,128,4,141186:3:0:0:0:
320,192,141186,1,0,0:0:0:0:
448,192,141398,128,4,141609:3:0:0:0:
192,192,141609,1,0,0:0:0:0:
64,192,141820,128,4,142031:3:0:0:0:
320,192,142031,1,0,0:0:0:0:
192,192,142243,128,4,142454:3:0:0:0:
448,192,142454,1,0,0:0:0:0:
320,192,142665,128,4,142876:3:0:0:0:
64,192,142876,1,0,0:0:0:0:
192,192,143088,128,4,143299:3:0:0:0:
448,192,143299,1,0,0:0:0:0:
320,192,143510,128,4,143722:3:0:0:0:
64,192,143722,1,0,0:0:0:0:
192,192,143933,128,4,144144:3:0:0:0:
448,192,144144,1,0,0:0:0:0:
320,192,144355,128,4,144567:3:0:0:0:
192,192,144567,1,0,0:0:0:0:
64,192,144778,128,4,144989:3:0:0:0:
320,192,144989,1,0,0:0:0:0:
448,192,145200,128,4,145412:3:0:0:0:
320,192,145412,1,0,0:0:0:0:
64,192,145623,128,4,145834:3:0:0:0:
320,192,145834,1,0,0:0:0:0:
192,192,146045,128,4,146257:3:0:0:0:
448,192,146257,1,0,0:0:0:0:
320,192,146468,128,4,146679:3:0:0:0:
64,192,146679,1,0,0:0:0:0:
448,192,146891,128,0,147102:1:0:0:0:
192,192,147102,1,0,0:0:0:0:
64,192,147313,128,4,147524:3:0:0:0:
448,192,147313,1,0,0:0:0:0:
192,192,147524,1,0,0:0:0:0:
320,192,147736,128,0,147947:1:0:0:0:
192,192,147947,1,0,0:0:0:0:
448,192,148158,128,4,148369:3:0:0:0:
192,192,148369,1,0,0:0:0:0:
64,192,148581,128,0,148792:1:0:0:0:
320,192,148792,1,0,0:0:0:0:
192,192,149003,128,4,149214:3:0:0:0:
448,192,149214,1,0,0:0:0:0:
320,192,149426,128,0,149637:1:0:0:0:
448,192,149637,1,0,0:0:0:0:
192,192,149848,128,4,150060:3:0:0:0:
64,192,150060,1,0,0:0:0:0:
320,192,150271,128,0,150482:1:0:0:0:
448,192,150482,1,0,0:0:0:0:
64,192,150693,128,4,150905:3:0:0:0:
320,192,150905,1,0,0:0:0:0:
448,192,151116,128,0,151327:1:0:0:0:
192,192,151327,1,0,0:0:0:0:
64,192,151538,128,0,151750:1:0:0:0:
320,192,151750,1,0,0:0:0:0:
448,192,151961,128,0,152172:1:0:0:0:
192,192,152172,1,0,0:0:0:0:
64,192,152383,128,8,152595:3:0:0:0:
192,192,152595,1,0,0:0:0:0:
448,192,152806,128,4,153017:3:0:0:0:
320,192,153017,1,0,0:0:0:0:
64,192,153229,128,4,153440:3:0:0:0:
192,192,153440,1,4,3:0:0:0:
320,192,153651,128,0,153862:1:0:0:0:
192,192,153862,128,0,154074:0:0:0:0:
64,192,154074,1,0,0:0:0:0:
448,192,154074,1,4,1:0:0:0:
320,192,154179,1,0,0:0:0:0:
192,192,154285,1,0,0:0:0:0:
64,192,154391,1,4,3:0:0:0:
320,192,154602,1,4,3:0:0:0:
320,192,154813,1,4,3:0:0:0:
192,192,154919,1,4,3:0:0:0:
64,192,155130,1,4,3:0:0:0:
192,192,155341,1,0,1:0:0:0:
320,192,155447,1,4,3:0:0:0:
192,192,155553,128,0,155764:0:0:0:0:
64,192,155764,1,4,3:0:0:0:
192,192,155869,1,0,0:0:0:0:
320,192,155975,1,0,0:0:0:0:
448,192,156081,1,4,3:0:0:0:
192,192,156292,1,4,3:0:0:0:
192,192,156503,1,4,3:0:0:0:
320,192,156609,1,4,3:0:0:0:
448,192,156820,1,4,3:0:0:0:
320,192,157031,1,0,1:0:0:0:
192,192,157137,1,4,3:0:0:0:
320,192,157243,128,4,157454:3:0:0:0:
448,192,157454,1,4,3:0:0:0:
320,192,157560,1,0,0:0:0:0:
64,192,157665,1,0,0:0:0:0:
192,192,157771,1,4,3:0:0:0:
448,192,157982,1,4,3:0:0:0:
448,192,158193,1,4,3:0:0:0:
64,192,158299,1,4,3:0:0:0:
192,192,158510,1,4,3:0:0:0:
64,192,158722,1,0,1:0:0:0:
448,192,158827,1,4,3:0:0:0:
64,192,158933,128,0,159144:0:0:0:0:
192,192,159144,128,4,159355:3:0:0:0:
64,192,159355,1,0,0:0:0:0:
320,192,159567,128,0,159778:1:0:0:0:
192,192,159778,1,0,0:0:0:0:
448,192,159989,128,0,160200:1:0:0:0:
320,192,160200,1,4,3:0:0:0:
64,192,160412,128,4,160623:3:0:0:0:
192,192,160623,1,0,1:0:0:0:
448,192,160834,1,4,3:0:0:0:
192,192,160940,1,4,3:0:0:0:
320,192,161045,1,4,3:0:0:0:
192,192,161151,1,4,3:0:0:0:
320,192,161362,1,4,3:0:0:0:
320,192,161574,1,4,3:0:0:0:
64,192,161679,1,4,3:0:0:0:
448,192,161891,1,4,3:0:0:0:
192,192,162102,1,0,1:0:0:0:
320,192,162207,1,4,3:0:0:0:
192,192,162313,128,4,162524:3:0:0:0:
64,192,162524,1,4,3:0:0:0:
320,192,162630,1,4,3:0:0:0:
192,192,162736,1,4,3:0:0:0:
320,192,162841,1,4,3:0:0:0:
192,192,163053,1,4,3:0:0:0:
192,192,163264,1,4,3:0:0:0:
448,192,163369,1,4,3:0:0:0:
64,192,163581,1,4,3:0:0:0:
320,192,163792,1,0,1:0:0:0:
192,192,163898,1,4,3:0:0:0:
320,192,164003,128,4,164214:3:0:0:0:
64,192,164214,1,4,3:0:0:0:
448,192,164320,1,4,3:0:0:0:
64,192,164426,1,4,3:0:0:0:
192,192,164531,1,4,3:0:0:0:
448,192,164743,1,4,3:0:0:0:
192,192,164954,1,4,3:0:0:0:
320,192,165060,1,4,3:0:0:0:
64,192,165271,1,4,3:0:0:0:
448,192,165482,1,0,1:0:0:0:
192,192,165588,1,4,3:0:0:0:
448,192,165693,128,0,165905:0:0:0:0:
64,192,165905,128,0,166116:1:0:0:0:
448,192,166116,1,4,3:0:0:0:
192,192,166327,128,4,166538:3:0:0:0:
320,192,166538,1,0,1:0:0:0:
448,192,166750,128,0,166961:1:0:0:0:
64,192,166961,1,4,3:0:0:0:
320,192,167172,128,4,167383:3:0:0:0:
192,192,167383,1,0,1:0:0:0:
320,192,167595,5,0,0:0:0:0:
448,192,167595,1,4,1:0:0:0:
192,192,167912,1,4,3:0:0:0:
320,192,168229,1,4,3:0:0:0:
64,192,168440,1,0,1:0:0:0:
192,192,168440,1,0,0:0:0:0:
448,192,168862,1,0,0:0:0:0:
64,192,169074,1,4,3:0:0:0:
448,192,169285,1,4,3:0:0:0:
320,192,169285,1,0,0:0:0:0:
320,192,169602,1,4,3:0:0:0:
192,192,169919,1,4,3:0:0:0:
448,192,170130,1,0,1:0:0:0:
64,192,170130,1,0,0:0:0:0:
320,192,170341,1,4,3:0:0:0:
64,192,170553,1,0,0:0:0:0:
448,192,170553,1,0,1:0:0:0:
192,192,170764,1,4,3:0:0:0:
320,192,170975,1,0,0:0:0:0:
448,192,170975,1,4,3:0:0:0:
64,192,171292,1,4,3:0:0:0:
192,192,171609,1,4,3:0:0:0:
320,192,171820,1,0,0:0:0:0:
64,192,171820,1,0,1:0:0:0:
448,192,172137,1,0,1:0:0:0:
192,192,172137,1,0,0:0:0:0:
192,192,172454,1,4,3:0:0:0:
64,192,172665,1,0,0:0:0:0:
448,192,172665,1,4,3:0:0:0:
64,192,172982,1,4,3:0:0:0:
192,192,173299,1,4,3:0:0:0:
320,192,173510,1,0,0:0:0:0:
448,192,173510,1,0,1:0:0:0:
192,192,173722,1,4,3:0:0:0:
320,192,173933,1,0,0:0:0:0:
64,192,173933,1,0,1:0:0:0:
192,192,174144,1,4,3:0:0:0:
64,192,174355,1,0,0:0:0:0:
448,192,174355,1,4,3:0:0:0:
320,192,174672,1,4,3:0:0:0:
192,192,174989,1,4,3:0:0:0:
448,192,175200,1,0,1:0:0:0:
320,192,175200,1,0,0:0:0:0:
192,192,175623,1,0,0:0:0:0:
320,192,175834,1,4,3:0:0:0:
192,192,176045,1,0,0:0:0:0:
64,192,176045,1,4,3:0:0:0:
448,192,176362,1,4,3:0:0:0:
192,192,176679,1,4,3:0:0:0:
448,192,176891,1,0,0:0:0:0:
64,192,176891,1,0,1:0:0:0:
320,192,177102,1,4,3:0:0:0:
64,192,177313,1,0,0:0:0:0:
448,192,177313,128,0,177736:1:0:0:0:
64,192,177736,1,0,0:0:0:0:
192,192,177736,1,4,3:0:0:0:
448,192,177947,1,4,3:0:0:0:
320,192,178158,1,0,1:0:0:0:
192,192,178158,1,0,0:0:0:0:
64,192,178369,1,4,3:0:0:0:
320,192,178581,1,4,3:0:0:0:
448,192,178581,1,0,0:0:0:0:
64,192,178792,1,4,3:0:0:0:
192,192,179003,1,0,0:0:0:0:
448,192,179003,1,0,1:0:0:0:
320,192,179214,1,4,3:0:0:0:
448,192,179426,1,0,0:0:0:0:
64,192,179426,1,0,1:0:0:0:
192,192,179637,1,4,3:0:0:0:
64,192,179848,1,0,1:0:0:0:
320,192,179848,1,0,0:0:0:0:
192,192,180060,1,4,3:0:0:0:
64,192,180271,1,0,1:0:0:0:
448,192,180271,1,0,0:0:0:0:
320,192,180482,1,4,3:0:0:0:
448,192,180693,1,0,1:0:0:0:
192,192,180693,1,0,0:0:0:0:
320,192,180905,1,4,3:0:0:0:
64,192,181116,1,4,3:0:0:0:
192,192,181116,128,0,182383:0:0:0:0:
320,192,182383,1,0,0:0:0:0:
448,192,182383,1,0,1:0:0:0:
448,192,182806,1,4,3:0:0:0:
64,192,182806,128,4,184496:1:0:0:0:
448,192,184496,128,4,185341:1:0:0:0:
320,192,184496,1,4,3:0:0:0:
64,192,185341,128,4,186186:1:0:0:0:
192,192,185341,1,4,3:0:0:0:
320,192,186186,128,4,187876:1:0:0:0:
192,192,186186,1,4,3:0:0:0:
448,192,187031,1,0,0:0:0:0:
192,192,187876,128,4,189567:1:0:0:0:
64,192,187876,1,4,3:0:0:0:
448,192,188722,1,0,1:0:0:0:
320,192,188722,1,0,0:0:0:0:
64,192,189144,1,4,3:0:0:0:
448,192,189567,128,4,191257:1:0:0:0:
320,192,189567,1,4,3:0:0:0:
192,192,190412,1,0,0:0:0:0:
64,192,191257,128,4,192947:1:0:0:0:
320,192,191257,1,4,3:0:0:0:
192,192,192102,1,0,1:0:0:0:
448,192,192102,1,0,0:0:0:0:
320,192,192524,1,4,3:0:0:0:
320,192,192947,128,0,194637:0:0:0:0:
448,192,192947,1,0,1:0:0:0:
64,192,193369,1,0,1:0:0:0:
448,192,193792,1,0,1:0:0:0:
64,192,194214,1,0,1:0:0:0:
448,192,195905,1,0,1:0:0:0:
64,192,195905,1,4,1:0:0:0:
64,192,196327,1,0,0:0:0:0:
192,192,196327,1,4,3:0:0:0:
448,192,196538,1,0,0:0:0:0:
64,192,196538,1,0,1:0:0:0:
192,192,196750,1,4,3:0:0:0:
320,192,196961,1,0,0:0:0:0:
64,192,196961,1,0,1:0:0:0:
448,192,197172,1,4,3:0:0:0:
192,192,197383,1,0,1:0:0:0:
64,192,197383,1,0,0:0:0:0:
320,192,197595,1,4,3:0:0:0:
192,192,197806,1,0,1:0:0:0:
64,192,197806,1,0,0:0:0:0:
448,192,198017,1,4,3:0:0:0:
192,192,198229,1,0,1:0:0:0:
320,192,198229,1,0,0:0:0:0:
64,192,198440,1,4,3:0:0:0:
320,192,198651,1,0,1:0:0:0:
448,192,198651,1,0,0:0:0:0:
64,192,198862,1,4,3:0:0:0:
320,192,199074,1,0,1:0:0:0:
192,192,199074,1,0,0:0:0:0:
64,192,199285,1,4,3:0:0:0:
448,192,199496,1,0,0:0:0:0:
320,192,199496,1,0,1:0:0:0:
192,192,199707,1,4,3:0:0:0:
64,192,199919,1,0,0:0:0:0:
448,192,199919,1,0,1:0:0:0:
320,192,200130,1,4,3:0:0:0:
64,192,200341,1,0,0:0:0:0:
448,192,200341,1,0,1:0:0:0:
192,192,200553,1,4,3:0:0:0:
320,192,200764,1,0,0:0:0:0:
448,192,200764,1,0,1:0:0:0:
192,192,200975,1,4,3:0:0:0:
320,192,201186,1,0,0:0:0:0:
64,192,201186,1,0,1:0:0:0:
448,192,201398,1,4,3:0:0:0:
192,192,201609,1,0,0:0:0:0:
64,192,201609,1,0,1:0:0:0:
320,192,201820,1,4,3:0:0:0:
192,192,202031,1,0,1:0:0:0:
448,192,202031,1,0,0:0:0:0:
320,192,202243,1,4,3:0:0:0:
64,192,202454,1,0,0:0:0:0:
192,192,202454,1,0,1:0:0:0:
448,192,202665,1,4,3:0:0:0:
320,192,202876,1,0,0:0:0:0:
192,192,202876,1,0,1:0:0:0:
64,192,203088,1,4,3:0:0:0:
448,192,203299,1,0,1:0:0:0:
320,192,203299,1,0,0:0:0:0:
192,192,203510,1,4,3:0:0:0:
448,192,203722,1,0,1:0:0:0:
320,192,203722,1,0,0:0:0:0:
192,192,203933,1,4,3:0:0:0:
448,192,204144,1,0,1:0:0:0:
64,192,204144,1,0,0:0:0:0:
192,192,204355,1,4,3:0:0:0:
320,192,204567,1,0,0:0:0:0:
448,192,204567,1,0,1:0:0:0:
64,192,204778,1,4,3:0:0:0:
192,192,204989,1,0,1:0:0:0:
320,192,204989,1,0,0:0:0:0:
448,192,205200,1,4,3:0:0:0:
192,192,205412,1,0,1:0:0:0:
64,192,205412,1,0,0:0:0:0:
448,192,205623,1,4,3:0:0:0:
192,192,205834,1,0,1:0:0:0:
320,192,205834,1,0,0:0:0:0:
64,192,206045,1,4,3:0:0:0:
320,192,206257,1,0,0:0:0:0:
448,192,206257,1,0,1:0:0:0:
192,192,206468,1,4,3:0:0:0:
64,192,206679,1,0,0:0:0:0:
320,192,206679,1,0,1:0:0:0:
192,192,206891,1,4,3:0:0:0:
64,192,207102,1,0,0:0:0:0:
448,192,207102,1,0,1:0:0:0:
320,192,207313,1,4,3:0:0:0:
192,192,207524,1,0,0:0:0:0:
448,192,207524,1,0,1:0:0:0:
320,192,207736,1,4,3:0:0:0:
192,192,207947,1,0,0:0:0:0:
64,192,207947,1,0,1:0:0:0:
320,192,208158,1,0,0:0:0:0:
448,192,208158,1,0,1:0:0:0:
192,192,208369,1,4,3:0:0:0:
448,192,208581,1,0,1:0:0:0:
64,192,208581,1,0,0:0:0:0:
192,192,208792,1,4,3:0:0:0:
320,192,209003,1,0,1:0:0:0:
64,192,209109,1,4,3:0:0:0:
448,192,209320,1,0,1:0:0:0:
192,192,209426,1,4,3:0:0:0:
320,192,209637,1,0,1:0:0:0:
448,192,209848,1,4,3:0:0:0:
64,192,209848,1,0,0:0:0:0:
320,192,210060,1,4,3:0:0:0:
192,192,210271,1,4,3:0:0:0:
64,192,210271,1,0,0:0:0:0:
448,192,210482,1,4,3:0:0:0:
320,192,210693,1,0,1:0:0:0:
192,192,210693,1,0,0:0:0:0:
448,192,210905,1,4,3:0:0:0:
320,192,211116,1,4,3:0:0:0:
64,192,211116,1,0,0:0:0:0:
192,192,211327,1,4,3:0:0:0:
320,192,211538,1,0,0:0:0:0:
448,192,211538,1,4,3:0:0:0:
64,192,211750,1,4,3:0:0:0:
320,192,211961,1,4,3:0:0:0:
192,192,211961,1,0,0:0:0:0:
448,192,212172,1,4,3:0:0:0:
192,192,212383,1,0,0:0:0:0:
320,192,212383,1,0,1:0:0:0:
64,192,212595,1,4,3:0:0:0:
192,192,212806,1,0,0:0:0:0:
448,192,212806,1,0,1:0:0:0:
320,192,213017,1,4,3:0:0:0:
192,192,213229,1,0,0:0:0:0:
64,192,213229,1,4,3:0:0:0:
320,192,213440,1,4,3:0:0:0:
448,192,213651,1,0,0:0:0:0:
192,192,213651,1,4,3:0:0:0:
64,192,213862,1,4,3:0:0:0:
320,192,214074,1,0,1:0:0:0:
192,192,214074,1,0,0:0:0:0:
448,192,214285,1,4,3:0:0:0:
320,192,214496,1,4,3:0:0:0:
192,192,214496,1,0,0:0:0:0:
64,192,214707,1,4,3:0:0:0:
320,192,214919,1,4,3:0:0:0:
448,192,214919,1,0,0:0:0:0:
192,192,215130,1,4,3:0:0:0:
64,192,215341,1,0,0:0:0:0:
320,192,215341,1,4,3:0:0:0:
192,192,215553,1,4,3:0:0:0:
448,192,215764,1,0,1:0:0:0:
320,192,215764,1,0,0:0:0:0:
192,192,215975,1,4,3:0:0:0:
448,192,216186,1,0,1:0:0:0:
64,192,216292,1,0,1:0:0:0:
448,192,216398,1,0,1:0:0:0:
64,192,216503,1,0,1:0:0:0:
320,192,216609,1,4,3:0:0:0:
192,192,216609,1,0,0:0:0:0:
448,192,216820,1,4,3:0:0:0:
320,192,217031,1,4,3:0:0:0:
192,192,217031,1,0,0:0:0:0:
64,192,217243,1,4,3:0:0:0:
320,192,217454,1,0,0:0:0:0:
448,192,217454,1,0,1:0:0:0:
64,192,217665,1,4,3:0:0:0:
320,192,217876,1,0,0:0:0:0:
192,192,217876,1,4,3:0:0:0:
448,192,218088,1,4,3:0:0:0:
64,192,218299,1,0,0:0:0:0:
192,192,218299,1,4,3:0:0:0:
320,192,218510,1,4,3:0:0:0:
448,192,218722,1,4,3:0:0:0:
192,192,218722,1,0,0:0:0:0:
320,192,218933,1,4,3:0:0:0:
64,192,219144,1,0,1:0:0:0:
192,192,219144,1,0,0:0:0:0:
448,192,219355,1,4,3:0:0:0:
320,192,219567,1,0,0:0:0:0:
192,192,219567,1,0,1:0:0:0:
64,192,219778,1,0,1:0:0:0:
448,192,219883,1,0,1:0:0:0:
64,192,219989,1,0,1:0:0:0:
320,192,220200,1,4,3:0:0:0:
192,192,220412,1,0,0:0:0:0:
64,192,220412,1,0,1:0:0:0:
448,192,220623,1,4,3:0:0:0:
320,192,220834,1,0,1:0:0:0:
192,192,220834,1,0,0:0:0:0:
64,192,221045,1,4,3:0:0:0:
320,192,221257,1,0,0:0:0:0:
448,192,221257,1,0,1:0:0:0:
192,192,221468,1,4,3:0:0:0:
448,192,221679,1,0,1:0:0:0:
64,192,221679,1,0,0:0:0:0:
448,192,221996,1,0,1:0:0:0:
192,192,221996,1,0,0:0:0:0:
64,192,222313,1,0,0:0:0:0:
320,192,222313,1,0,1:0:0:0:
448,192,222524,1,0,0:0:0:0:
320,192,222524,1,4,3:0:0:0:
64,192,222841,1,0,0:0:0:0:
192,192,222841,1,4,3:0:0:0:
192,192,223158,1,0,0:0:0:0:
320,192,223158,1,0,1:0:0:0:
64,192,223369,1,4,3:0:0:0:
448,192,223369,1,4,1:0:0:0:
320,192,223475,1,0,0:0:0:0:
192,192,223581,1,0,0:0:0:0:
64,192,223686,1,4,3:0:0:0:
320,192,223898,1,4,3:0:0:0:
192,192,224109,1,4,3:0:0:0:
448,192,224214,1,4,3:0:0:0:
64,192,224426,1,4,3:0:0:0:
192,192,224637,1,0,0:0:0:0:
320,192,224743,1,4,3:0:0:0:
448,192,224848,128,0,225060:0:0:0:0:
64,192,225060,1,4,3:0:0:0:
192,192,225165,1,0,0:0:0:0:
320,192,225271,1,0,0:0:0:0:
448,192,225376,1,4,3:0:0:0:
192,192,225588,1,4,3:0:0:0:
320,192,225799,1,4,3:0:0:0:
64,192,225905,1,4,3:0:0:0:
448,192,226116,1,4,3:0:0:0:
320,192,226327,1,0,1:0:0:0:
192,192,226433,1,4,3:0:0:0:
64,192,226538,128,4,226750:3:0:0:0:
192,192,226750,1,4,3:0:0:0:
320,192,226855,1,0,0:0:0:0:
192,192,226961,1,0,0:0:0:0:
448,192,227067,1,4,3:0:0:0:
320,192,227278,1,4,3:0:0:0:
192,192,227489,1,4,3:0:0:0:
448,192,227595,1,4,3:0:0:0:
64,192,227806,1,4,3:0:0:0:
192,192,228017,1,0,1:0:0:0:
320,192,228123,1,4,3:0:0:0:
448,192,228229,128,0,228440:0:0:0:0:
320,192,228440,1,4,3:0:0:0:
192,192,228545,1,0,0:0:0:0:
320,192,228651,1,0,0:0:0:0:
64,192,228757,1,4,3:0:0:0:
192,192,228968,1,4,3:0:0:0:
320,192,229179,1,4,3:0:0:0:
64,192,229285,1,0,1:0:0:0:
448,192,229496,1,4,3:0:0:0:
320,192,229707,1,4,3:0:0:0:
192,192,229813,1,4,3:0:0:0:
64,192,229919,128,0,230130:1:0:0:0:
448,192,230130,1,4,3:0:0:0:
320,192,230236,1,4,3:0:0:0:
192,192,230341,1,4,3:0:0:0:
320,192,230447,1,4,3:0:0:0:
64,192,230658,1,4,3:0:0:0:
320,192,230869,1,4,3:0:0:0:
192,192,230975,1,4,3:0:0:0:
448,192,231186,1,4,3:0:0:0:
192,192,231398,1,0,1:0:0:0:
320,192,231503,1,4,3:0:0:0:
192,192,231609,128,0,231820:0:0:0:0:
64,192,231820,1,4,3:0:0:0:
192,192,231926,1,4,3:0:0:0:
320,192,232031,1,4,3:0:0:0:
192,192,232137,1,4,3:0:0:0:
448,192,232348,1,4,3:0:0:0:
192,192,232560,1,4,3:0:0:0:
320,192,232665,1,4,3:0:0:0:
64,192,232876,1,4,3:0:0:0:
320,192,233088,1,0,1:0:0:0:
192,192,233193,1,4,3:0:0:0:
320,192,233299,128,4,233510:3:0:0:0:
448,192,233510,1,4,3:0:0:0:
320,192,233616,1,4,3:0:0:0:
192,192,233722,1,4,3:0:0:0:
320,192,233827,1,4,3:0:0:0:
448,192,234038,1,4,3:0:0:0:
192,192,234250,1,4,3:0:0:0:
320,192,234355,1,0,1:0:0:0:
64,192,234567,1,4,3:0:0:0:
192,192,234778,1,0,1:0:0:0:
320,192,234883,1,4,3:0:0:0:
192,192,234989,128,0,235200:0:0:0:0:
64,192,235200,1,0,1:0:0:0:
320,192,235306,1,4,3:0:0:0:
192,192,235412,1,4,3:0:0:0:
448,192,235517,1,0,1:0:0:0:
64,192,235729,1,4,3:0:0:0:
448,192,235834,1,0,1:0:0:0:
192,192,235940,1,4,3:0:0:0:
320,192,236045,1,0,1:0:0:0:
64,192,236151,1,0,1:0:0:0:
320,192,236257,1,4,3:0:0:0:
192,192,236468,1,4,3:0:0:0:
320,192,236574,1,4,3:0:0:0:
192,192,236679,128,0,236891:1:0:0:0:
64,192,236891,1,4,3:0:0:0:
448,192,236891,128,4,237736:1:0:0:0:
192,192,237313,1,0,0:0:0:0:
64,192,237736,128,4,238581:1:0:0:0:
320,192,237736,1,4,3:0:0:0:
192,192,238158,1,0,0:0:0:0:
448,192,238581,128,4,240271:1:0:0:0:
320,192,238581,1,4,3:0:0:0:
192,192,239003,1,4,3:0:0:0:
320,192,239426,1,0,1:0:0:0:
64,192,239426,1,0,0:0:0:0:
192,192,239637,1,4,3:0:0:0:
320,192,239848,1,0,1:0:0:0:
64,192,239848,1,0,0:0:0:0:
192,192,240271,1,0,0:0:0:0:
64,192,240271,1,4,3:0:0:0:
320,192,240588,1,0,1:0:0:0:
192,192,240799,1,0,1:0:0:0:
320,192,241116,1,0,0:0:0:0:
448,192,241116,1,4,3:0:0:0:
192,192,241433,1,0,1:0:0:0:
320,192,241644,1,0,1:0:0:0:
192,192,241961,1,4,3:0:0:0:
448,192,241961,1,0,0:0:0:0:
320,192,242278,1,4,3:0:0:0:
192,192,242489,1,4,3:0:0:0:
448,192,242806,1,0,1:0:0:0:
64,192,242806,1,0,0:0:0:0:
192,192,243017,1,4,3:0:0:0:
448,192,243229,1,0,1:0:0:0:
320,192,243334,1,0,1:0:0:0:
192,192,243440,1,0,1:0:0:0:
64,192,243545,1,0,0:0:0:0:
448,192,243545,1,0,1:0:0:0:
