osu file format v14

[General]
AudioFilename: BABYMETAL - - MEGITSUNE (Full ver.).mp3
AudioLeadIn: 2000
PreviewTime: 71511
Countdown: 0
SampleSet: Normal
StackLeniency: 0.9
Mode: 0
LetterboxInBreaks: 0
WidescreenStoryboard: 0

[Editor]
Bookmarks: 42991,110702,112392,113660,115832,118359,140173,196476,203237,245490
DistanceSpacing: 1.1
BeatDivisor: 4
GridSize: 4
TimelineZoom: 1.2

[Metadata]
Title:MEGITSUNE
TitleUnicode:メギツネ
Artist:BABYMETAL
ArtistUnicode:BABYMETAL
Creator:Onisakura
Version:Moshiri's Normal
Source:
Tags:jpop moshiri BluOxy JUDYDANNY AlpacaCokelat
BeatmapID:287576
BeatmapSetID:110357

[Difficulty]
HPDrainRate:5
CircleSize:3
OverallDifficulty:5
ApproachRate:5
SliderMultiplier:1.40000000596046
SliderTickRate:1

[Events]
//Background and Video events
0,0,"BG.jpg",0,0
Video,0,"BABYMETAL-MEGITSUNE.avi"
//Break Periods
2,105936,109606
2,147667,151337
2,189920,192323
//Storyboard Layer 0 (Background)
//Storyboard Layer 1 (Fail)
//Storyboard Layer 2 (Pass)
//Storyboard Layer 3 (Foreground)
//Storyboard Sound Samples

[TimingPoints]
948,422.535211267606,4,1,1,100,1,0
71933,-100,4,1,1,100,0,1
99398,-100,4,1,1,100,0,0
105736,422.535211267606,3,1,1,100,1,0
110806,631.578947368421,4,1,1,100,1,0
110963,-66.6666666666667,4,1,1,100,0,0
113940,-76.9230769230769,4,1,1,100,0,0
138595,422.535211267606,5,1,1,100,1,0
140707,422.535211267606,4,1,1,100,1,0
182960,845.070422535211,4,1,1,100,1,0
183171,-50,4,1,1,100,0,0
194790,422.535211267606,4,1,1,100,1,0
196480,-100,4,1,1,100,0,1
223822,-100,4,1,1,100,0,1
233663,-100,4,1,1,100,0,0

[Colours]
Combo1 : 2,123,60
Combo2 : 173,92,3
Combo3 : 211,33,47

[HitObjects]
396,240,948,6,0,B|436:248|436:248|464:216|464:216,1,70.000000298023
256,56,1793,1,0,0:0:0:0:
112,116,2215,1,0,0:0:0:0:
156,264,2638,2,0,B|184:288|184:288|228:284|228:284,1,70.000000298023
348,208,3271,2,0,P|388:232|404:264,1,70.000000298023
268,332,3905,1,0,0:0:0:0:
116,308,4328,2,0,B|140:324|140:324|168:320|168:320,2,35.0000001490115
348,308,5173,5,0,0:0:0:0:
420,264,5384,2,0,B|444:264|444:264|460:248|460:248,2,35.0000001490115
320,144,6018,2,0,B|282:138|282:138|244:152|244:152,1,70.000000298023
176,160,6440,1,0,0:0:0:0:
108,300,6863,1,0,0:0:0:0:
180,328,7074,2,0,B|215:341|215:341|247:337|247:337|254:347,1,70.000000298023
432,252,7708,6,0,B|356:236|356:236|304:168|304:168,1,140.000000596046
256,48,8553,2,0,B|184:64|184:64|124:122|124:122,1,140.000000596046
84,256,9398,6,0,B|156:256|156:256|212:208|212:208,1,140.000000596046
340,136,10243,2,0,B|412:156|412:156|448:224,1,140.000000596046
296,264,11088,2,0,B|232:296|232:296|160:272,1,140.000000596046
116,132,11933,1,0,0:0:0:0:
256,64,12356,2,0,B|295:57|295:57|328:72,1,70.000000298023
364,136,12778,2,0,P|296:152|224:140,1,140.000000596046
108,84,13624,1,0,0:0:0:0:
256,48,14046,2,0,B|310:51|352:76,1,70.000000298023
308,136,14469,6,0,L|236:124,1,70.000000298023
164,108,14891,1,0,0:0:0:0:
140,260,15314,2,0,B|132:304|112:340|112:340,2,70.000000298023
88,116,16159,1,0,0:0:0:0:
224,184,16581,2,0,P|245:218|272:232,1,70.0000002980232
240,304,17004,2,0,B|200:280|160:300|160:300,2,70.0000002980232
388,264,17849,6,0,P|417:290|448:305,2,70.0000002980232
352,116,18694,2,0,B|345:71|376:44|376:44,2,70.0000002980232
200,104,19539,6,0,B|180:132|180:132|144:152,1,70.000000298023
132,76,19962,2,0,B|104:96|104:96|60:104,1,70.000000298023
68,180,20384,2,0,B|88:212|88:212|85:224|92:252,1,70.000000298023
164,272,20807,1,0,0:0:0:0:
316,284,21229,6,0,B|384:300|384:300|448:248,1,140.000000596046
340,136,22074,2,0,B|312:108|312:108|312:68,2,70.0000002980232
196,80,22919,6,0,B|128:64|128:64|64:116,1,140.000000596046
176,224,23764,2,0,B|208:244|208:244|212:288,2,70.000000298023
328,216,24609,6,0,P|400:168|400:112,1,140.000000596046
256,72,25455,2,0,B|188:64|180:104|180:104,2,70.0000002980232
152,184,26300,2,0,B|200:244|272:256,1,140.000000596046
320,108,27145,2,0,B|400:96|460:124,1,140.000000596046
400,264,27990,6,0,B|276:340|120:320,1,280.000001192092
112,168,29257,2,0,B|164:112|164:112|240:112,1,140.000000596046
152,248,30102,2,0,B|200:292|200:292|288:292,2,140.000000596046
188,96,31370,6,0,P|256:116|332:88,1,140.000000596046
436,200,32215,2,0,P|364:224|288:232,1,140.000000596046
152,244,33060,1,0,0:0:0:0:
188,96,33483,2,0,B|256:76|256:76|336:104,2,140.000000596046
256,192,34750,12,0,36440,0:0:0:0:
140,100,36863,6,0,P|100:168|100:236,2,140.000000596046
288,60,38131,2,0,P|356:64|408:112,1,140.000000596046
296,220,38976,2,0,P|252:284|188:320,1,140.000000596046
352,300,39821,1,0,0:0:0:0:
404,156,40243,2,0,P|376:92|303:61,1,140.000000596046
168,96,41088,2,0,B|72:292|280:296|280:296,2,280.000001192092
316,60,43201,6,0,P|384:72|416:136,2,140.000000596046
256,200,44469,2,0,L|215:132,1,70.000000298023
200,64,44891,2,0,P|128:76|92:136,2,140.000000596046
256,200,46159,2,0,L|184:264,1,70.000000298023
192,324,46581,2,0,P|260:304|328:328,2,140.000000596046
256,200,47849,2,0,L|300:132,1,70.000000298023
340,80,48271,6,0,P|388:64|416:68,2,70.0000002980232
196,132,49117,2,0,P|156:144|116:128,2,70.0000002980232
336,196,49962,6,0,P|312:260|236:296,1,140.000000596046
120,216,50807,2,0,L|164:148,1,70.000000298023
192,88,51229,6,0,P|256:66|332:102,1,140.000000596046
392,224,52074,2,0,B|424:324|320:336|320:336,1,140.000000596046
188,292,52919,2,0,L|136:236,1,70.000000298023
108,172,53342,2,0,L|152:104,1,70.000000298023
220,96,53764,2,0,L|284:32,1,70.000000298023
320,104,54187,2,0,L|364:36,1,70.000000298023
396,112,54609,2,0,L|440:180,1,70.000000298023
368,212,55032,6,0,L|324:280,1,70.000000298023
268,224,55455,2,0,L|311:156,1,70.000000298023
244,128,55877,2,0,L|180:168,1,70.000000298023
124,212,56300,6,0,B|84:256|68:280|84:300|112:336,2,140.000000596046
208,84,57567,2,0,B|288:100|328:158,1,140.000000596046
440,256,58412,2,0,B|488:186|440:128,2,140.000000596046
284,280,59680,6,0,B|248:300|200:276,1,70.000000298023
144,252,60102,2,0,B|96:208|92:148|92:108,1,140.000000596046
360,128,60948,2,0,B|348:184|272:224,1,105.000000447034
136,104,61581,5,0,0:0:0:0:
136,104,61793,2,0,B|135:62|180:32,1,70.000000298023
240,60,62215,2,0,B|300:104|368:116|368:112,1,140.000000596046
240,226,63060,6,0,B|161:229|88:178|88:178,1,140.000000596046
228,92,63905,2,0,P|296:84|364:48,1,140.000000596046
256,164,64750,1,0,0:0:0:0:
388,244,65173,2,0,P|316:272|236:276,1,140.000000596046
100,220,66018,2,0,P|54:151|49:85,1,140.000000596046
184,168,66863,6,0,B|220:236|296:256,1,140.000000596046
416,164,67708,2,0,B|354:116|282:129,1,140.000000596046
256,192,68553,12,0,70243,0:0:0:0:
180,144,70666,5,0,0:0:0:0:
332,168,71088,2,0,B|304:240|208:240,1,140.000000596046
68,248,71933,6,0,B|72:268|104:312|156:328|184:324,1,140.000000596046
332,316,72778,2,0,B|348:320|403:301|436:256|440:229,1,140.000000596046
392,88,73624,1,0,0:0:0:0:
316,76,73835,2,0,L|260:24,2,70.000000298023
340,148,74469,2,0,B|320:188|276:220|220:248,1,140.000000596046
196,92,75314,6,0,B|116:104|87:179|87:179,1,140.000000596046
72,248,75948,2,0,B|148:272|180:344|180:344,1,140.000000596046
332,332,76793,2,0,P|396:296|436:232,1,140.000000596046
412,168,77426,2,0,B|328:144|292:56|292:56,1,140.000000596046
76,276,78694,6,0,L|140:228,1,70.000000298023
180,176,79117,2,0,L|264:144,1,70.000000298023
320,128,79539,1,0,0:0:0:0:
396,264,79962,1,0,0:0:0:0:
328,296,80173,2,0,B|260:344|180:324|156:240,1,210.000000894069
160,92,81229,2,0,B|232:48|304:100,1,140.000000596046
412,192,82074,38,0,B|348:256|284:260|284:260,1,140.000000596046
256,192,82708,2,0,B|232:120|172:76,1,140.000000596046
120,132,83342,1,0,0:0:0:0:
76,196,83553,2,0,B|100:276|152:320,2,140.000000596046
44,128,84609,2,0,B|112:44|228:40,1,210.000000894069
304,48,85455,2,0,B|392:80|428:148|436:224|396:292,1,280.000001192092
256,316,86722,2,0,L|240:236,1,70.000000298023
180,204,87145,6,0,B|148:220|148:220|132:264,2,70.000000298023
336,204,87990,2,0,B|368:232|368:232|376:268,2,70.000000298023
352,44,88835,2,0,B|412:52|440:84|436:140,1,140.000000596046
412,208,89469,2,0,B|397:260|375:284|314:300,1,140.000000596046
240,300,90102,1,0,0:0:0:0:
172,248,90314,6,0,B|148:208|148:208|153:172,1,70.000000298023
152,108,90736,2,0,B|180:72|236:96,1,70.000000298023
292,104,91159,2,0,B|332:112|356:144,1,70.000000298023
216,216,91793,2,0,L|120:180,1,70.000000298023
88,144,92215,6,0,B|116:48|212:56,1,140.000000596046
340,60,93060,2,0,P|404:84|436:148,1,140.000000596046
408,216,93694,2,0,P|374:268|285:306,1,140.000000596046
236,308,94328,2,0,P|203:272|156:270,1,70.000000298023
140,204,94750,6,0,B|224:232|278:177|278:177,1,140.000000596046
412,116,95595,22,0,B|385:71|344:41|290:59|290:59,1,140.000000596046
216,56,96229,2,0,B|171:49|132:65|117:85|102:126|102:126,1,140.000000596046
136,192,96863,2,0,B|100:256|72:260|72:260,1,70.000000298023
168,268,97286,2,0,B|224:224|232:160|232:160|308:120|308:120,1,210.000000894069
304,200,98131,2,0,B|352:184|392:148|392:148,1,70.000000298023
376,96,98553,2,0,B|424:80|464:44|464:44,1,70.000000298023
476,132,98976,2,0,B|452:332|308:356|152:324,1,420.000001788138
180,172,100666,6,0,B|132:116|132:116|56:89|56:89,1,140.000000596046
40,244,101511,2,0,P|88:308|148:352,1,140.000000596046
280,296,102356,2,0,B|308:272|328:248|332:196|316:156,1,140.000000596046
172,136,103201,2,0,B|232:104|280:104|336:112,1,140.000000596046
360,228,104046,6,0,B|416:244|452:184,2,105.000000447034
284,248,104891,2,0,P|252:263|229:289,1,70.000000298023
168,244,105314,2,0,B|132:164|53:171,1,140.000000596046
256,192,110806,5,0,0:0:0:0:
244,76,111121,2,0,P|304:104|368:96,1,105.000004452467
400,212,111753,6,0,B|440:176|440:176|460:120|460:120,2,105.000004452467
308,284,112700,2,0,P|192:276|112:200,1,210.00000089407
128,104,113648,6,0,B|168:68|168:68|220:68,1,105.000000447034
256,160,114279,2,0,B|300:188|300:188|356:176,1,90.9999962217807
412,112,114911,2,0,B|432:152|432:152|416:208,1,90.9999962217807
272,332,115858,6,0,B|252:292|252:292|204:268,1,90.9999962217807
112,280,116490,2,0,B|80:244|80:244|80:176,1,90.9999962217807
148,128,117121,2,0,B|188:96|188:96|244:116,1,90.9999962217807
320,144,117753,1,0,0:0:0:0:
120,160,118384,6,0,B|63:245|63:245|40:323,2,181.999992443561
320,148,120279,2,0,B|275:129|275:129|220:108,1,90.9999962217807
156,56,120911,6,0,B|108:56|108:56|80:88,2,90.9999962217807
256,40,121858,1,0,0:0:0:0:
356,56,122174,2,0,B|400:56|400:56|440:96,2,90.9999962217807
168,124,123437,6,0,L|92:184,1,90.9999962217807
168,252,124069,2,0,L|248:188,1,90.9999962217807
284,284,124700,2,0,B|363:327|363:327|445:283|445:283,1,181.999992443561
360,104,125963,6,0,L|444:164,1,90.9999962217807
356,216,126595,2,0,L|272:156,1,90.9999962217807
184,148,127227,2,0,B|240:68|240:68|328:48,1,181.999992443561
228,228,128490,6,0,B|140:212|140:212|103:123,2,181.999992443561
420,160,130384,1,0,0:0:0:0:
232,88,131016,2,0,B|268:60|268:60|320:60,2,90.9999962217807
320,140,131963,1,0,0:0:0:0:
380,220,132279,2,0,B|424:236|424:236|476:220,2,90.9999962217807
208,324,133542,6,0,B|112:308|47:234,2,181.999992443561
408,304,135437,2,0,B|402:252|402:252|381:208,1,90.9999962217807
320,140,136069,2,0,B|272:144|272:144|220:116,1,90.9999962217807
136,104,136700,2,0,B|88:96|88:96|46:121,2,90.9999962217807
256,192,137490,12,0,139440,0:0:0:0:
284,244,140073,6,0,L|368:252,1,70.000000298023
404,104,140707,5,0,0:0:0:0:
256,60,141129,1,0,0:0:0:0:
132,152,141552,22,0,B|128:116|128:116|148:88,2,70.000000298023
224,276,142397,1,0,0:0:0:0:
288,140,142819,1,0,0:0:0:0:
432,196,143242,2,0,B|436:236|436:236|416:272,2,70.000000298023
456,44,144087,6,0,P|425:55|396:96,1,70.0000002980232
328,108,144509,2,0,P|319:77|336:24,1,70.000000298023
252,60,144932,2,0,P|238:88|234:141,1,70.0000002980232
284,184,145354,2,0,P|316:180|368:192,1,70.0000002980232
428,208,145777,6,0,B|403:271|403:271|393:276|328:288,1,140.000000596046
180,288,146622,2,0,B|110:268|110:268|84:192,1,140.000000596046
48,56,147467,1,0,0:0:0:0:
440,108,152537,6,0,P|388:84|352:80,1,70.0000002980232
300,68,152960,1,0,0:0:0:0:
332,220,153383,6,0,P|274:213|244:188,1,70.0000002980232
188,192,153805,2,0,L|108:136,1,70.000000298023
64,192,154228,6,0,L|32:276,1,70.000000298023
116,244,154650,2,0,B|116:300|140:360,2,105.000000447034
156,176,155495,6,0,L|184:244,1,70.000000298023
200,316,155918,6,0,L|288:284,1,70.000000298023
336,264,156340,2,0,B|333:313|309:350|288:356,2,105.000000447034
272,220,157185,6,0,L|332:148,1,70.000000298023
376,216,157608,6,0,L|452:184,1,70.000000298023
384,136,158030,2,0,B|436:104|492:96,2,105.000000447034
324,88,158876,2,0,P|297:60|253:32,1,70.000000298023
236,108,159298,6,0,P|200:104|164:88,2,70.000000298023
216,260,160143,2,0,P|248:276|300:276,2,70.000000298023
92,172,160988,6,0,B|136:84|232:120|232:120,2,140.000000596046
244,180,162256,1,0,0:0:0:0:
312,320,162678,6,0,B|420:348|444:250|444:250,2,140.000000596046
384,184,163946,1,0,0:0:0:0:
256,100,164368,54,0,B|184:48|120:108|120:108,1,140.000000596046
172,252,165214,2,0,B|248:300|312:248|312:248,1,140.000000596046
312,104,166059,6,0,B|384:152|460:100,2,140.000000596046
160,132,167326,6,0,L|232:192,1,70.000000298023
216,256,167749,2,0,B|148:280|148:280|100:328|100:328,2,140.000000596046
256,108,169016,6,0,L|284:192,1,70.000000298023
296,248,169439,2,0,B|363:267|363:267|412:320|412:320,2,140.000000596046
256,96,170707,6,0,P|336:64|396:84,1,140.000000596046
320,216,171552,6,0,L|232:184,1,70.000000298023
184,168,171974,2,0,B|124:156|110:97,1,105.000000447034
100,292,172819,2,0,B|156:340|238:324,1,140.000000596046
344,220,173664,6,0,B|200:220|200:220|80:144|80:144,1,280.000001192092
152,288,174932,2,0,P|230:306|307:284,1,140.000000596046
404,192,175777,2,0,L|444:128,1,70.000000298023
372,104,176199,2,0,P|324:64|240:44,1,140.000000596046
148,156,177045,1,0,0:0:0:0:
184,304,177467,1,0,0:0:0:0:
324,232,177890,6,0,B|256:252|256:252|188:236|188:236,1,140.000000596046
188,88,178735,6,0,B|256:44|328:92,2,140.000000596046
120,228,180002,1,0,0:0:0:0:
256,156,180425,1,0,0:0:0:0:
392,228,180847,1,0,0:0:0:0:
256,192,181270,12,0,182538,0:0:0:0:
256,224,182960,5,0,0:0:0:0:
408,192,183382,1,0,0:0:0:0:
304,304,183805,1,0,0:0:0:0:
152,280,184227,1,0,0:0:0:0:
100,136,184650,6,0,B|156:76|232:56,1,140.000000596046
364,60,185495,2,0,B|356:132|288:184,1,140.000000596046
444,216,186340,6,0,B|384:268|352:300|284:320|192:328,1,280.000001192093
116,332,187396,1,0,0:0:0:0:
76,184,187819,5,0,0:0:0:0:
128,124,188030,2,0,B|256:20|388:132,1,280.000001192092
320,264,189298,2,0,P|256:292|192:264,1,140.000000596046
216,112,193523,6,0,P|192:140|152:156,2,70.000000298023
296,112,194157,6,0,P|320:140|360:156,2,70.000000298023
256,192,194790,12,0,196058,0:0:0:0:
320,256,196480,6,0,B|380:312|460:292|460:292,2,140.000000596046
176,312,197747,2,0,B|136:336|136:336|80:328|80:328,1,70.000000298023
60,276,198170,1,0,0:0:0:0:
52,200,198381,2,0,B|84:104|156:76,1,140.000000596046
196,44,199015,2,0,B|260:76|300:168,1,140.000000596046
416,232,199860,6,0,B|388:320|276:336|276:336,2,175.000000745057
428,156,201128,1,0,0:0:0:0:
376,100,201339,2,0,B|320:64|320:64|232:48,1,140.000000596046
172,60,201973,2,0,P|124:92|116:124,1,70.000000298023
184,144,202395,2,0,B|240:192|240:192|316:192,1,140.000000596046
180,268,203240,6,0,B|120:332|52:296|52:296,2,140.000000596046
256,256,204297,2,0,L|216:192,1,70.0000002980232
219,123,204719,2,0,B|162:62|74:62|74:62,2,140.000000596046
295,123,205775,2,0,B|344:63|425:63|425:63,1,140.000000596046
476,216,206620,6,0,B|451:286|376:311,1,140.000000596046
320,260,207254,2,0,B|240:256|188:300,1,140.000000596046
136,328,207888,1,0,0:0:0:0:
92,264,208099,6,0,B|92:228|92:228|120:188|120:188,1,70.000000298023
172,248,208522,2,0,B|200:156|284:192|284:192,1,140.000000596046
320,260,209156,2,0,B|364:264|388:232,1,70.000000298023
388,160,209578,2,0,B|356:80|272:96,1,140.000000596046
256,192,210106,12,0,211690,0:0:0:0:
456,148,212536,6,0,B|446:200|424:224|424:224,1,70.0000002980232
368,172,212959,2,0,B|324:156|292:176|292:176,1,70.0000002980232
272,100,213381,6,0,B|232:136|184:96|184:96,1,70.000000298023
128,112,213804,1,0,0:0:0:0:
164,180,214015,2,0,B|251:180|283:258|283:258,1,140.000000596046
308,320,214649,6,0,B|348:356|396:316|396:316,1,70.000000298023
384,252,215071,2,0,L|456:268,2,70.000000298023
368,172,215705,6,0,B|344:156|324:148|292:152,1,70.0000002980232
160,92,216339,2,0,L|100:80,2,35.0000001490115
116,156,216761,6,0,B|64:220|88:304|88:304,2,140.000000596046
216,40,218029,1,0,0:0:0:0:
260,100,218240,2,0,B|312:160|276:236|276:236,1,140.000000596046
324,292,218874,6,0,B|348:308|368:316|400:312,1,70.0000002980232
444,260,219297,2,0,B|496:180|456:124|456:124,1,140.000000596046
312,84,220142,6,0,B|268:144|268:144|272:216|272:216,1,140.000000596046
292,284,220775,2,0,B|284:288|360:252|360:252|396:188,1,140.000000596046
448,144,221409,2,0,P|472:91|463:60,1,70.000000298023
392,96,221832,2,0,B|316:160|316:160|212:200|212:200,1,210.000000894069
136,208,222677,2,0,P|88:240|64:272,1,70.000000298023
40,316,223099,1,0,0:0:0:0:
116,316,223311,2,0,P|156:332|192:320,1,70.000000298023
252,292,223733,1,0,0:0:0:0:
212,224,223944,6,0,P|172:207|150:178,1,70.000000298023
80,200,224367,2,0,B|48:180|30:132|30:132,2,70.000000298023
192,308,225212,1,0,0:0:0:0:
180,160,225635,2,0,P|208:131|248:116,1,70.0000002980232
264,48,226057,2,0,B|220:72|180:52|180:52,2,70.0000002980232
416,68,226902,5,0,0:0:0:0:
352,208,227325,2,0,P|325:237|280:252,1,70.0000002980232
220,248,227747,2,0,B|218:239|252:296|252:324,2,70.0000002980232
84,320,228592,6,0,B|56:276|60:244|60:244,2,70.0000002980232
236,304,229437,1,0,0:0:0:0:
180,160,229860,2,0,P|208:131|244:108,1,70.0000002980232
280,176,230282,6,0,P|315:156|340:128,1,70.0000002980232
408,160,230705,2,0,P|421:122|424:88,1,70.0000002980232
360,48,231128,2,0,B|306:44|276:64|276:64,2,70.0000002980232
304,192,231973,5,0,0:0:0:0:
456,216,232395,2,0,B|442:264|416:292|416:292,1,70.0000002980232
356,308,232818,2,0,B|296:312|276:292|276:292,1,70.0000002980232
212,320,233240,2,0,P|166:302|144:288,1,70.0000002980232
73,273,233663,5,0,0:0:0:0:
79,119,234085,2,0,P|71:83|83:43,1,70.0000002980232
149,81,234508,2,0,P|198:100|209:133,1,70.0000002980232
180,184,234930,2,0,B|188:236|212:256|212:256,1,70.0000002980232
228,324,235353,2,0,P|262:306|301:320,1,70.000000298023
368,296,235775,2,0,P|365:244|347:216,1,70.000000298023
278,234,236198,2,0,L|262:190|262:190,2,35.0000001490115
203,214,236620,2,0,L|187:170|187:170,2,35.0000001490115
138,256,237043,6,0,P|196:294|264:294,1,140.000000596046
364,176,237888,2,0,P|294:155|222:162,1,140.000000596046
114,57,238733,2,0,B|260:104|392:56,2,280.000001192092
123,210,240846,1,0,0:0:0:0:
260,136,241268,1,0,0:0:0:0:
174,266,241691,1,0,0:0:0:0:
128,120,242113,2,0,B|256:33|393:125,1,280.000001192092
308,252,243381,6,0,B|256:280|200:252|200:252,1,105.000000447034
