osu file format v14

[General]
AudioFilename: BABYMETAL - - MEGITSUNE (Full ver.).mp3
AudioLeadIn: 2000
PreviewTime: 71503
Countdown: 0
SampleSet: Normal
StackLeniency: 0.9
Mode: 1
LetterboxInBreaks: 0
WidescreenStoryboard: 0

[Editor]
Bookmarks: 14461,27982,29672,43193,56714,57982,64742,71893,123142,154209,182941,194772,196462
DistanceSpacing: 1.4
BeatDivisor: 4
GridSize: 32
TimelineZoom: 1.7

[Metadata]
Title:MEGITSUNE
TitleUnicode:メギツネ
Artist:BABYMETAL
ArtistUnicode:BABYMETAL
Creator:Onisakura
Version:JuDa's Oni
Source:
Tags:jpop moshiri BluOxy JUDYDANNY AlpacaCokelat
BeatmapID:355146
BeatmapSetID:110357

[Difficulty]
HPDrainRate:5
CircleSize:4
OverallDifficulty:5
ApproachRate:5
SliderMultiplier:1.6
SliderTickRate:2

[Events]
//Background and Video events
0,0,"BG_Oni.jpg",0,0
Video,0,"BABYMETAL-MEGITSUNE.avi"
//Break Periods
//Storyboard Layer 0 (Background)
//Storyboard Layer 1 (Fail)
//Storyboard Layer 2 (Pass)
//Storyboard Layer 3 (Foreground)
//Storyboard Sound Samples

[TimingPoints]
940,422.535211267606,4,1,0,100,1,0
71925,-100,4,1,0,100,0,1
98968,-100,4,1,0,100,0,0
113321,631.578947368421,4,1,0,100,1,1
139843,422.535211267606,4,1,0,100,1,1
139843,-149.253731343284,4,1,0,100,0,1
140688,422.535211267606,4,1,0,100,1,0
182941,845.070422535211,4,1,0,100,1,0
194772,422.535211267606,4,1,0,100,1,0
196462,-100,4,1,0,100,0,1
223504,-100,4,1,0,100,0,0

[Colours]
Combo1 : 2,123,60
Combo2 : 173,92,3
Combo3 : 211,33,47

[HitObjects]
204,104,940,5,0,0:0:0:0:
204,104,1151,1,0,0:0:0:0:
204,104,1256,1,0,0:0:0:0:
208,64,1468,1,0,0:0:0:0:
204,104,1679,1,0,0:0:0:0:
204,104,1785,1,0,0:0:0:0:
204,104,1996,1,0,0:0:0:0:
204,104,2207,1,2,0:0:0:0:
180,80,2630,1,0,0:0:0:0:
208,64,2841,1,2,0:0:0:0:
208,64,2947,1,2,0:0:0:0:
208,64,3052,1,2,0:0:0:0:
204,104,3263,1,0,0:0:0:0:
204,104,3475,1,2,0:0:0:0:
204,104,3580,1,2,0:0:0:0:
204,104,3686,1,2,0:0:0:0:
180,80,3897,1,0,0:0:0:0:
208,64,4320,1,0,0:0:0:0:
208,64,4531,1,0,0:0:0:0:
208,64,4637,1,0,0:0:0:0:
204,104,4848,1,0,0:0:0:0:
204,104,5059,1,0,0:0:0:0:
204,104,5165,1,0,0:0:0:0:
180,80,5376,1,0,0:0:0:0:
208,64,5587,1,2,0:0:0:0:
208,64,6010,1,0,0:0:0:0:
208,64,6221,1,2,0:0:0:0:
180,80,6327,1,2,0:0:0:0:
180,80,6432,1,2,0:0:0:0:
180,80,6644,1,0,0:0:0:0:
180,80,6855,1,2,0:0:0:0:
180,80,6961,1,2,0:0:0:0:
208,64,7066,1,0,0:0:0:0:
208,64,7172,1,0,0:0:0:0:
208,64,7278,1,2,0:0:0:0:
208,64,7489,1,2,0:0:0:0:
208,64,7700,1,4,0:0:0:0:
180,80,8123,1,2,0:0:0:0:
180,80,8545,1,4,0:0:0:0:
208,64,8968,1,2,0:0:0:0:
208,64,9179,1,2,0:0:0:0:
180,80,9390,1,4,0:0:0:0:
180,80,9813,1,0,0:0:0:0:
208,64,10235,1,6,0:0:0:0:
180,80,10447,1,0,0:0:0:0:
208,64,10658,1,0,0:0:0:0:
180,80,10869,1,0,0:0:0:0:
180,80,10975,1,0,0:0:0:0:
180,80,11080,1,2,0:0:0:0:
208,64,11503,1,0,0:0:0:0:
208,64,11714,1,2,0:0:0:0:
208,64,11925,1,2,0:0:0:0:
208,64,12137,1,2,0:0:0:0:
208,64,12348,1,2,0:0:0:0:
208,64,12559,1,2,0:0:0:0:
208,64,12770,1,0,0:0:0:0:
208,64,12982,1,2,0:0:0:0:
200,28,13087,1,0,0:0:0:0:
208,64,13299,1,2,0:0:0:0:
208,64,13404,1,0,0:0:0:0:
208,64,13616,1,2,0:0:0:0:
208,64,13827,1,0,0:0:0:0:
208,64,13932,1,0,0:0:0:0:
208,64,14038,1,2,0:0:0:0:
208,64,14461,5,4,0:0:0:0:
208,64,14672,1,0,0:0:0:0:
208,64,14778,1,0,0:0:0:0:
208,64,14883,1,2,0:0:0:0:
208,64,14989,1,0,0:0:0:0:
208,64,15200,1,0,0:0:0:0:
208,64,15306,1,0,0:0:0:0:
208,64,15517,1,0,0:0:0:0:
208,64,15728,1,2,0:0:0:0:
208,64,16151,1,0,0:0:0:0:
208,64,16362,1,0,0:0:0:0:
208,64,16468,1,0,0:0:0:0:
208,64,16573,1,2,0:0:0:0:
208,64,16679,1,0,0:0:0:0:
208,64,16890,1,0,0:0:0:0:
208,64,16996,1,0,0:0:0:0:
208,64,17207,1,0,0:0:0:0:
208,64,17418,1,2,0:0:0:0:
208,64,17841,1,0,0:0:0:0:
208,64,18052,1,0,0:0:0:0:
208,64,18158,1,0,0:0:0:0:
208,64,18263,1,2,0:0:0:0:
240,56,18369,1,0,0:0:0:0:
176,72,18580,1,0,0:0:0:0:
208,64,18686,1,2,0:0:0:0:
208,64,18897,1,0,0:0:0:0:
208,64,19109,1,2,0:0:0:0:
208,64,19531,1,2,0:0:0:0:
208,64,19742,1,0,0:0:0:0:
208,64,19848,1,0,0:0:0:0:
208,64,19954,1,2,0:0:0:0:
208,64,20165,1,0,0:0:0:0:
208,64,20270,1,0,0:0:0:0:
208,64,20376,1,2,0:0:0:0:
208,64,20587,1,0,0:0:0:0:
208,64,20693,1,0,0:0:0:0:
208,64,20799,1,2,0:0:0:0:
208,64,21010,1,2,0:0:0:0:
208,64,21221,1,0,0:0:0:0:
208,64,21432,1,0,0:0:0:0:
208,64,21538,1,0,0:0:0:0:
208,64,21644,1,2,0:0:0:0:
208,64,21749,1,0,0:0:0:0:
208,64,21855,1,0,0:0:0:0:
208,64,22066,5,0,0:0:0:0:
208,64,22278,1,0,0:0:0:0:
208,64,22383,1,0,0:0:0:0:
208,64,22489,1,2,0:0:0:0:
208,64,22911,1,0,0:0:0:0:
208,64,23123,1,0,0:0:0:0:
208,64,23228,1,0,0:0:0:0:
208,64,23334,1,2,0:0:0:0:
208,64,23440,1,0,0:0:0:0:
208,64,23545,1,0,0:0:0:0:
208,64,23756,1,0,0:0:0:0:
208,64,23968,1,0,0:0:0:0:
208,64,24073,1,0,0:0:0:0:
208,64,24179,1,2,0:0:0:0:
208,64,24601,1,0,0:0:0:0:
208,64,24813,1,0,0:0:0:0:
208,64,24918,1,0,0:0:0:0:
208,64,25024,1,2,0:0:0:0:
208,64,25130,1,0,0:0:0:0:
208,64,25235,1,0,0:0:0:0:
208,64,25447,1,2,0:0:0:0:
208,64,25658,1,0,0:0:0:0:
208,64,25763,1,0,0:0:0:0:
208,64,25869,1,2,0:0:0:0:
208,64,26080,1,0,0:0:0:0:
208,64,26292,1,2,0:0:0:0:
208,64,26503,1,0,0:0:0:0:
200,32,26609,1,0,0:0:0:0:
200,32,26714,1,2,0:0:0:0:
208,64,26925,1,0,0:0:0:0:
208,64,27031,1,0,0:0:0:0:
200,32,27137,1,2,0:0:0:0:
200,32,27348,1,0,0:0:0:0:
200,32,27454,1,0,0:0:0:0:
208,64,27559,1,2,0:0:0:0:
200,32,27770,1,2,0:0:0:0:
200,32,27982,1,4,0:0:0:0:
200,32,29249,1,6,0:0:0:0:
204,72,29672,1,0,0:0:0:0:
204,72,30094,1,0,0:0:0:0:
204,72,30517,1,0,0:0:0:0:
156,116,30728,1,2,0:0:0:0:
204,72,30940,1,0,0:0:0:0:
204,72,31151,1,2,0:0:0:0:
204,72,31362,1,0,0:0:0:0:
204,72,31573,1,0,0:0:0:0:
204,72,31679,1,0,0:0:0:0:
204,72,31785,1,2,0:0:0:0:
204,72,31996,1,2,0:0:0:0:
204,72,32207,1,0,0:0:0:0:
204,72,32418,1,0,0:0:0:0:
204,72,32524,1,0,0:0:0:0:
204,72,32630,1,2,0:0:0:0:
204,72,32841,1,2,0:0:0:0:
204,72,33052,1,0,0:0:0:0:
204,72,33475,1,0,0:0:0:0:
204,72,33897,1,0,0:0:0:0:
204,72,34109,1,2,0:0:0:0:
204,72,34320,1,0,0:0:0:0:
204,72,34531,1,2,0:0:0:0:
204,72,34742,1,0,0:0:0:0:
204,72,34848,1,0,0:0:0:0:
204,72,34954,1,0,0:0:0:0:
204,72,35165,1,6,0:0:0:0:
204,72,35376,1,6,0:0:0:0:
204,72,35587,1,0,0:0:0:0:
204,72,35693,1,0,0:0:0:0:
204,72,35799,1,0,0:0:0:0:
204,72,36010,1,6,0:0:0:0:
204,72,36221,1,6,0:0:0:0:
204,72,36432,1,0,0:0:0:0:
204,72,36855,1,0,0:0:0:0:
204,72,37066,1,2,0:0:0:0:
204,72,37278,1,0,0:0:0:0:
204,72,37489,1,2,0:0:0:0:
204,72,37700,1,0,0:0:0:0:
204,72,37911,1,2,0:0:0:0:
204,72,38123,1,0,0:0:0:0:
204,72,38334,1,0,0:0:0:0:
204,72,38440,1,0,0:0:0:0:
204,72,38545,1,2,0:0:0:0:
204,72,38756,1,2,0:0:0:0:
204,72,38968,1,0,0:0:0:0:
204,72,39179,1,0,0:0:0:0:
204,72,39285,1,0,0:0:0:0:
204,72,39390,1,2,0:0:0:0:
204,72,39601,1,2,0:0:0:0:
204,72,39813,1,0,0:0:0:0:
204,72,40235,1,2,0:0:0:0:
184,48,40447,1,0,0:0:0:0:
204,72,40658,1,0,0:0:0:0:
204,72,40869,1,0,0:0:0:0:
204,72,41080,1,2,0:0:0:0:
204,72,41292,1,0,0:0:0:0:
184,48,41503,1,2,0:0:0:0:
184,48,41714,1,2,0:0:0:0:
184,48,41925,1,2,0:0:0:0:
184,48,42137,1,2,0:0:0:0:
204,72,42242,1,2,0:0:0:0:
204,72,42454,1,2,0:0:0:0:
184,48,42665,1,2,0:0:0:0:
184,48,42770,1,2,0:0:0:0:
208,64,43193,5,4,0:0:0:0:
208,64,43404,1,0,0:0:0:0:
208,64,43510,1,0,0:0:0:0:
208,64,43616,1,2,0:0:0:0:
208,64,43721,1,0,0:0:0:0:
208,64,43932,1,0,0:0:0:0:
208,64,44038,1,0,0:0:0:0:
208,64,44249,1,0,0:0:0:0:
208,64,44461,1,2,0:0:0:0:
208,64,44883,1,0,0:0:0:0:
208,64,45094,1,0,0:0:0:0:
208,64,45200,1,0,0:0:0:0:
208,64,45306,1,2,0:0:0:0:
208,64,45411,1,0,0:0:0:0:
208,64,45623,1,0,0:0:0:0:
208,64,45728,1,0,0:0:0:0:
208,64,45940,1,0,0:0:0:0:
208,64,46151,1,2,0:0:0:0:
208,64,46573,1,0,0:0:0:0:
208,64,46785,1,0,0:0:0:0:
208,64,46890,1,0,0:0:0:0:
208,64,46996,1,2,0:0:0:0:
240,56,47101,1,0,0:0:0:0:
176,72,47313,1,0,0:0:0:0:
208,64,47418,1,2,0:0:0:0:
208,64,47630,1,0,0:0:0:0:
208,64,47841,1,2,0:0:0:0:
208,64,48263,1,2,0:0:0:0:
208,64,48475,1,0,0:0:0:0:
208,64,48580,1,0,0:0:0:0:
208,64,48686,1,2,0:0:0:0:
208,64,48897,1,0,0:0:0:0:
208,64,49003,1,0,0:0:0:0:
208,64,49109,1,2,0:0:0:0:
208,64,49320,1,0,0:0:0:0:
208,64,49425,1,0,0:0:0:0:
208,64,49531,1,2,0:0:0:0:
208,64,49742,1,2,0:0:0:0:
208,64,49954,1,0,0:0:0:0:
208,64,50165,1,0,0:0:0:0:
208,64,50270,1,0,0:0:0:0:
208,64,50376,1,2,0:0:0:0:
208,64,50482,1,0,0:0:0:0:
208,64,50587,1,0,0:0:0:0:
208,64,50799,5,0,0:0:0:0:
208,64,51010,1,0,0:0:0:0:
208,64,51116,1,0,0:0:0:0:
208,64,51221,1,2,0:0:0:0:
208,64,51644,1,0,0:0:0:0:
208,64,51855,1,0,0:0:0:0:
208,64,51961,1,0,0:0:0:0:
208,64,52066,1,2,0:0:0:0:
208,64,52172,1,0,0:0:0:0:
208,64,52278,1,0,0:0:0:0:
208,64,52489,1,0,0:0:0:0:
208,64,52700,1,0,0:0:0:0:
208,64,52806,1,0,0:0:0:0:
208,64,52911,1,2,0:0:0:0:
208,64,53334,1,0,0:0:0:0:
208,64,53545,1,0,0:0:0:0:
208,64,53651,1,0,0:0:0:0:
208,64,53756,1,2,0:0:0:0:
208,64,53862,1,0,0:0:0:0:
208,64,53968,1,0,0:0:0:0:
208,64,54179,1,2,0:0:0:0:
208,64,54390,1,0,0:0:0:0:
208,64,54496,1,0,0:0:0:0:
208,64,54601,1,2,0:0:0:0:
208,64,54813,1,0,0:0:0:0:
208,64,55024,1,2,0:0:0:0:
208,64,55235,1,0,0:0:0:0:
200,32,55341,1,0,0:0:0:0:
200,32,55447,1,2,0:0:0:0:
208,64,55658,1,0,0:0:0:0:
208,64,55763,1,0,0:0:0:0:
200,32,55869,1,2,0:0:0:0:
200,32,56080,1,0,0:0:0:0:
200,32,56186,1,0,0:0:0:0:
208,64,56292,1,2,0:0:0:0:
200,32,56503,1,2,0:0:0:0:
200,32,56714,1,4,0:0:0:0:
212,96,57031,1,0,0:0:0:0:
212,96,57348,1,0,0:0:0:0:
212,96,57559,1,2,0:0:0:0:
212,96,57982,1,2,0:0:0:0:
212,96,58404,1,0,0:0:0:0:
212,96,58721,1,0,0:0:0:0:
212,96,59038,1,0,0:0:0:0:
212,96,59249,1,2,0:0:0:0:
212,96,59461,1,0,0:0:0:0:
212,96,59566,1,0,0:0:0:0:
212,96,59672,1,2,0:0:0:0:
212,96,60094,1,0,0:0:0:0:
212,96,60411,1,0,0:0:0:0:
212,96,60728,1,0,0:0:0:0:
212,96,60940,1,2,0:0:0:0:
212,96,61151,1,2,0:0:0:0:
212,96,61256,1,2,0:0:0:0:
212,96,61362,1,2,0:0:0:0:
212,96,61785,1,0,0:0:0:0:
212,96,62101,1,0,0:0:0:0:
212,96,62418,1,0,0:0:0:0:
212,96,62630,1,2,0:0:0:0:
212,96,62841,1,0,0:0:0:0:
212,96,62947,1,0,0:0:0:0:
212,96,63052,1,2,0:0:0:0:
212,96,63158,1,0,0:0:0:0:
212,96,63263,1,0,0:0:0:0:
212,96,63475,1,4,0:0:0:0:
212,96,63792,1,0,0:0:0:0:
212,96,64109,1,0,0:0:0:0:
212,96,64320,1,2,0:0:0:0:
212,96,64742,1,2,0:0:0:0:
212,96,65165,1,0,0:0:0:0:
212,96,65482,1,0,0:0:0:0:
212,96,65799,1,0,0:0:0:0:
212,96,66010,1,2,0:0:0:0:
212,96,66221,1,0,0:0:0:0:
212,96,66432,1,2,0:0:0:0:
212,96,66644,1,2,0:0:0:0:
212,96,66749,1,2,0:0:0:0:
212,96,66855,1,0,0:0:0:0:
212,96,67278,1,2,0:0:0:0:
188,68,67489,1,0,0:0:0:0:
212,96,67594,1,0,0:0:0:0:
212,96,67700,1,2,0:0:0:0:
212,96,67911,1,0,0:0:0:0:
212,96,68123,1,2,0:0:0:0:
212,96,68334,1,0,0:0:0:0:
212,96,68440,1,0,0:0:0:0:
212,96,68545,1,2,0:0:0:0:
212,96,68756,1,0,0:0:0:0:
212,96,68862,1,0,0:0:0:0:
212,96,68968,1,0,0:0:0:0:
188,68,69073,1,0,0:0:0:0:
212,96,69179,1,0,0:0:0:0:
212,96,69390,1,2,0:0:0:0:
212,96,69601,1,0,0:0:0:0:
212,96,69813,1,2,0:0:0:0:
180,100,69918,1,2,0:0:0:0:
212,96,70024,1,2,0:0:0:0:
256,192,70235,12,0,71503,0:0:0:0:
216,40,71925,5,4,0:0:0:0:
216,40,72137,1,2,0:0:0:0:
188,60,72348,1,0,0:0:0:0:
188,60,72454,1,0,0:0:0:0:
188,60,72559,1,2,0:0:0:0:
188,60,72770,1,0,0:0:0:0:
188,60,72982,1,2,0:0:0:0:
188,60,73087,1,2,0:0:0:0:
188,60,73193,1,0,0:0:0:0:
152,64,73404,1,2,0:0:0:0:
188,60,73616,1,0,0:0:0:0:
188,60,73827,1,2,0:0:0:0:
188,60,73932,1,2,0:0:0:0:
188,60,74038,1,0,0:0:0:0:
188,60,74249,1,2,0:0:0:0:
188,60,74461,1,0,0:0:0:0:
188,60,74566,1,0,0:0:0:0:
188,60,74672,1,2,0:0:0:0:
176,32,74778,1,2,0:0:0:0:
176,32,74883,1,0,0:0:0:0:
156,68,75094,1,2,0:0:0:0:
188,60,75306,1,0,0:0:0:0:
188,60,75517,1,2,0:0:0:0:
188,60,75623,1,2,0:0:0:0:
188,60,75728,1,0,0:0:0:0:
188,60,75940,1,2,0:0:0:0:
188,60,76151,1,0,0:0:0:0:
188,60,76362,1,2,0:0:0:0:
84,0,76573,1,0,0:0:0:0:
188,60,76785,1,2,0:0:0:0:
188,60,76890,1,2,0:0:0:0:
188,60,76996,1,0,0:0:0:0:
188,60,77101,1,0,0:0:0:0:
188,60,77207,1,2,0:0:0:0:
188,60,77418,1,0,0:0:0:0:
188,60,77524,1,0,0:0:0:0:
188,60,77630,1,2,0:0:0:0:
188,60,77841,1,0,0:0:0:0:
188,60,78052,1,2,0:0:0:0:
188,60,78263,1,2,0:0:0:0:
188,60,78369,1,2,0:0:0:0:
188,60,78475,1,2,0:0:0:0:
188,60,78686,5,0,0:0:0:0:
188,60,78897,1,0,0:0:0:0:
188,60,79109,1,8,0:0:0:0:
188,60,79320,1,0,0:0:0:0:
188,60,79531,1,0,0:0:0:0:
188,60,79637,1,0,0:0:0:0:
188,60,79742,1,0,0:0:0:0:
188,60,79848,1,0,0:0:0:0:
188,60,79954,1,8,0:0:0:0:
188,60,80165,1,0,0:0:0:0:
188,60,80587,1,0,0:0:0:0:
188,60,80799,1,8,0:0:0:0:
188,60,81010,1,0,0:0:0:0:
188,60,81221,1,0,0:0:0:0:
188,60,81327,1,0,0:0:0:0:
188,60,81432,1,0,0:0:0:0:
188,60,81538,1,0,0:0:0:0:
188,60,81644,1,8,0:0:0:0:
188,60,82066,5,0,0:0:0:0:
188,60,82278,1,2,0:0:0:0:
188,60,82489,1,0,0:0:0:0:
188,60,82700,1,2,0:0:0:0:
188,60,82806,1,2,0:0:0:0:
188,60,82911,1,0,0:0:0:0:
188,60,83123,1,2,0:0:0:0:
188,60,83334,1,0,0:0:0:0:
188,60,83545,1,2,0:0:0:0:
188,60,83651,1,2,0:0:0:0:
188,60,83756,1,0,0:0:0:0:
188,60,83968,1,2,0:0:0:0:
188,60,84179,1,0,0:0:0:0:
188,60,84285,1,0,0:0:0:0:
188,60,84390,1,0,0:0:0:0:
188,60,84601,1,2,0:0:0:0:
188,60,84813,1,8,0:0:0:0:
188,60,84918,1,2,0:0:0:0:
192,96,85024,1,0,0:0:0:0:
188,60,85235,1,2,0:0:0:0:
188,60,85447,5,4,0:0:0:0:
188,60,85658,1,2,0:0:0:0:
188,60,85869,1,0,0:0:0:0:
188,60,85975,1,0,0:0:0:0:
188,60,86080,1,2,0:0:0:0:
188,60,86292,1,0,0:0:0:0:
188,60,86503,1,2,0:0:0:0:
188,60,86609,1,2,0:0:0:0:
188,60,86714,1,0,0:0:0:0:
188,60,86925,1,2,0:0:0:0:
188,60,87137,1,0,0:0:0:0:
188,60,87348,1,2,0:0:0:0:
152,16,87454,1,2,0:0:0:0:
188,60,87559,1,0,0:0:0:0:
188,60,87770,1,2,0:0:0:0:
188,60,87982,1,0,0:0:0:0:
188,60,88087,1,0,0:0:0:0:
188,60,88193,1,2,0:0:0:0:
188,60,88299,1,2,0:0:0:0:
188,60,88404,1,0,0:0:0:0:
152,16,88616,1,2,0:0:0:0:
188,60,88827,1,0,0:0:0:0:
188,60,89038,1,2,0:0:0:0:
188,60,89144,1,2,0:0:0:0:
188,60,89249,1,0,0:0:0:0:
188,60,89461,1,2,0:0:0:0:
188,60,89672,1,0,0:0:0:0:
188,60,89883,1,2,0:0:0:0:
188,60,90094,1,0,0:0:0:0:
188,60,90306,1,2,0:0:0:0:
188,60,90411,1,2,0:0:0:0:
188,60,90517,1,0,0:0:0:0:
188,60,90623,1,0,0:0:0:0:
188,60,90728,1,2,0:0:0:0:
188,60,90940,1,0,0:0:0:0:
188,60,91045,1,0,0:0:0:0:
188,60,91151,1,2,0:0:0:0:
188,60,91362,1,0,0:0:0:0:
188,60,91573,1,2,0:0:0:0:
188,60,91679,1,2,0:0:0:0:
188,60,91785,1,0,0:0:0:0:
188,60,91996,1,2,0:0:0:0:
188,60,92207,5,0,0:0:0:0:
188,60,92418,1,0,0:0:0:0:
188,60,92630,1,8,0:0:0:0:
188,60,92841,1,0,0:0:0:0:
188,60,92947,1,0,0:0:0:0:
188,60,93052,1,0,0:0:0:0:
188,60,93263,1,0,0:0:0:0:
188,60,93475,1,8,0:0:0:0:
188,60,93686,1,0,0:0:0:0:
188,60,93792,1,0,0:0:0:0:
188,60,93897,1,0,0:0:0:0:
188,60,94109,1,0,0:0:0:0:
188,60,94320,1,8,0:0:0:0:
188,60,94531,1,0,0:0:0:0:
188,60,94637,1,0,0:0:0:0:
188,60,94742,1,8,0:0:0:0:
188,60,94954,1,0,0:0:0:0:
188,60,95165,1,8,0:0:0:0:
188,60,95376,1,8,0:0:0:0:
188,60,95587,5,0,0:0:0:0:
188,60,96010,1,0,0:0:0:0:
188,60,96221,1,2,0:0:0:0:
188,60,96432,1,0,0:0:0:0:
188,60,96644,1,2,0:0:0:0:
188,60,96749,1,2,0:0:0:0:
188,60,96855,1,0,0:0:0:0:
188,60,97066,1,0,0:0:0:0:
192,28,97278,1,6,0:0:0:0:
192,28,97594,1,6,0:0:0:0:
188,60,97911,1,6,0:0:0:0:
188,60,98123,1,4,0:0:0:0:
188,60,98440,1,4,0:0:0:0:
188,60,98756,1,6,0:0:0:0:
188,60,98968,1,4,0:0:0:0:
200,32,100658,1,4,0:0:0:0:
200,32,101503,1,0,0:0:0:0:
200,32,101714,1,0,0:0:0:0:
200,32,101925,1,2,0:0:0:0:
200,32,102137,1,0,0:0:0:0:
200,32,102348,1,4,0:0:0:0:
200,28,104038,1,2,0:0:0:0:
200,28,104249,1,0,0:0:0:0:
200,28,104355,1,2,0:0:0:0:
200,28,104566,1,0,0:0:0:0:
200,28,104672,1,2,0:0:0:0:
200,28,104883,1,0,0:0:0:0:
200,28,105094,1,0,0:0:0:0:
200,28,105200,1,0,0:0:0:0:
200,28,105306,1,2,0:0:0:0:
200,28,105517,1,2,0:0:0:0:
200,28,105728,1,0,0:0:0:0:
200,28,105834,1,2,0:0:0:0:
200,28,105940,1,2,0:0:0:0:
200,28,106151,1,0,0:0:0:0:
200,28,106256,1,2,0:0:0:0:
200,28,106362,1,2,0:0:0:0:
200,28,106573,1,4,0:0:0:0:
200,28,106996,1,0,0:0:0:0:
200,28,107101,1,2,0:0:0:0:
200,28,107207,1,2,0:0:0:0:
200,28,107418,1,0,0:0:0:0:
200,28,107524,1,2,0:0:0:0:
200,28,107630,1,2,0:0:0:0:
200,28,107841,1,4,0:0:0:0:
200,28,108263,1,2,0:0:0:0:
200,28,108369,1,2,0:0:0:0:
200,28,108475,1,0,0:0:0:0:
200,28,108686,1,2,0:0:0:0:
200,28,108792,1,2,0:0:0:0:
200,28,108897,1,0,0:0:0:0:
200,28,109109,1,2,0:0:0:0:
200,28,109320,1,0,0:0:0:0:
200,28,109425,1,0,0:0:0:0:
200,28,109531,1,0,0:0:0:0:
200,28,109742,1,0,0:0:0:0:
200,28,109848,1,0,0:0:0:0:
200,28,109954,1,2,0:0:0:0:
200,28,110165,1,0,0:0:0:0:
200,28,110270,1,0,0:0:0:0:
200,28,110376,1,2,0:0:0:0:
200,28,110587,1,2,0:0:0:0:
200,28,110799,1,0,0:0:0:0:
200,28,111116,1,0,0:0:0:0:
200,28,111432,1,2,0:0:0:0:
200,28,111749,1,0,0:0:0:0:
200,28,112066,1,6,0:0:0:0:
200,28,112383,1,0,0:0:0:0:
200,28,112489,1,0,0:0:0:0:
200,28,112594,1,0,0:0:0:0:
200,28,112700,1,2,0:0:0:0:
160,68,113321,1,4,0:0:0:0:
160,68,113636,1,0,0:0:0:0:
160,68,113952,1,0,0:0:0:0:
160,68,114110,1,0,0:0:0:0:
160,68,114268,1,0,0:0:0:0:
160,68,114426,1,0,0:0:0:0:
160,68,114584,1,2,0:0:0:0:
160,68,114899,1,0,0:0:0:0:
160,68,115057,1,0,0:0:0:0:
160,68,115215,1,0,0:0:0:0:
160,68,115373,1,0,0:0:0:0:
160,68,115531,1,0,0:0:0:0:
160,68,115847,1,4,0:0:0:0:
160,68,116163,1,0,0:0:0:0:
160,68,116478,1,0,0:0:0:0:
160,68,116636,1,0,0:0:0:0:
160,68,116794,1,0,0:0:0:0:
160,68,116952,1,0,0:0:0:0:
160,68,117110,1,2,0:0:0:0:
160,68,117426,1,0,0:0:0:0:
160,68,117584,1,0,0:0:0:0:
160,68,117742,1,0,0:0:0:0:
172,32,117899,1,0,0:0:0:0:
172,32,118057,1,0,0:0:0:0:
160,68,118373,1,4,0:0:0:0:
160,68,118689,1,0,0:0:0:0:
160,68,118847,1,0,0:0:0:0:
160,68,119005,1,2,0:0:0:0:
160,68,119321,1,0,0:0:0:0:
160,68,119478,1,0,0:0:0:0:
160,68,119636,1,2,0:0:0:0:
160,68,119952,1,0,0:0:0:0:
160,68,120110,1,0,0:0:0:0:
160,68,120268,1,2,0:0:0:0:
160,68,120426,1,0,0:0:0:0:
160,68,120584,1,0,0:0:0:0:
160,68,120899,1,4,0:0:0:0:
160,68,121531,1,6,0:0:0:0:
160,68,121847,1,4,0:0:0:0:
160,68,122163,1,4,0:0:0:0:
184,92,122478,1,0,0:0:0:0:
152,24,122636,1,0,0:0:0:0:
204,120,122794,1,6,0:0:0:0:
204,120,123426,1,4,0:0:0:0:
160,68,123742,1,0,0:0:0:0:
160,68,124057,1,0,0:0:0:0:
160,68,124215,1,0,0:0:0:0:
160,68,124373,1,0,0:0:0:0:
160,68,124531,1,0,0:0:0:0:
160,68,124689,1,2,0:0:0:0:
160,68,125005,1,0,0:0:0:0:
160,68,125163,1,0,0:0:0:0:
160,68,125321,1,0,0:0:0:0:
160,68,125478,1,0,0:0:0:0:
160,68,125636,1,0,0:0:0:0:
160,68,125952,1,4,0:0:0:0:
160,68,126268,1,0,0:0:0:0:
160,68,126584,1,0,0:0:0:0:
160,68,126742,1,0,0:0:0:0:
160,68,126899,1,0,0:0:0:0:
160,68,127057,1,0,0:0:0:0:
160,68,127215,1,2,0:0:0:0:
160,68,127531,1,0,0:0:0:0:
160,68,127847,1,0,0:0:0:0:
172,32,128005,1,0,0:0:0:0:
172,32,128163,1,0,0:0:0:0:
160,68,128478,1,4,0:0:0:0:
160,68,128794,1,0,0:0:0:0:
160,68,129110,1,0,0:0:0:0:
160,68,129268,1,0,0:0:0:0:
160,68,129426,1,0,0:0:0:0:
160,68,129584,1,0,0:0:0:0:
160,68,129742,1,2,0:0:0:0:
160,68,130057,1,0,0:0:0:0:
160,68,130373,1,0,0:0:0:0:
160,68,130531,1,0,0:0:0:0:
160,68,130689,1,0,0:0:0:0:
160,68,131005,1,4,0:0:0:0:
160,68,131636,1,6,0:0:0:0:
160,68,131952,1,4,0:0:0:0:
160,68,132268,1,4,0:0:0:0:
192,92,132584,1,0,0:0:0:0:
184,92,132742,1,0,0:0:0:0:
200,76,132899,1,2,0:0:0:0:
200,76,133057,1,2,0:0:0:0:
160,68,133215,1,2,0:0:0:0:
184,92,133373,1,2,0:0:0:0:
200,76,133531,1,4,0:0:0:0:
192,92,134163,1,4,0:0:0:0:
200,76,134794,1,6,0:0:0:0:
192,92,135426,1,4,0:0:0:0:
200,76,136057,1,6,0:0:0:0:
200,76,136689,1,6,0:0:0:0:
200,76,137005,1,4,0:0:0:0:
152,88,137321,1,4,0:0:0:0:
256,192,137636,12,0,139531,0:0:0:0:
168,8,140054,5,0,0:0:0:0:
168,8,140265,1,2,0:0:0:0:
188,116,140688,1,4,0:0:0:0:
188,116,141110,1,0,0:0:0:0:
188,116,141533,1,0,0:0:0:0:
188,116,141955,1,0,0:0:0:0:
188,116,142378,1,0,0:0:0:0:
188,116,142800,1,0,0:0:0:0:
188,116,143223,1,0,0:0:0:0:
188,116,143645,1,0,0:0:0:0:
188,116,144068,1,4,0:0:0:0:
188,116,144279,1,2,0:0:0:0:
188,116,144490,1,0,0:0:0:0:
188,116,144702,1,2,0:0:0:0:
188,116,144913,1,0,0:0:0:0:
188,116,145124,1,2,0:0:0:0:
188,116,145335,1,0,0:0:0:0:
188,116,145547,1,2,0:0:0:0:
188,116,145758,1,0,0:0:0:0:
188,116,145969,1,2,0:0:0:0:
188,116,146075,1,2,0:0:0:0:
188,116,146180,1,0,0:0:0:0:
188,116,146392,1,2,0:0:0:0:
188,116,146603,1,0,0:0:0:0:
188,116,146814,1,2,0:0:0:0:
176,56,146920,1,2,0:0:0:0:
176,56,147026,1,0,0:0:0:0:
176,56,147237,1,2,0:0:0:0:
188,116,147448,1,4,0:0:0:0:
188,116,147871,1,2,0:0:0:0:
188,116,148082,1,0,0:0:0:0:
188,116,148293,1,0,0:0:0:0:
188,116,148504,1,0,0:0:0:0:
204,144,148610,1,0,0:0:0:0:
188,116,148716,1,2,0:0:0:0:
188,116,148927,1,0,0:0:0:0:
188,116,149138,1,0,0:0:0:0:
208,80,149349,1,0,0:0:0:0:
208,80,149455,1,0,0:0:0:0:
208,80,149561,1,2,0:0:0:0:
188,116,149772,1,0,0:0:0:0:
204,144,149983,1,2,0:0:0:0:
188,116,150195,1,0,0:0:0:0:
204,144,150300,1,0,0:0:0:0:
188,116,150406,1,2,0:0:0:0:
188,116,150617,1,2,0:0:0:0:
188,116,150828,1,4,0:0:0:0:
188,116,151251,1,2,0:0:0:0:
188,116,151462,1,0,0:0:0:0:
188,116,151673,1,2,0:0:0:0:
188,116,151885,1,0,0:0:0:0:
188,116,152096,1,2,0:0:0:0:
188,116,152307,1,0,0:0:0:0:
188,116,152518,1,2,0:0:0:0:
188,116,152730,1,0,0:0:0:0:
188,116,152835,1,2,0:0:0:0:
188,116,153047,1,0,0:0:0:0:
188,116,153152,1,2,0:0:0:0:
192,160,153364,1,2,0:0:0:0:
188,116,153469,1,2,0:0:0:0:
188,116,153575,1,0,0:0:0:0:
188,116,153786,1,6,0:0:0:0:
208,64,154209,5,4,0:0:0:0:
208,64,154420,1,0,0:0:0:0:
208,64,154526,1,0,0:0:0:0:
208,64,154631,1,2,0:0:0:0:
208,64,154737,1,0,0:0:0:0:
208,64,154948,1,0,0:0:0:0:
208,64,155054,1,0,0:0:0:0:
208,64,155265,1,0,0:0:0:0:
208,64,155476,1,2,0:0:0:0:
208,64,155899,1,0,0:0:0:0:
208,64,156110,1,0,0:0:0:0:
208,64,156216,1,0,0:0:0:0:
208,64,156321,1,2,0:0:0:0:
208,64,156427,1,0,0:0:0:0:
208,64,156638,1,0,0:0:0:0:
208,64,156744,1,0,0:0:0:0:
208,64,156955,1,0,0:0:0:0:
208,64,157166,1,2,0:0:0:0:
208,64,157589,1,0,0:0:0:0:
208,64,157800,1,0,0:0:0:0:
208,64,157906,1,0,0:0:0:0:
208,64,158011,1,2,0:0:0:0:
240,56,158117,1,0,0:0:0:0:
176,72,158328,1,0,0:0:0:0:
208,64,158434,1,2,0:0:0:0:
208,64,158645,1,0,0:0:0:0:
208,64,158857,1,2,0:0:0:0:
208,64,159279,1,2,0:0:0:0:
208,64,159490,1,0,0:0:0:0:
208,64,159596,1,0,0:0:0:0:
208,64,159702,1,2,0:0:0:0:
208,64,159913,1,0,0:0:0:0:
208,64,160018,1,0,0:0:0:0:
208,64,160124,1,2,0:0:0:0:
208,64,160335,1,0,0:0:0:0:
208,64,160441,1,0,0:0:0:0:
208,64,160547,1,2,0:0:0:0:
208,64,160758,1,2,0:0:0:0:
208,64,160969,1,0,0:0:0:0:
208,64,161180,1,0,0:0:0:0:
208,64,161286,1,0,0:0:0:0:
208,64,161392,1,2,0:0:0:0:
208,64,161497,1,0,0:0:0:0:
208,64,161603,1,0,0:0:0:0:
208,64,161814,5,0,0:0:0:0:
208,64,162026,1,0,0:0:0:0:
208,64,162131,1,0,0:0:0:0:
208,64,162237,1,2,0:0:0:0:
208,64,162659,1,0,0:0:0:0:
208,64,162871,1,0,0:0:0:0:
208,64,162976,1,0,0:0:0:0:
208,64,163082,1,2,0:0:0:0:
208,64,163188,1,0,0:0:0:0:
208,64,163293,1,0,0:0:0:0:
208,64,163504,1,0,0:0:0:0:
208,64,163716,1,0,0:0:0:0:
208,64,163821,1,0,0:0:0:0:
208,64,163927,1,2,0:0:0:0:
208,64,164349,1,0,0:0:0:0:
208,64,164561,1,0,0:0:0:0:
208,64,164666,1,0,0:0:0:0:
208,64,164772,1,2,0:0:0:0:
208,64,164878,1,0,0:0:0:0:
208,64,164983,1,0,0:0:0:0:
208,64,165195,1,2,0:0:0:0:
208,64,165406,1,0,0:0:0:0:
208,64,165511,1,0,0:0:0:0:
208,64,165617,1,2,0:0:0:0:
208,64,165828,1,0,0:0:0:0:
208,64,166040,1,2,0:0:0:0:
208,64,166251,1,0,0:0:0:0:
200,32,166357,1,0,0:0:0:0:
200,32,166462,1,2,0:0:0:0:
208,64,166673,1,0,0:0:0:0:
208,64,166779,1,0,0:0:0:0:
200,32,166885,1,2,0:0:0:0:
200,32,167096,1,0,0:0:0:0:
200,32,167202,1,0,0:0:0:0:
208,64,167307,1,2,0:0:0:0:
200,32,167518,1,2,0:0:0:0:
200,32,167730,1,4,0:0:0:0:
212,96,168047,1,0,0:0:0:0:
212,96,168364,1,0,0:0:0:0:
212,96,168575,1,2,0:0:0:0:
212,96,168997,1,2,0:0:0:0:
212,96,169420,1,0,0:0:0:0:
212,96,169737,1,0,0:0:0:0:
192,64,170054,1,0,0:0:0:0:
212,96,170265,1,2,0:0:0:0:
212,96,170476,1,0,0:0:0:0:
212,96,170582,1,0,0:0:0:0:
212,96,170688,1,2,0:0:0:0:
212,96,171110,1,0,0:0:0:0:
212,96,171427,1,0,0:0:0:0:
212,96,171744,1,0,0:0:0:0:
212,96,171955,1,2,0:0:0:0:
212,96,172166,1,2,0:0:0:0:
212,96,172272,1,2,0:0:0:0:
212,96,172378,1,2,0:0:0:0:
212,96,172800,1,0,0:0:0:0:
212,96,173117,1,0,0:0:0:0:
212,96,173434,1,0,0:0:0:0:
212,96,173645,1,2,0:0:0:0:
212,96,173857,1,0,0:0:0:0:
212,96,173962,1,0,0:0:0:0:
212,96,174068,1,2,0:0:0:0:
212,96,174173,1,0,0:0:0:0:
212,96,174279,1,0,0:0:0:0:
212,96,174490,1,4,0:0:0:0:
212,96,174807,1,0,0:0:0:0:
212,96,175124,1,0,0:0:0:0:
212,96,175335,1,2,0:0:0:0:
212,96,175758,1,2,0:0:0:0:
212,96,176180,1,0,0:0:0:0:
212,96,176497,1,0,0:0:0:0:
212,96,176814,1,0,0:0:0:0:
212,96,177026,1,2,0:0:0:0:
212,96,177237,1,0,0:0:0:0:
212,96,177448,1,2,0:0:0:0:
212,96,177659,1,2,0:0:0:0:
212,96,177765,1,2,0:0:0:0:
212,96,177871,1,0,0:0:0:0:
212,96,178293,1,2,0:0:0:0:
188,68,178504,1,0,0:0:0:0:
212,96,178610,1,0,0:0:0:0:
212,96,178716,1,2,0:0:0:0:
212,96,178927,1,0,0:0:0:0:
212,96,179138,1,2,0:0:0:0:
212,96,179349,1,0,0:0:0:0:
212,96,179455,1,0,0:0:0:0:
212,96,179561,1,2,0:0:0:0:
212,96,179772,1,0,0:0:0:0:
212,96,179878,1,0,0:0:0:0:
212,96,179983,1,2,0:0:0:0:
188,68,180089,1,2,0:0:0:0:
212,96,180195,1,0,0:0:0:0:
212,96,180300,1,0,0:0:0:0:
212,96,180406,1,2,0:0:0:0:
212,96,180617,1,0,0:0:0:0:
212,96,180828,1,2,0:0:0:0:
180,100,180934,1,2,0:0:0:0:
212,96,181040,1,2,0:0:0:0:
256,192,181251,12,0,182202,0:0:0:0:
180,100,182307,5,0,0:0:0:0:
180,100,182413,1,0,0:0:0:0:
180,100,182518,1,2,0:0:0:0:
160,56,182941,5,4,0:0:0:0:
160,64,184631,1,0,0:0:0:0:
160,64,185476,1,0,0:0:0:0:
160,64,186321,1,4,0:0:0:0:
160,64,187166,1,2,0:0:0:0:
160,64,188011,1,0,0:0:0:0:
160,64,188857,1,2,0:0:0:0:
160,64,189068,1,0,0:0:0:0:
160,64,189279,1,0,0:0:0:0:
160,64,189702,1,4,0:0:0:0:
160,64,190547,1,2,0:0:0:0:
160,64,191392,1,0,0:0:0:0:
160,64,191814,1,2,0:0:0:0:
160,64,192237,1,2,0:0:0:0:
160,64,192448,1,0,0:0:0:0:
160,64,192659,1,0,0:0:0:0:
160,64,192871,1,0,0:0:0:0:
160,64,193082,1,2,0:0:0:0:
160,64,193504,1,0,0:0:0:0:
160,64,193716,1,2,0:0:0:0:
160,64,193927,1,2,0:0:0:0:
160,64,194138,1,2,0:0:0:0:
160,64,194349,1,2,0:0:0:0:
160,64,194561,1,2,0:0:0:0:
160,64,196040,1,6,0:0:0:0:
216,40,196462,5,4,0:0:0:0:
216,40,196673,1,2,0:0:0:0:
188,60,196885,1,0,0:0:0:0:
188,60,196990,1,0,0:0:0:0:
188,60,197096,1,2,0:0:0:0:
188,60,197307,1,0,0:0:0:0:
188,60,197518,1,2,0:0:0:0:
188,60,197624,1,2,0:0:0:0:
188,60,197730,1,0,0:0:0:0:
152,64,197941,1,2,0:0:0:0:
188,60,198152,1,0,0:0:0:0:
188,60,198364,1,2,0:0:0:0:
188,60,198469,1,2,0:0:0:0:
188,60,198575,1,0,0:0:0:0:
188,60,198786,1,2,0:0:0:0:
188,60,198997,1,0,0:0:0:0:
188,60,199103,1,0,0:0:0:0:
188,60,199209,1,2,0:0:0:0:
176,32,199314,1,2,0:0:0:0:
176,32,199420,1,0,0:0:0:0:
156,68,199631,1,2,0:0:0:0:
188,60,199842,1,0,0:0:0:0:
188,60,200054,1,2,0:0:0:0:
188,60,200159,1,2,0:0:0:0:
188,60,200265,1,0,0:0:0:0:
188,60,200476,1,2,0:0:0:0:
188,60,200688,1,0,0:0:0:0:
188,60,200899,1,2,0:0:0:0:
84,0,201110,1,0,0:0:0:0:
188,60,201321,1,2,0:0:0:0:
188,60,201427,1,2,0:0:0:0:
188,60,201533,1,0,0:0:0:0:
192,96,201638,1,0,0:0:0:0:
188,60,201744,1,2,0:0:0:0:
188,60,201955,1,0,0:0:0:0:
188,60,202061,1,0,0:0:0:0:
188,60,202166,1,2,0:0:0:0:
188,60,202378,1,0,0:0:0:0:
188,60,202589,1,2,0:0:0:0:
188,60,202800,1,2,0:0:0:0:
188,60,202906,1,2,0:0:0:0:
188,60,203011,1,2,0:0:0:0:
188,60,203223,5,0,0:0:0:0:
188,60,203434,1,0,0:0:0:0:
188,60,203645,1,8,0:0:0:0:
188,60,203857,1,0,0:0:0:0:
188,60,204068,1,0,0:0:0:0:
188,60,204173,1,0,0:0:0:0:
188,60,204279,1,0,0:0:0:0:
188,60,204385,1,0,0:0:0:0:
188,60,204490,1,8,0:0:0:0:
188,60,204702,1,0,0:0:0:0:
188,60,204807,1,0,0:0:0:0:
188,60,204913,1,0,0:0:0:0:
188,60,205124,1,0,0:0:0:0:
188,60,205335,1,8,0:0:0:0:
188,60,205547,1,0,0:0:0:0:
188,60,205758,1,8,0:0:0:0:
188,60,205864,1,8,0:0:0:0:
188,60,205969,1,0,0:0:0:0:
188,60,206075,1,0,0:0:0:0:
188,60,206180,1,8,0:0:0:0:
188,60,206603,5,0,0:0:0:0:
188,60,206814,1,2,0:0:0:0:
188,60,207026,1,0,0:0:0:0:
188,60,207237,1,2,0:0:0:0:
188,60,207342,1,2,0:0:0:0:
188,60,207448,1,0,0:0:0:0:
188,60,207659,1,2,0:0:0:0:
188,60,207871,1,0,0:0:0:0:
188,60,208082,1,2,0:0:0:0:
188,60,208188,1,0,0:0:0:0:
188,60,208293,1,2,0:0:0:0:
188,60,208504,1,0,0:0:0:0:
188,60,208716,1,2,0:0:0:0:
188,60,208927,1,0,0:0:0:0:
188,60,209033,1,0,0:0:0:0:
188,60,209138,1,2,0:0:0:0:
188,60,209349,1,0,0:0:0:0:
188,60,209455,1,2,0:0:0:0:
188,60,209666,1,2,0:0:0:0:
188,60,209772,1,2,0:0:0:0:
168,36,209983,1,4,0:0:0:0:
188,60,210195,1,2,0:0:0:0:
188,60,210406,1,0,0:0:0:0:
188,60,210511,1,0,0:0:0:0:
188,60,210617,1,0,0:0:0:0:
188,60,210828,1,2,0:0:0:0:
188,60,211040,1,0,0:0:0:0:
188,60,211145,1,2,0:0:0:0:
188,60,211251,1,0,0:0:0:0:
188,60,211462,1,2,0:0:0:0:
188,60,211673,1,0,0:0:0:0:
188,60,211885,1,0,0:0:0:0:
188,60,211990,1,0,0:0:0:0:
188,60,212096,1,2,0:0:0:0:
188,60,212307,1,0,0:0:0:0:
188,60,212518,1,2,0:0:0:0:
188,60,212730,1,0,0:0:0:0:
188,60,212835,1,0,0:0:0:0:
188,60,212941,1,2,0:0:0:0:
188,60,213152,1,2,0:0:0:0:
188,60,213364,1,0,0:0:0:0:
188,60,213575,1,2,0:0:0:0:
188,60,213786,1,0,0:0:0:0:
188,60,213892,1,0,0:0:0:0:
188,60,213997,1,0,0:0:0:0:
188,60,214209,1,2,0:0:0:0:
188,60,214420,1,0,0:0:0:0:
188,60,214526,1,2,0:0:0:0:
188,60,214631,1,0,0:0:0:0:
188,60,214842,1,2,0:0:0:0:
188,60,215054,1,0,0:0:0:0:
188,60,215265,1,2,0:0:0:0:
188,60,215476,1,0,0:0:0:0:
188,60,215582,1,0,0:0:0:0:
188,60,215688,1,0,0:0:0:0:
188,60,215793,1,0,0:0:0:0:
188,60,215899,1,2,0:0:0:0:
188,60,216110,1,0,0:0:0:0:
188,60,216216,1,0,0:0:0:0:
188,60,216321,1,2,0:0:0:0:
188,60,216533,1,2,0:0:0:0:
188,60,216638,1,2,0:0:0:0:
188,60,216744,5,0,0:0:0:0:
188,60,216955,1,0,0:0:0:0:
188,60,217166,1,8,0:0:0:0:
188,60,217378,1,0,0:0:0:0:
188,60,217589,1,8,0:0:0:0:
188,60,217800,1,0,0:0:0:0:
188,60,217906,1,8,0:0:0:0:
188,60,218011,1,0,0:0:0:0:
188,60,218117,1,0,0:0:0:0:
188,60,218223,1,8,0:0:0:0:
188,60,218434,1,0,0:0:0:0:
172,28,218645,1,0,0:0:0:0:
188,60,218857,1,8,0:0:0:0:
188,60,219068,1,0,0:0:0:0:
172,28,219279,1,8,0:0:0:0:
188,60,219490,1,0,0:0:0:0:
188,60,219596,1,0,0:0:0:0:
188,60,219702,1,8,0:0:0:0:
188,60,219807,1,0,0:0:0:0:
188,60,219913,1,8,0:0:0:0:
188,60,220124,5,4,0:0:0:0:
188,60,220547,1,8,0:0:0:0:
188,60,220758,1,0,0:0:0:0:
188,60,220969,1,8,0:0:0:0:
188,60,221180,1,0,0:0:0:0:
188,60,221286,1,0,0:0:0:0:
188,60,221392,1,8,0:0:0:0:
188,60,221603,1,0,0:0:0:0:
192,28,221814,5,6,0:0:0:0:
192,28,222131,1,6,0:0:0:0:
188,60,222448,1,6,0:0:0:0:
188,60,222659,1,4,0:0:0:0:
188,60,222976,1,4,0:0:0:0:
188,60,223293,1,6,0:0:0:0:
208,64,223504,5,4,0:0:0:0:
208,64,223716,1,0,0:0:0:0:
208,64,223821,1,0,0:0:0:0:
208,64,223927,1,2,0:0:0:0:
208,64,224033,1,0,0:0:0:0:
208,64,224244,1,0,0:0:0:0:
208,64,224349,1,0,0:0:0:0:
208,64,224561,1,0,0:0:0:0:
208,64,224772,1,2,0:0:0:0:
208,64,225195,1,0,0:0:0:0:
208,64,225406,1,0,0:0:0:0:
208,64,225511,1,0,0:0:0:0:
208,64,225617,1,2,0:0:0:0:
208,64,225723,1,0,0:0:0:0:
208,64,225934,1,0,0:0:0:0:
208,64,226040,1,0,0:0:0:0:
208,64,226251,1,0,0:0:0:0:
208,64,226462,1,2,0:0:0:0:
208,64,226885,1,0,0:0:0:0:
208,64,227096,1,0,0:0:0:0:
208,64,227202,1,0,0:0:0:0:
208,64,227307,1,2,0:0:0:0:
240,56,227413,1,0,0:0:0:0:
176,72,227624,1,0,0:0:0:0:
208,64,227730,1,2,0:0:0:0:
208,64,227941,1,0,0:0:0:0:
208,64,228152,1,2,0:0:0:0:
208,64,228575,1,0,0:0:0:0:
208,64,228786,1,0,0:0:0:0:
204,96,228892,1,0,0:0:0:0:
208,64,228997,1,2,0:0:0:0:
208,64,229209,1,0,0:0:0:0:
208,64,229314,1,0,0:0:0:0:
208,64,229420,1,2,0:0:0:0:
208,64,229631,1,0,0:0:0:0:
208,64,229842,1,2,0:0:0:0:
208,64,229948,1,2,0:0:0:0:
208,64,230054,1,2,0:0:0:0:
208,64,230265,1,0,0:0:0:0:
208,64,230476,1,0,0:0:0:0:
208,64,230582,1,0,0:0:0:0:
208,64,230688,1,2,0:0:0:0:
208,64,230793,1,0,0:0:0:0:
208,64,230899,1,0,0:0:0:0:
208,64,231110,5,0,0:0:0:0:
208,64,231321,1,0,0:0:0:0:
208,64,231427,1,0,0:0:0:0:
208,64,231533,1,2,0:0:0:0:
208,64,231955,1,0,0:0:0:0:
208,64,232166,1,0,0:0:0:0:
208,64,232272,1,0,0:0:0:0:
208,64,232378,1,2,0:0:0:0:
208,64,232483,1,0,0:0:0:0:
208,64,232589,1,0,0:0:0:0:
208,64,232800,1,0,0:0:0:0:
208,64,233011,1,0,0:0:0:0:
208,64,233117,1,0,0:0:0:0:
208,64,233223,1,2,0:0:0:0:
208,64,233645,1,0,0:0:0:0:
208,64,233857,1,0,0:0:0:0:
208,64,233962,1,0,0:0:0:0:
208,64,234068,1,2,0:0:0:0:
208,64,234173,1,0,0:0:0:0:
208,64,234279,1,0,0:0:0:0:
208,64,234490,1,2,0:0:0:0:
208,64,234702,1,0,0:0:0:0:
208,64,234807,1,0,0:0:0:0:
208,64,234913,1,2,0:0:0:0:
208,64,235124,1,0,0:0:0:0:
208,64,235335,1,2,0:0:0:0:
208,64,235547,1,0,0:0:0:0:
200,32,235652,1,2,0:0:0:0:
208,64,235864,1,0,0:0:0:0:
208,64,235969,1,2,0:0:0:0:
200,32,236180,1,0,0:0:0:0:
200,32,236392,1,0,0:0:0:0:
200,32,236497,1,0,0:0:0:0:
208,64,236603,1,2,0:0:0:0:
200,32,236814,1,2,0:0:0:0:
200,32,237026,1,4,0:0:0:0:
200,32,237871,1,0,0:0:0:0:
200,32,238716,1,0,0:0:0:0:
200,32,239138,1,0,0:0:0:0:
200,32,239561,1,2,0:0:0:0:
200,32,239772,1,0,0:0:0:0:
200,32,239878,1,0,0:0:0:0:
200,32,239983,1,2,0:0:0:0:
200,32,240195,1,0,0:0:0:0:
200,32,240406,1,0,0:0:0:0:
200,32,240617,1,2,0:0:0:0:
200,32,240723,1,0,0:0:0:0:
200,32,240934,1,0,0:0:0:0:
200,32,241145,1,0,0:0:0:0:
200,32,241251,1,0,0:0:0:0:
200,32,241462,1,2,0:0:0:0:
200,32,241568,1,0,0:0:0:0:
200,32,241779,1,0,0:0:0:0:
200,32,241990,1,0,0:0:0:0:
200,32,242096,1,0,0:0:0:0:
200,32,242307,1,2,0:0:0:0:
200,32,242413,1,0,0:0:0:0:
200,32,242624,1,0,0:0:0:0:
200,32,242835,1,0,0:0:0:0:
200,32,242941,1,2,0:0:0:0:
200,32,243152,1,0,0:0:0:0:
200,32,243364,1,2,0:0:0:0:
208,88,243469,1,2,0:0:0:0:
200,32,243680,1,4,0:0:0:0:
