osu file format v14

[General]
AudioFilename: BABYMETAL - - MEGITSUNE (Full ver.).mp3
AudioLeadIn: 2000
PreviewTime: 71511
Countdown: 0
SampleSet: Normal
StackLeniency: 0.7
Mode: 0
LetterboxInBreaks: 0
WidescreenStoryboard: 0

[Editor]
Bookmarks: 122513,123142,167108,181263,237038
DistanceSpacing: 2
BeatDivisor: 8
GridSize: 4
TimelineZoom: 2.2

[Metadata]
Title:MEGITSUNE
TitleUnicode:メギツネ
Artist:BABYMETAL
ArtistUnicode:BABYMETAL
Creator:Onisakura
Version:BluOxy's Challenging
Source:
Tags:jpop moshiri BluOxy JUDYDANNY AlpacaCokelat
BeatmapID:343528
BeatmapSetID:110357

[Difficulty]
HPDrainRate:6
CircleSize:4
OverallDifficulty:8
ApproachRate:9
SliderMultiplier:2.00000000596046
SliderTickRate:1

[Events]
//Background and Video events
0,0,"BG.jpg",0,0
Video,0,"BABYMETAL-MEGITSUNE.avi"
//Break Periods
2,194780,195459
//Storyboard Layer 0 (Background)
//Storyboard Layer 1 (Fail)
//Storyboard Layer 2 (Pass)
//Storyboard Layer 3 (Foreground)
//Storyboard Sound Samples

[TimingPoints]
948,422.535211267606,4,1,1,70,1,0
948,-66.6666666666667,4,1,1,70,0,1
1793,-100,4,1,1,70,0,0
4328,-66.6666666666667,4,1,1,70,0,1
5173,-100,4,1,1,70,0,0
7074,-66.6666666666667,4,1,1,40,0,1
7180,-66.6666666666667,4,1,1,70,0,1
7708,-100,4,1,1,70,0,0
12356,-66.6666666666667,4,1,1,70,0,0
12778,-50,4,1,2,70,0,0
14469,-50,4,1,2,70,0,1
27990,-50,4,1,2,70,0,0
42778,-100,4,1,2,70,0,0
42990,-100,4,1,2,5,0,0
43201,-50,4,1,2,70,0,1
56722,-100,4,1,2,60,0,0
66863,-66.6666666666667,4,1,2,60,0,0
70243,-100,4,1,2,40,0,0
71511,-100,4,1,2,70,0,0
71828,-100,4,1,2,5,0,0
71933,-50,4,1,2,70,0,1
98976,-100,4,1,2,70,0,0
110806,631.578947368421,3,1,2,70,1,0
110813,-100,3,1,2,70,0,0
113174,-100,4,1,2,5,0,0
113332,-100,4,1,2,70,0,0
134095,-100,4,1,2,5,0,0
134174,-100,4,1,2,70,0,0
134726,-100,4,1,2,5,0,0
134805,-100,4,1,2,70,0,0
135358,-100,4,1,2,5,0,0
135437,-100,4,1,2,70,0,0
135989,-100,4,1,2,5,0,0
136068,-100,4,1,2,70,0,0
136621,-100,4,1,2,5,0,0
136700,-100,4,1,2,70,0,0
136937,-100,4,1,2,5,0,0
137016,-100,4,1,2,70,0,0
137253,-100,4,1,2,5,0,0
137332,-100,4,1,2,70,0,0
138595,422.535211267606,5,1,2,70,1,0
140707,422.535211267606,4,1,2,50,1,0
140707,-66.6666666666667,4,1,2,50,0,0
147467,-66.6666666666667,4,1,2,70,0,0
154228,-50,4,1,2,70,0,0
167749,-100,4,1,2,70,0,0
177890,-66.6666666666667,4,1,2,70,0,0
181270,-100,4,1,2,40,0,0
182960,-100,4,1,2,70,0,0
193523,-100,4,1,2,50,0,0
193945,-100,4,1,2,60,0,0
194368,-100,4,1,2,70,0,0
196481,-50,4,1,2,70,0,1
223523,-50,4,1,2,70,0,0
237044,845.070422535211,4,1,2,70,1,0
237044,-200,4,1,2,70,0,0
238734,-100,4,1,2,70,0,0
239579,-50,4,1,2,70,0,0

[Colours]
Combo1 : 255,255,0
Combo2 : 0,200,0
Combo3 : 170,170,255
Combo4 : 200,0,200

[HitObjects]
128,40,948,5,8,0:0:0:0:
156,108,1053,1,8,0:0:0:0:
136,180,1159,1,8,0:0:0:0:
92,240,1264,2,0,P|160:280|248:276,1,150.000005722046,8|8,0:0|0:0,0:0:0:0:
368,204,1687,1,8,0:0:0:0:
308,160,1793,5,8,0:0:0:0:
444,224,2004,2,0,L|468:176,2,50
424,56,2638,1,2,0:0:0:0:
376,64,2743,1,0,0:0:0:0:
336,96,2849,1,0,0:0:0:0:
320,144,2955,1,0,0:0:0:0:
336,192,3060,2,0,L|368:232,1,50
280,280,3271,2,0,L|296:344,1,50
200,224,3483,5,2,0:0:0:0:
152,216,3588,1,0,0:0:0:0:
112,248,3694,1,0,0:0:0:0:
96,296,3800,1,0,0:0:0:0:
128,336,3905,2,0,L|192:344,2,50
264,168,4328,5,8,0:0:0:0:
320,216,4433,1,8,0:0:0:0:
392,184,4539,1,8,0:0:0:0:
448,240,4645,1,8,0:0:0:0:
360,360,4856,1,8,0:0:0:0:
128,336,5067,1,8,0:0:0:0:
192,192,5173,5,8,0:0:0:0:
192,192,5384,2,0,L|256:224,2,50,2|0|0,0:0|0:0|0:0,0:0:0:0:
136,48,5807,1,2,0:0:0:0:
32,216,6018,5,2,0:0:0:0:
208,304,6229,1,0,0:0:0:0:
200,104,6440,1,0,0:0:0:0:
128,232,6652,5,0,0:0:0:0:
64,40,6863,1,2,0:0:0:0:
254,63,7074,1,0,0:0:0:0:
238,82,7127,1,0,0:0:0:0:
223,101,7233,1,0,0:0:0:0:
208,120,7286,2,0,P|252:154|352:160,1,150.000005722046
432,208,7708,6,0,B|384:304|384:304|280:224|208:360,1,300,8|0,0:0|0:0,0:0:0:0:
40,256,8553,2,0,B|138:298|138:298|96:184|216:112,1,300,8|0,0:0|0:0,0:0:0:0:
376,56,9398,2,0,B|408:160|296:192|296:192|256:64,1,300,8|0,0:0|0:0,0:0:0:0:
160,48,10243,5,8,0:0:0:0:
72,96,10455,1,0,0:0:0:0:
164,240,10666,1,2,0:0:0:0:
72,192,10877,1,0,0:0:0:0:
72,192,10983,2,0,L|48:224,2,25,0|0|8,0:0|0:0|0:0,0:0:0:0:
432,336,11511,5,8,0:0:0:0:
376,256,11722,1,8,0:0:0:0:
448,192,11933,5,8,0:0:0:0:
352,224,12145,1,8,0:0:0:0:
344,376,12356,5,8,0:0:0:0:
312,232,12567,1,8,0:0:0:0:
488,136,12778,5,8,0:0:0:0:
296,200,12990,1,2,0:0:0:0:
240,140,13095,1,0,0:0:0:0:
160,128,13201,1,8,0:0:0:0:
108,188,13307,1,0,0:0:0:0:
112,268,13412,1,2,0:0:0:0:
248,296,13624,2,0,L|280:360,4,50,2|0|0|0|0,0:0|0:0|0:0|0:0|0:0,0:0:0:0:
448,264,14046,2,0,P|392:184|400:80,1,200,2|0,0:0|0:0,0:0:0:0:
244,32,14469,5,8,0:0:0:0:
168,56,14574,1,0,0:0:0:0:
120,120,14680,1,0,0:0:0:0:
100,200,14786,2,0,L|204:252,1,100,0|2,0:0|0:0,0:0:0:0:
192,344,14997,2,0,P|164:348|92:316,2,100
304,304,15314,6,0,P|304:216|216:144,1,200,8|0,0:0|0:0,0:0:0:0:
368,56,15736,2,0,P|368:144|456:216,1,200,2|0,0:0|0:0,0:0:0:0:
180,292,16159,5,8,0:0:0:0:
280,280,16264,1,0,0:0:0:0:
328,192,16370,1,0,0:0:0:0:
304,84,16476,2,0,P|360:84|412:124,1,100,0|2,0:0|0:0,0:0:0:0:
476,40,16687,2,0,P|504:84|504:144,2,100
248,180,17004,6,0,P|329:225|464:202,1,200,8|0,0:0|0:0,0:0:0:0:
80,124,17426,2,0,P|34:205|57:340,1,200,2|0,0:0|0:0,0:0:0:0:
200,56,17849,5,8,0:0:0:0:
172,132,17955,1,0,0:0:0:0:
216,196,18060,1,0,0:0:0:0:
296,208,18166,2,0,L|400:176,1,100,0|2,0:0|0:0,0:0:0:0:
472,248,18377,2,0,L|440:360,2,100
432,80,18694,6,0,L|368:288,1,200,8|0,0:0|0:0,0:0:0:0:
272,296,19011,1,0,0:0:0:0:
272,296,19117,2,0,P|304:200|424:192,1,200,2|0,0:0|0:0,0:0:0:0:
432,376,19539,6,0,P|392:288|256:240,1,200,8|0,0:0|0:0,0:0:0:0:
40,304,19962,2,0,P|136:313|245:219,1,200,2|0,0:0|0:0,0:0:0:0:
296,0,20384,2,0,P|239:78|266:220,1,200,8|0,0:0|0:0,0:0:0:0:
320,360,20807,2,0,L|200:320,1,100,2|0,0:0|0:0,0:0:0:0:
184,232,21018,2,0,L|304:272,1,100
360,200,21229,5,8,0:0:0:0:
384,296,21335,1,0,0:0:0:0:
472,248,21440,1,0,0:0:0:0:
456,152,21546,2,0,P|488:128|512:56,2,100,0|2|0,0:0|0:0|0:0,0:0:0:0:
400,72,21863,2,0,P|344:96|280:80,1,100,0|0,0:0|0:0,0:0:0:0:
236,24,22074,6,0,B|212:108|104:64|72:180,1,200,8|0,0:0|0:0,0:0:0:0:
120,224,22391,1,0,0:0:0:0:
120,224,22497,2,0,P|192:264|184:384,1,200,2|0,0:0|0:0,0:0:0:0:
104,328,22814,1,0,0:0:0:0:
176,264,22919,5,8,0:0:0:0:
272,304,23025,1,0,0:0:0:0:
368,288,23131,1,0,0:0:0:0:
440,224,23236,2,0,P|456:104|424:32,1,200,0|0,0:0|0:0,0:0:0:0:
292,8,23553,1,0,0:0:0:0:
344,84,23659,1,0,0:0:0:0:
360,176,23764,6,0,P|320:232|184:256,1,200,8|0,0:0|0:0,0:0:0:0:
112,220,24081,1,0,0:0:0:0:
64,136,24187,2,0,L|256:0,1,200,2|0,0:0|0:0,0:0:0:0:
424,56,24609,5,8,0:0:0:0:
328,72,24715,1,0,0:0:0:0:
256,136,24821,1,0,0:0:0:0:
240,232,24926,2,0,P|320:256|392:352,2,200,2|2|2,0:0|0:0|0:0,0:0:0:0:
248,336,25455,6,0,P|320:294|369:184,1,200,8|0,0:0|0:0,0:0:0:0:
352,104,25771,1,0,0:0:0:0:
352,104,25877,2,0,P|279:62|159:75,1,200,2|0,0:0|0:0,2:0:0:0:
48,200,26300,6,0,L|88:312,2,100,8|0|2,0:0|0:0|0:0,0:0:0:0:
112,120,26617,2,0,L|152:8,2,100,0|8|0,0:0|0:0|0:0,0:0:0:0:
160,208,26933,2,0,L|288:200,1,100,2|0,0:0|0:0,0:0:0:0:
360,196,27145,6,0,P|344:256|296:292,1,100,8|0,0:0|0:0,0:0:0:0:
228,120,27356,2,0,L|332:64,1,100,2|0,0:0|0:0,0:0:0:0:
180,348,27567,1,12,0:0:0:0:
144,256,27673,1,4,0:0:0:0:
108,164,27778,1,6,0:0:0:0:
76,68,27884,1,4,0:0:0:0:
256,192,27990,12,4,29257,0:0:0:0:
256,192,29680,5,2,0:0:0:0:
144,72,29891,2,0,L|264:32,2,100,0|0|8,0:0|0:0|0:0,0:0:0:0:
104,248,30314,1,0,0:0:0:0:
176,312,30419,2,0,L|72:344,1,100,0|2,0:0|0:0,0:0:0:0:
208,216,30631,2,0,L|176:112,2,100
288,288,30948,2,0,P|336:200|288:96,1,200,8|0,0:0|0:0,0:0:0:0:
392,60,31264,1,0,0:0:0:0:
448,136,31370,6,0,P|376:128|328:144,1,100,2|0,0:0|0:0,0:0:0:0:
288,288,31581,2,0,P|360:296|408:280,1,100
472,240,31793,1,8,0:0:0:0:
256,192,32004,1,0,0:0:0:0:
64,288,32215,6,0,L|96:168,1,100,2|0,0:0|0:0,0:0:0:0:
280,96,32426,2,0,L|248:216,1,100
232,320,32638,1,8,0:0:0:0:
96,72,32849,1,0,0:0:0:0:
432,112,33060,5,2,0:0:0:0:
368,312,33271,2,0,L|472:280,2,100,0|0|8,0:0|0:0|0:0,0:0:0:0:
195,230,33694,1,0,0:0:0:0:
343,181,33800,2,0,L|248:152,1,100,0|2,0:0|0:0,0:0:0:0:
144,152,34011,2,0,P|154:104|192:72,2,100
226,317,34328,2,0,P|314:273|344:181,1,200,8|0,0:0|0:0,0:0:0:0:
71,104,34750,6,0,P|56:151|64:200,2,100,2|0|0,0:0|0:0|0:0,0:0:0:0:
164,68,35067,1,0,0:0:0:0:
192,164,35173,2,0,L|224:264,1,100.000000298023,8|0,0:0|0:0,0:0:0:0:
304,316,35384,2,0,P|320:272|312:212,1,100.000000298023
184,352,35595,6,0,P|96:272|104:144,1,200,2|0,0:0|0:0,0:0:0:0:
328,32,36018,2,0,P|416:112|408:240,1,200,8|0,0:0|0:0,0:0:0:0:
256,192,36440,5,2,0:0:0:0:
136,80,36652,2,0,L|96:200,2,100,0|0|8,0:0|0:0|0:0,0:0:0:0:
200,272,37074,1,0,0:0:0:0:
279,328,37180,2,0,P|300:282|293:234,1,100,0|2,0:0|0:0,0:0:0:0:
103,311,37391,2,0,P|132:352|178:370,2,100
128,208,37708,2,0,B|192:168|256:184|312:128,1,200,8|0,0:0|0:0,0:0:0:0:
448,232,38131,6,0,P|376:240|328:224,1,100,2|0,0:0|0:0,0:0:0:0:
280,96,38342,2,0,P|352:88|400:104,1,100
472,144,38553,1,8,0:0:0:0:
256,192,38764,1,0,0:0:0:0:
64,96,38976,6,0,L|96:216,1,100,2|0,0:0|0:0,0:0:0:0:
280,288,39187,2,0,L|248:168,1,100
232,64,39398,1,8,0:0:0:0:
96,312,39609,1,0,0:0:0:0:
432,272,39821,5,2,0:0:0:0:
108,76,40032,2,0,P|59:87|20:118,2,100,0|0|8,0:0|0:0|0:0,0:0:0:0:
196,300,40455,1,0,0:0:0:0:
256,220,40560,2,0,L|308:324,1,100,0|2,0:0|0:0,0:0:0:0:
400,332,40771,2,0,L|356:240,2,100
128,164,41088,2,0,P|188:106|300:100,1,200,8|0,0:0|0:0,0:0:0:0:
96,40,41511,5,2,0:0:0:0:
240,304,41722,1,8,0:0:0:0:
448,88,41933,1,2,0:0:0:0:
80,272,42145,1,8,0:0:0:0:
40,148,42250,1,2,0:0:0:0:
384,300,42462,1,8,0:0:0:0:
248,24,42673,1,2,0:0:0:0:
144,84,42778,2,0,P|120:152|124:224,1,100,8|0,0:0|0:0,0:0:0:0:
115,302,43201,6,0,P|83:264|72:216,2,100,8|0|0,0:0|0:0|0:0,0:0:0:0:
172,200,43518,2,0,P|224:256|344:252,1,200,2|2,0:0|0:0,0:0:0:0:
388,164,43835,1,0,0:0:0:0:
452,240,43940,1,2,0:0:0:0:
488,136,44046,6,0,B|436:72|436:72|300:52,1,200,8|0,0:0|0:0,0:0:0:0:
252,128,44363,1,0,0:0:0:0:
180,56,44469,2,0,B|120:140|120:140|96:244,1,200,2|0,0:0|0:0,0:0:0:0:
212,320,44891,5,8,0:0:0:0:
284,252,44997,1,0,0:0:0:0:
340,332,45102,1,0,0:0:0:0:
412,264,45208,2,0,P|396:188|456:88,2,200,2|2|2,0:0|0:0|0:0,0:0:0:0:
472,184,45736,2,0,L|256:144,1,200,8|0,0:0|0:0,0:0:0:0:
276,48,46053,1,0,0:0:0:0:
276,48,46159,2,0,B|216:52|184:112|184:112|88:140,1,200,2|0,0:0|0:0,0:0:0:0:
208,304,46581,6,0,P|260:316|296:368,2,100,8|0|0,0:0|0:0|0:0,0:0:0:0:
116,348,46898,2,0,B|72:276|168:220|96:144,1,200,2|2,0:0|0:0,0:0:0:0:
28,92,47215,2,0,L|128:64,1,100,0|2,0:0|0:0,0:0:0:0:
252,100,47426,6,0,P|232:156|184:180,2,100,8|0|0,0:0|0:0|0:0,0:0:0:0:
332,40,47743,1,0,0:0:0:0:
412,100,47849,2,0,P|432:156|480:180,1,100,2|0,0:0|0:0,0:0:0:0:
420,268,48060,2,0,P|364:288|340:336,1,100
196,288,48271,6,0,L|80:320,1,100,8|0,0:0|0:0,0:0:0:0:
96,212,48483,2,0,L|-20:244,1,100
296,112,48694,2,0,L|412:80,1,100,2|0,0:0|0:0,0:0:0:0:
396,188,48905,2,0,L|512:156,1,100
247,300,49117,6,0,L|72:348,1,100,8|0,0:0|0:0,0:0:0:0:
96,185,49328,2,0,L|-78:233,1,100
264,88,49539,2,4,L|438:40,1,100,6|4,0:0|0:0,0:0:0:0:
415,203,49750,2,4,L|589:155,1,100
368,316,49962,6,0,P|436:364|476:364,2,100,8|0|0,0:0|0:0|0:0,0:0:0:0:
320,228,50278,2,0,B|240:232|224:316|100:304,1,200,2|2,0:0|0:0,0:0:0:0:
64,240,50595,2,0,L|120:144,1,100,0|2,0:0|0:0,0:0:0:0:
164,64,50807,6,0,P|112:40|48:60,1,100,8|0,0:0|0:0,0:0:0:0:
204,212,51018,2,0,P|261:206|306:157,1,100
420,56,51229,2,0,P|396:108|416:172,1,100,2|0,0:0|0:0,0:0:0:0:
500,248,51440,2,0,P|452:284|384:288,1,100
320,256,51652,5,8,0:0:0:0:
228,220,51757,1,0,0:0:0:0:
132,244,51863,1,0,0:0:0:0:
60,316,51969,2,0,B|16:256|80:172|36:100,2,200,2|2|2,0:0|0:0|0:0,0:0:0:0:
148,268,52497,6,0,P|192:328|332:304,1,200,8|0,0:0|0:0,0:0:0:0:
348,236,52814,1,0,0:0:0:0:
348,236,52919,2,0,P|304:176|164:200,1,200,2|0,0:0|0:0,0:0:0:0:
48,32,53342,5,8,0:0:0:0:
116,72,53448,1,0,0:0:0:0:
196,80,53553,1,0,0:0:0:0:
272,56,53659,2,0,P|344:64|436:172,1,200,2|2,0:0|0:0,0:0:0:0:
436,252,53976,2,0,P|387:261|339:249,1,100,0|2,0:0|0:0,0:0:0:0:
260,188,54187,6,0,P|248:264|348:348,1,200,8|0,0:0|0:0,0:0:0:0:
448,120,54504,1,0,0:0:0:0:
448,120,54609,2,0,B|416:52|332:120|268:32,1,200,2|0,0:0|0:0,0:0:0:0:
112,212,55032,6,0,P|63:243|47:288,2,100,8|0|2,0:0|0:0|0:0,0:0:0:0:
171,131,55349,2,0,P|167:73|137:37,2,100,0|8|0,0:0|0:0|0:0,0:0:0:0:
208,223,55666,2,0,P|259:248|305:240,1,100,2|0,0:0|0:0,0:0:0:0:
300,44,55877,6,0,L|272:144,1,100,8|0,0:0|0:0,0:0:0:0:
408,340,56088,2,0,L|436:240,1,100,2|0,0:0|0:0,0:0:0:0:
396,96,56300,1,12,0:0:0:0:
352,208,56405,1,4,0:0:0:0:
248,112,56511,1,6,0:0:0:0:
208,224,56617,1,4,0:0:0:0:
112,128,56722,6,0,B|100:272|24:128|8:268,1,200,6|8,0:0|0:0,0:0:0:0:
84,328,57356,1,0,0:0:0:0:
84,328,57567,2,0,P|156:304|280:332,1,200,2|8,0:0|0:0,0:0:0:0:
308,232,58201,1,0,0:0:0:0:
356,320,58412,5,2,0:0:0:0:
444,268,58624,1,0,0:0:0:0:
468,172,58835,1,8,0:0:0:0:
420,84,59046,1,0,0:0:0:0:
332,36,59257,1,2,0:0:0:0:
136,84,59680,1,8,0:0:0:0:
224,132,59891,1,0,0:0:0:0:
64,152,60102,6,0,P|96:204|92:264,1,100,2|0,0:0|0:0,0:0:0:0:
96,292,60419,2,0,P|148:260|208:264,1,100
236,268,60736,1,0,0:0:0:0:
304,336,60948,6,0,P|368:328|400:300,1,100,2|0,0:0|0:0,0:0:0:0:
412,260,61264,2,0,P|404:196|376:164,1,100
336,160,61581,1,0,0:0:0:0:
156,72,61793,5,2,0:0:0:0:
236,200,62004,1,0,0:0:0:0:
312,16,62215,1,8,0:0:0:0:
380,248,62426,1,0,0:0:0:0:
80,140,62638,1,2,0:0:0:0:
44,176,62743,1,0,0:0:0:0:
32,224,62849,1,8,0:0:0:0:
48,272,62955,1,0,0:0:0:0:
80,308,63060,1,2,0:0:0:0:
124,284,63166,1,0,0:0:0:0:
172,280,63271,1,8,0:0:0:0:
220,300,63377,1,0,0:0:0:0:
260,328,63483,6,0,P|312:336|368:212,1,200,2|8,0:0|0:0,0:0:0:0:
272,220,64117,1,0,0:0:0:0:
448,164,64328,2,0,P|396:80|292:36,1,200,2|8,0:0|0:0,0:0:0:0:
208,40,64962,1,0,0:0:0:0:
120,84,65173,5,2,0:0:0:0:
232,248,65384,1,0,0:0:0:0:
44,184,65595,1,8,0:0:0:0:
232,120,65807,1,0,0:0:0:0:
120,284,66018,1,2,0:0:0:0:
376,300,66440,1,8,0:0:0:0:
288,252,66652,1,0,0:0:0:0:
448,232,66863,6,0,P|416:180|420:92,1,150.000005722046,2|0,0:0|0:0,0:0:0:0:
416,20,67180,2,0,P|364:52|248:44,1,150.000005722046
212,20,67497,1,0,0:0:0:0:
216,172,67708,6,0,P|152:180|84:236,1,150.000005722046,2|0,0:0|0:0,0:0:0:0:
56,300,68025,2,0,P|124:348|208:344,1,150.000005722046
244,300,68342,1,0,0:0:0:0:
308,164,68553,5,2,0:0:0:0:
372,200,68659,1,0,0:0:0:0:
392,272,68764,1,0,0:0:0:0:
196,152,68976,1,8,0:0:0:0:
248,100,69081,1,0,0:0:0:0:
324,88,69187,1,0,0:0:0:0:
184,344,69398,5,2,0:0:0:0:
116,312,69504,1,0,0:0:0:0:
64,256,69609,1,0,0:0:0:0:
40,184,69715,1,0,0:0:0:0:
28,108,69821,1,12,0:0:0:0:
88,64,69926,1,4,0:0:0:0:
160,44,70032,1,4,0:0:0:0:
236,44,70138,1,4,0:0:0:0:
308,68,70243,6,0,L|336:24,2,50,2|0|0,0:0|0:0|0:0,0:0:0:0:
352,156,70666,2,0,L|324:200,2,50,2|0|0,0:0|0:0|0:0,0:0:0:0:
448,136,71088,5,2,0:0:0:0:
412,332,71511,2,0,P|356:292|268:296,1,150,2|0,0:0|0:0,0:0:0:0:
188,340,71933,6,0,P|156:240|72:176,1,200,8|2,0:0|0:0,0:0:0:0:
84,80,72250,2,0,P|192:36|304:80,1,200,8|8,0:0|0:0,0:0:0:0:
380,160,72567,2,0,P|328:164|272:136,1,100,2|0,0:0|0:0,0:0:0:0:
200,96,72778,6,0,P|160:148|168:212,2,100,8|0|2,0:0|0:0|0:0,0:0:0:0:
272,164,73095,2,0,P|320:128|468:168,1,200,8|8,0:0|0:0,0:0:0:0:
460,248,73412,2,0,P|420:280|352:288,1,100,2|0,0:0|0:0,0:0:0:0:
284,340,73624,6,0,P|232:300|180:304,1,100,8|0,0:0|0:0,0:0:0:0:
108,340,73835,1,2,0:0:0:0:
108,340,73940,1,0,0:0:0:0:
60,252,74046,2,0,P|96:164|152:144,1,100,8|0,0:0|0:0,0:0:0:0:
192,208,74257,2,0,P|176:240|188:312,1,100,2|8,0:0|0:0,0:0:0:0:
320,176,74469,6,0,P|336:144|324:72,1,100,8|0,0:0|0:0,0:0:0:0:
320,272,74680,2,0,P|356:296|444:296,1,100,2|0,0:0|0:0,0:0:0:0:
488,176,74891,2,0,P|432:168|384:148,1,100.000000298023,8|0,0:0|0:0,0:0:0:0:
320,80,75102,1,2,0:0:0:0:
320,80,75208,1,0,0:0:0:0:
228,40,75314,6,0,L|144:120,1,100,8|0,0:0|0:0,0:0:0:0:
72,56,75525,2,0,L|28:152,1,100,2|0,0:0|0:0,0:0:0:0:
60,244,75736,1,8,0:0:0:0:
152,288,75842,2,0,P|220:296|288:260,2,100,0|2|0,0:0|0:0|0:0,0:0:0:0:
212,208,76159,6,0,B|268:192|268:192|296:136,1,100,8|0,0:0|0:0,0:0:0:0:
252,60,76370,2,0,B|196:76|196:76|168:132,1,100,2|0,0:0|0:0,0:0:0:0:
116,184,76581,1,8,0:0:0:0:
116,184,76687,1,0,0:0:0:0:
52,108,76793,2,0,P|64:56|116:4,1,100,2|0,0:0|0:0,0:0:0:0:
240,40,77004,6,0,P|194:59|161:96,1,100,8|0,0:0|0:0,0:0:0:0:
312,116,77215,2,0,P|359:100|408:106,1,100,2|0,0:0|0:0,0:0:0:0:
472,244,77426,2,0,P|432:214|383:203,2,100,8|0|2,0:0|0:0|0:0,0:0:0:0:
500,340,77743,1,0,0:0:0:0:
408,300,77849,6,0,P|344:272|216:292,1,200,8|2,0:0|0:0,0:0:0:0:
104,84,78271,2,0,P|168:112|296:92,1,200,8|2,0:0|0:0,0:0:0:0:
464,196,78694,6,0,P|408:224|372:224,1,100,8|0,0:0|0:0,0:0:0:0:
280,180,78905,2,0,P|236:216|228:280,1,100,2|0,0:0|0:0,0:0:0:0:
236,356,79117,2,0,P|164:364|116:336,1,100,8|0,0:0|0:0,0:0:0:0:
48,236,79328,2,0,P|120:228|168:256,1,100,2|0,0:0|0:0,0:0:0:0:
376,312,79539,6,0,P|432:248|396:108,1,200,8|2,0:0|0:0,0:0:0:0:
348,72,79856,1,0,0:0:0:0:
280,148,79962,2,0,P|248:116|240:60,1,100,8|0,0:0|0:0,0:0:0:0:
148,20,80173,2,0,P|112:56|104:144,1,100,2|0,0:0|0:0,0:0:0:0:
84,200,80384,6,0,P|92:264|140:304,1,100,8|0,0:0|0:0,0:0:0:0:
208,320,80595,2,0,P|260:296|288:248,2,100,2|0|8,0:0|0:0|0:0,0:0:0:0:
200,220,80912,1,0,0:0:0:0:
284,168,81018,6,0,B|352:184|388:248|472:240,2,200,2|8|2,0:0|0:0|0:0,0:0:0:0:
196,136,81546,1,0,0:0:0:0:
100,92,81652,2,0,P|136:52|188:36,1,100,8|0,0:0|0:0,0:0:0:0:
196,136,81863,2,0,P|148:184|100:192,1,100,2|0,0:0|0:0,0:0:0:0:
20,180,82074,6,0,P|52:272|176:308,1,200,0|2,0:0|0:0,0:0:0:0:
492,180,82497,2,0,P|460:272|336:308,1,200,8|2,0:0|0:0,0:0:0:0:
284,260,82814,2,0,P|316:168|432:96,1,200,8|8,0:0|0:0,0:0:0:0:
488,68,83131,2,0,P|432:20|256:8,1,200,2|8,0:0|0:0,0:0:0:0:
248,72,83448,1,0,0:0:0:0:
148,108,83553,1,2,0:0:0:0:
76,180,83659,1,0,0:0:0:0:
72,280,83764,6,0,L|160:348,1,100,8|0,0:0|0:0,0:0:0:0:
308,212,83976,2,0,L|396:280,1,100,2|0,0:0|0:0,0:0:0:0:
400,108,84187,6,0,L|312:40,1,100,8|0,0:0|0:0,0:0:0:0:
164,176,84398,2,0,L|76:108,1,100,2|0,0:0|0:0,0:0:0:0:
220,312,84609,6,0,P|256:340|324:344,2,100,8|0|2,0:0|0:0|0:0,0:0:0:0:
292,72,84926,2,0,P|256:44|188:40,2,100,0|12|4,0:0|0:0|0:0,0:0:0:0:
472,192,85243,2,0,L|344:192,1,100,6|4,0:0|0:0,0:0:0:0:
320,108,85455,6,0,P|280:148|356:276,1,200,12|2,0:0|0:0,0:0:0:0:
408,320,85771,2,0,P|316:380|188:308,1,200,8|8,0:0|0:0,0:0:0:0:
132,252,86088,2,0,P|176:232|244:248,1,100,2|0,0:0|0:0,0:0:0:0:
312,288,86300,6,0,P|352:236|344:172,2,100,8|0|2,0:0|0:0|0:0,0:0:0:0:
240,220,86617,2,0,P|192:256|44:216,1,200,8|8,0:0|0:0,0:0:0:0:
52,136,86933,2,0,P|92:104|160:96,1,100,2|0,0:0|0:0,0:0:0:0:
228,44,87145,6,0,P|280:84|332:80,1,100,8|0,0:0|0:0,0:0:0:0:
404,44,87356,1,2,0:0:0:0:
404,44,87462,1,0,0:0:0:0:
452,132,87567,2,0,P|416:220|360:240,1,100,8|0,0:0|0:0,0:0:0:0:
320,176,87778,2,0,P|336:144|324:72,1,100,2|0,0:0|0:0,0:0:0:0:
192,208,87990,6,0,P|176:240|188:312,1,100,8|0,0:0|0:0,0:0:0:0:
192,112,88201,2,0,P|156:88|68:88,1,100,2|0,0:0|0:0,0:0:0:0:
24,208,88412,2,0,P|84:208|128:232,1,100.000000298023,8|0,0:0|0:0,0:0:0:0:
192,304,88624,1,2,0:0:0:0:
192,304,88729,1,0,0:0:0:0:
280,344,88835,6,0,L|352:252,1,100,8|0,0:0|0:0,0:0:0:0:
440,328,89046,2,0,L|484:232,1,100,2|0,0:0|0:0,0:0:0:0:
452,140,89257,1,8,0:0:0:0:
360,96,89363,2,0,P|292:88|224:124,2,100,0|2|0,0:0|0:0|0:0,0:0:0:0:
452,140,89680,6,0,P|396:192|344:188,1,100,8|0,0:0|0:0,0:0:0:0:
280,168,89891,2,0,P|256:192|272:280,2,100,2|0|0,0:0|0:0|0:0,0:0:0:0:
376,196,90208,1,0,0:0:0:0:
460,276,90314,2,0,P|448:328|396:380,1,100,2|0,0:0|0:0,0:0:0:0:
272,344,90525,6,0,P|317:324|350:287,1,100,8|0,0:0|0:0,0:0:0:0:
200,268,90736,2,0,P|152:283|103:277,1,100,2|0,0:0|0:0,0:0:0:0:
40,140,90948,2,0,P|79:169|128:180,2,100,8|0|2,0:0|0:0|0:0,0:0:0:0:
12,44,91264,1,0,0:0:0:0:
104,84,91370,6,0,P|168:112|296:92,1,200,8|2,0:0|0:0,0:0:0:0:
408,300,91793,2,0,P|344:272|216:292,1,200,8|2,0:0|0:0,0:0:0:0:
48,188,92215,6,0,P|104:160|140:160,1,100,8|0,0:0|0:0,0:0:0:0:
232,204,92426,2,0,P|276:168|284:104,1,100,2|0,0:0|0:0,0:0:0:0:
276,28,92638,2,0,P|348:20|396:48,1,100,8|0,0:0|0:0,0:0:0:0:
464,148,92849,2,0,P|392:156|344:128,1,100,2|0,0:0|0:0,0:0:0:0:
136,72,93060,6,0,P|80:136|116:276,1,200,8|2,0:0|0:0,0:0:0:0:
164,312,93377,1,0,0:0:0:0:
232,236,93483,2,0,P|264:268|272:324,1,100,8|0,0:0|0:0,0:0:0:0:
364,364,93694,2,0,P|400:328|408:240,1,100,2|0,0:0|0:0,0:0:0:0:
428,184,93905,6,0,P|420:120|372:80,1,100,8|0,0:0|0:0,0:0:0:0:
304,64,94117,2,0,P|252:88|224:136,2,100,2|0|8,0:0|0:0|0:0,0:0:0:0:
312,164,94433,1,0,0:0:0:0:
228,216,94539,6,0,B|160:200|124:136|40:144,2,200,2|8|2,0:0|0:0|0:0,0:0:0:0:
316,248,95067,1,0,0:0:0:0:
412,292,95173,2,0,P|376:332|324:348,1,100,8|0,0:0|0:0,0:0:0:0:
316,248,95384,2,0,P|364:200|412:192,1,100,2|0,0:0|0:0,0:0:0:0:
492,204,95595,6,0,P|460:112|336:76,1,200,8|2,0:0|0:0,0:0:0:0:
20,204,96018,2,0,P|52:112|176:76,1,200,8|2,0:0|0:0,0:0:0:0:
228,124,96335,2,0,P|196:216|80:288,1,200,8|8,0:0|0:0,0:0:0:0:
24,316,96652,2,0,P|80:364|256:376,1,200,2|8,0:0|0:0,0:0:0:0:
364,276,97074,1,2,0:0:0:0:
436,204,97180,1,0,0:0:0:0:
440,104,97286,6,0,L|352:36,1,100,8|0,0:0|0:0,0:0:0:0:
204,172,97497,2,0,L|116:104,1,100,2|0,0:0|0:0,0:0:0:0:
112,276,97708,6,0,L|200:344,1,100,8|0,0:0|0:0,0:0:0:0:
348,208,97919,2,0,L|436:276,1,100,2|0,0:0|0:0,0:0:0:0:
292,72,98131,5,8,0:0:0:0:
148,36,98236,2,0,L|64:104,1,100,0|2,0:0|0:0,0:0:0:0:
148,316,98448,5,0,0:0:0:0:
296,284,98553,2,0,L|218:221,1,100,12|4,0:0|0:0,0:0:0:0:
140,164,98764,2,0,L|40:164,1,100,6|4,0:0|0:0,0:0:0:0:
240,128,98976,6,0,B|296:180|368:112|428:172,1,200,6|8,0:0|0:0,0:0:0:0:
424,204,100243,1,8,0:0:0:0:
276,340,100666,5,2,0:0:0:0:
276,340,101511,1,2,0:0:0:0:
228,248,101722,1,8,0:0:0:0:
136,324,101933,1,2,0:0:0:0:
116,184,102145,1,8,0:0:0:0:
228,72,102356,6,0,P|344:64|400:140,1,200,2|2,0:0|0:0,0:0:0:0:
396,120,103624,5,2,0:0:0:0:
428,316,104046,6,0,P|372:336|320:320,1,100,2|8,0:0|0:0,0:0:0:0:
292,304,104363,2,0,P|260:256|260:212,1,100,2|2,0:0|0:0,0:0:0:0:
272,168,104680,1,8,0:0:0:0:
308,132,104786,1,0,0:0:0:0:
356,116,104891,5,2,0:0:0:0:
332,72,104997,1,0,0:0:0:0:
292,44,105102,1,8,0:0:0:0:
244,36,105208,1,0,0:0:0:0:
196,40,105314,5,2,0:0:0:0:
152,60,105419,1,0,0:0:0:0:
116,96,105525,1,8,0:0:0:0:
96,144,105631,1,0,0:0:0:0:
76,192,105736,5,2,0:0:0:0:
88,240,105842,1,0,0:0:0:0:
100,288,105948,1,8,0:0:0:0:
112,336,106053,2,0,P|164:360|232:356,1,100,2|2,0:0|0:0,0:0:0:0:
248,336,106370,2,0,P|308:324|360:348,1,100,8|2,0:0|0:0,0:0:0:0:
440,204,107004,5,2,0:0:0:0:
432,156,107109,1,0,0:0:0:0:
420,108,107215,1,8,0:0:0:0:
408,60,107321,2,0,P|356:36|288:40,1,100,2|2,0:0|0:0,0:0:0:0:
272,60,107638,2,0,P|212:72|160:48,1,100,8|2,0:0|0:0,0:0:0:0:
72,248,108271,5,2,0:0:0:0:
72,248,108377,1,0,0:0:0:0:
72,248,108483,1,8,0:0:0:0:
200,168,108694,1,2,0:0:0:0:
200,168,108800,1,0,0:0:0:0:
200,168,108905,1,8,0:0:0:0:
192,296,109117,6,0,P|248:316|264:316,1,50,2|0,0:0|0:0,0:0:0:0:
416,224,109328,2,0,P|360:204|344:204,1,50,8|0,0:0|0:0,0:0:0:0:
248,116,109539,2,0,P|228:172|228:188,1,50,2|0,0:0|0:0,0:0:0:0:
368,356,109750,2,0,P|388:300|388:284,1,50,8|0,0:0|0:0,0:0:0:0:
500,172,109962,5,2,0:0:0:0:
476,112,110067,1,0,0:0:0:0:
424,72,110173,1,8,0:0:0:0:
360,60,110278,1,0,0:0:0:0:
296,72,110384,1,2,0:0:0:0:
248,116,110490,1,0,0:0:0:0:
232,180,110595,1,8,0:0:0:0:
260,240,110701,1,0,0:0:0:0:
296,292,110807,6,0,P|232:320|184:320,1,100.000000298023,2|8,0:0|0:0,0:0:0:0:
20,240,111437,2,0,P|76:240|128:200,1,100,2|8,0:0|0:0,0:0:0:0:
192,36,112069,1,2,0:0:0:0:
128,112,112384,1,8,0:0:0:0:
192,136,112490,1,0,0:0:0:0:
260,140,112595,1,0,0:0:0:0:
324,136,112700,2,0,P|356:132|424:96,1,100.000000298023,2|0,0:0|0:0,0:0:0:0:
416,100,113332,5,8,0:0:0:0:
484,288,113648,1,2,0:0:0:0:
296,220,113963,1,8,0:0:0:0:
296,220,114042,1,0,0:0:0:0:
296,220,114121,1,0,0:0:0:0:
272,356,114279,1,2,0:0:0:0:
164,244,114437,1,0,0:0:0:0:
32,352,114595,5,8,0:0:0:0:
44,344,114674,1,0,0:0:0:0:
56,332,114753,1,0,0:0:0:0:
208,192,114911,1,2,0:0:0:0:
60,192,115069,1,0,0:0:0:0:
132,60,115227,1,8,0:0:0:0:
144,64,115306,1,0,0:0:0:0:
160,68,115384,1,0,0:0:0:0:
264,80,115542,1,2,0:0:0:0:
360,76,115700,2,0,L|376:112,1,25
400,168,115858,5,8,0:0:0:0:
200,188,116174,1,2,0:0:0:0:
464,248,116490,1,8,0:0:0:0:
464,248,116569,1,0,0:0:0:0:
464,248,116648,1,0,0:0:0:0:
260,344,116806,1,2,0:0:0:0:
352,232,116963,1,0,0:0:0:0:
132,316,117121,5,8,0:0:0:0:
144,308,117200,1,0,0:0:0:0:
156,300,117279,1,0,0:0:0:0:
364,128,117437,1,2,0:0:0:0:
172,176,117595,1,0,0:0:0:0:
448,216,117753,5,8,0:0:0:0:
400,232,117832,1,0,0:0:0:0:
352,228,117911,1,0,0:0:0:0:
304,212,117990,1,0,0:0:0:0:
272,172,118069,1,2,0:0:0:0:
268,124,118148,1,0,0:0:0:0:
244,80,118227,1,0,0:0:0:0:
196,64,118306,1,0,0:0:0:0:
144,68,118384,5,8,0:0:0:0:
144,68,118700,1,2,0:0:0:0:
32,236,119016,1,8,0:0:0:0:
32,236,119095,1,0,0:0:0:0:
32,236,119174,1,0,0:0:0:0:
32,236,119332,1,2,0:0:0:0:
228,324,119490,1,0,0:0:0:0:
348,152,119648,5,8,0:0:0:0:
164,228,119963,1,2,0:0:0:0:
452,356,120279,1,8,0:0:0:0:
436,360,120358,1,0,0:0:0:0:
420,364,120437,1,0,0:0:0:0:
452,188,120595,1,2,0:0:0:0:
268,264,120753,1,0,0:0:0:0:
368,60,120911,6,0,P|416:72|460:120,1,100,8|2,0:0|0:0,0:0:0:0:
268,184,121542,1,8,0:0:0:0:
252,180,121621,1,0,0:0:0:0:
236,176,121700,1,0,0:0:0:0:
292,76,121858,1,2,0:0:0:0:
116,140,122016,1,0,0:0:0:0:
316,316,122174,5,8,0:0:0:0:
356,288,122253,1,0,0:0:0:0:
380,244,122332,1,0,0:0:0:0:
384,196,122411,1,0,0:0:0:0:
372,148,122490,1,2,0:0:0:0:
372,148,122648,1,0,0:0:0:0:
136,192,122806,2,0,B|152:228|196:228|208:264,1,100,8|2,0:0|0:0,0:0:0:0:
96,284,123437,5,8,0:0:0:0:
28,96,123753,1,2,0:0:0:0:
216,164,124069,1,8,0:0:0:0:
216,164,124148,1,0,0:0:0:0:
216,164,124227,1,0,0:0:0:0:
240,28,124384,1,2,0:0:0:0:
348,140,124542,1,0,0:0:0:0:
480,32,124700,5,8,0:0:0:0:
468,40,124779,1,0,0:0:0:0:
456,52,124858,1,0,0:0:0:0:
304,192,125016,1,2,0:0:0:0:
452,192,125174,1,0,0:0:0:0:
380,324,125332,1,8,0:0:0:0:
368,320,125411,1,0,0:0:0:0:
352,316,125490,1,0,0:0:0:0:
504,248,125648,1,2,0:0:0:0:
176,308,125806,2,0,L|160:272,1,25
136,216,125963,5,8,0:0:0:0:
312,196,126279,1,2,0:0:0:0:
48,136,126595,1,8,0:0:0:0:
48,136,126674,1,0,0:0:0:0:
48,136,126753,1,0,0:0:0:0:
252,40,126911,1,2,0:0:0:0:
160,152,127069,1,0,0:0:0:0:
380,68,127227,1,8,0:0:0:0:
368,76,127306,1,0,0:0:0:0:
356,84,127384,1,0,0:0:0:0:
148,256,127542,5,2,0:0:0:0:
340,208,127700,1,0,0:0:0:0:
64,168,127858,1,8,0:0:0:0:
112,152,127937,1,0,0:0:0:0:
160,156,128016,1,0,0:0:0:0:
208,172,128095,1,0,0:0:0:0:
240,212,128174,1,2,0:0:0:0:
244,260,128253,1,0,0:0:0:0:
268,304,128332,1,0,0:0:0:0:
316,320,128411,1,0,0:0:0:0:
368,316,128490,5,8,0:0:0:0:
368,316,128806,1,2,0:0:0:0:
480,148,129121,1,8,0:0:0:0:
480,148,129200,1,0,0:0:0:0:
480,148,129279,1,0,0:0:0:0:
480,148,129437,1,2,0:0:0:0:
284,60,129595,1,0,0:0:0:0:
164,232,129753,5,8,0:0:0:0:
348,156,130069,1,2,0:0:0:0:
60,28,130384,1,8,0:0:0:0:
76,24,130463,1,0,0:0:0:0:
92,20,130542,1,0,0:0:0:0:
60,196,130700,1,2,0:0:0:0:
244,120,130858,1,0,0:0:0:0:
144,324,131016,6,0,P|96:312|52:264,1,100,8|2,0:0|0:0,0:0:0:0:
244,200,131648,1,8,0:0:0:0:
260,204,131727,1,0,0:0:0:0:
276,208,131806,1,0,0:0:0:0:
220,308,131963,1,2,0:0:0:0:
396,244,132121,1,0,0:0:0:0:
196,68,132279,5,8,0:0:0:0:
156,96,132358,1,0,0:0:0:0:
132,140,132437,1,0,0:0:0:0:
128,188,132516,1,0,0:0:0:0:
140,236,132595,1,2,0:0:0:0:
140,236,132753,1,0,0:0:0:0:
376,192,132911,2,0,P|364:132|336:88,1,100,8|2,0:0|0:0,0:0:0:0:
184,80,133542,6,0,P|192:144|108:216,1,175,8|0,0:0|0:0,0:0:0:0:
195,310,134174,6,0,P|246:271|350:308,1,175,8|0,0:0|0:0,0:0:0:0:
388,185,134806,6,0,P|329:160|309:51,1,175,8|0,0:0|0:0,0:0:0:0:
492,232,135437,6,0,P|452:276|336:280,1,175,8|0,0:0|0:0,0:0:0:0:
192,336,136069,6,0,P|173:279|228:176,1,175,8|0,0:0|0:0,0:0:0:0:
224,40,136700,6,0,P|282:52|296:82,1,75,8|0,0:0|0:0,0:0:0:0:
388,204,137016,2,0,P|329:191|315:161,1,75,8|0,0:0|0:0,0:0:0:0:
448,72,137332,5,8,0:0:0:0:
256,192,137411,12,0,140285,0:0:0:0:
140,136,140707,5,8,0:0:0:0:
140,136,140812,1,0,0:0:0:0:
140,136,140918,2,0,P|188:200|184:280,1,150.000005722046,2|8,0:0|0:0,0:0:0:0:
148,332,141235,1,0,0:0:0:0:
148,332,141340,2,0,P|216:368|312:360,1,150.000005722046,2|8,0:0|0:0,0:0:0:0:
336,308,141657,1,0,0:0:0:0:
336,308,141763,2,0,P|340:232|432:224,1,150.000005722046,2|8,0:0|0:0,0:0:0:0:
472,184,142080,2,0,P|456:136|428:108,1,75.0000028610231,0|2,0:0|0:0,0:0:0:0:
308,44,142397,6,0,P|260:120|188:128,1,150.000005722046,8|2,0:0|0:0,0:0:0:0:
136,100,142714,1,0,0:0:0:0:
88,44,142819,2,0,P|32:96|36:192,1,150.000005722046,8|2,0:0|0:0,0:0:0:0:
64,312,143242,1,8,0:0:0:0:
136,304,143347,1,0,0:0:0:0:
200,340,143453,1,2,0:0:0:0:
300,228,143664,1,8,0:0:0:0:
376,240,143770,1,0,0:0:0:0:
432,192,143876,1,2,0:0:0:0:
444,120,143981,1,0,0:0:0:0:
396,64,144087,6,0,P|320:64|256:112,1,150.000005722046,8|2,0:0|0:0,0:0:0:0:
120,152,144509,2,0,P|148:80|224:32,1,150.000005722046,8|2,0:0|0:0,0:0:0:0:
384,176,144932,2,0,P|356:248|280:296,1,150.000005722046,8|2,0:0|0:0,0:0:0:0:
76,260,145354,2,0,P|164:220|240:236,1,150.000005722046,8|2,0:0|0:0,0:0:0:0:
320,336,145777,6,0,L|432:200,1,150.000005722046,8|2,0:0|0:0,0:0:0:0:
416,72,146094,1,0,0:0:0:0:
416,72,146199,2,0,P|340:116|252:104,1,150.000005722046,8|2,0:0|0:0,0:0:0:0:
164,20,146516,1,0,0:0:0:0:
164,20,146622,2,0,P|96:84|100:188,1,150.000005722046,8|2,0:0|0:0,0:0:0:0:
232,168,146939,1,0,0:0:0:0:
232,168,147045,2,0,P|272:256|364:288,1,150.000005722046,0|2,0:0|0:0,0:0:0:0:
464,268,147467,6,0,P|416:204|420:124,1,150.000005722046,8|2,0:0|0:0,0:0:0:0:
432,60,147784,1,0,0:0:0:0:
432,60,147890,2,0,B|360:32|360:32|280:64,1,150.000005722046,8|2,0:0|0:0,0:0:0:0:
216,60,148207,1,0,0:0:0:0:
216,60,148312,2,0,P|212:136|120:144,1,150.000005722046,8|2,0:0|0:0,0:0:0:0:
88,120,148629,2,0,P|52:168|48:208,1,75.0000028610231,0|8,0:0|0:0,0:0:0:0:
264,328,148946,1,2,0:0:0:0:
116,332,149157,6,0,P|164:256|240:232,1,150.000005722046,8|2,0:0|0:0,0:0:0:0:
292,236,149474,1,0,0:0:0:0:
348,284,149580,2,0,P|404:232|400:136,1,150.000005722046,8|2,0:0|0:0,0:0:0:0:
316,44,150002,1,8,0:0:0:0:
244,52,150108,1,0,0:0:0:0:
180,16,150214,1,2,0:0:0:0:
184,164,150425,1,8,0:0:0:0:
108,152,150530,1,0,0:0:0:0:
52,200,150636,1,2,0:0:0:0:
40,272,150742,1,0,0:0:0:0:
88,328,150847,6,0,P|164:328|228:280,1,150.000005722046,8|2,0:0|0:0,0:0:0:0:
392,232,151270,2,0,P|364:304|288:352,1,150.000005722046,8|2,0:0|0:0,0:0:0:0:
128,208,151692,2,0,P|156:136|232:88,1,150.000005722046,8|2,0:0|0:0,0:0:0:0:
436,124,152115,6,0,P|348:164|272:148,1,150.000005722046,8|2,0:0|0:0,0:0:0:0:
192,48,152537,6,0,L|80:184,1,150.000005722046,8|2,0:0|0:0,0:0:0:0:
96,312,152854,1,0,0:0:0:0:
96,312,152960,2,0,P|172:268|260:280,1,150.000005722046,8|2,0:0|0:0,0:0:0:0:
348,364,153277,1,0,0:0:0:0:
348,364,153383,2,0,P|416:300|412:196,1,150.000005722046,8|2,0:0|0:0,0:0:0:0:
280,216,153699,1,0,0:0:0:0:
280,216,153805,2,0,P|240:128|148:96,1,150.000005722046,8|2,0:0|0:0,0:0:0:0:
268,32,154228,5,8,0:0:0:0:
344,56,154333,1,0,0:0:0:0:
392,120,154439,1,0,0:0:0:0:
412,200,154545,2,0,L|308:252,1,100,0|2,0:0|0:0,0:0:0:0:
320,344,154756,2,0,P|348:348|420:316,2,100
208,304,155073,6,0,P|208:216|296:144,1,200,8|0,0:0|0:0,0:0:0:0:
144,56,155495,2,0,P|144:144|56:216,1,200,2|0,0:0|0:0,0:0:0:0:
224,336,155918,5,8,0:0:0:0:
288,256,156023,1,0,0:0:0:0:
272,160,156129,1,0,0:0:0:0:
208,84,156235,2,0,P|152:96|104:144,1,100,0|2,0:0|0:0,0:0:0:0:
32,72,156446,2,0,P|4:116|4:176,2,100
264,180,156763,6,0,P|183:225|48:202,1,200,8|0,0:0|0:0,0:0:0:0:
432,124,157185,2,0,P|478:205|455:340,1,200,2|0,0:0|0:0,0:0:0:0:
312,56,157608,5,8,0:0:0:0:
340,132,157714,1,0,0:0:0:0:
296,196,157819,1,0,0:0:0:0:
216,208,157925,2,0,L|112:176,1,100,0|2,0:0|0:0,0:0:0:0:
40,248,158136,2,0,L|72:360,2,100
80,80,158453,6,0,L|144:288,1,200,8|0,0:0|0:0,0:0:0:0:
240,296,158770,1,0,0:0:0:0:
240,296,158876,2,0,P|208:200|88:192,1,200,2|0,0:0|0:0,0:0:0:0:
80,376,159298,6,0,P|120:288|256:240,1,200,8|0,0:0|0:0,0:0:0:0:
472,304,159721,2,0,P|376:313|267:219,1,200,2|0,0:0|0:0,0:0:0:0:
216,0,160143,2,0,P|273:78|246:220,1,200,8|0,0:0|0:0,0:0:0:0:
192,360,160566,2,0,L|312:320,1,100,6|4,0:0|0:0,0:0:0:0:
328,232,160777,2,0,L|208:272,1,100,4|4,0:0|0:0,0:0:0:0:
152,200,160988,5,12,0:0:0:0:
128,296,161094,1,0,0:0:0:0:
40,248,161199,1,0,0:0:0:0:
56,152,161305,2,0,P|24:128|0:56,2,100,0|2|0,0:0|0:0|0:0,0:0:0:0:
112,72,161622,2,0,P|168:96|232:80,1,100
276,24,161833,6,0,B|300:108|408:64|440:180,1,200,8|0,0:0|0:0,0:0:0:0:
392,224,162150,1,0,0:0:0:0:
392,224,162256,2,0,P|320:264|328:384,1,200,2|0,0:0|0:0,0:0:0:0:
408,328,162573,1,0,0:0:0:0:
336,264,162678,5,8,0:0:0:0:
240,304,162784,1,0,0:0:0:0:
144,288,162890,1,0,0:0:0:0:
72,224,162995,2,0,P|56:104|88:32,2,200,0|0|2,0:0|0:0|0:0,0:0:0:0:
152,168,163523,6,0,P|184:224|320:256,1,200,8|0,0:0|0:0,0:0:0:0:
400,224,163840,1,0,0:0:0:0:
448,136,163946,2,0,L|256:0,1,200,2|0,0:0|0:0,0:0:0:0:
88,56,164368,5,8,0:0:0:0:
184,72,164474,1,0,0:0:0:0:
256,136,164580,1,0,0:0:0:0:
272,232,164685,2,0,P|192:256|120:352,2,200,2|2|2,0:0|0:0|0:0,0:0:0:0:
264,336,165214,6,0,P|192:294|143:184,1,200,8|0,0:0|0:0,0:0:0:0:
160,104,165530,1,0,0:0:0:0:
160,104,165636,2,0,P|233:62|353:75,1,200,2|0,0:0|0:0,2:0:0:0:
464,200,166059,6,0,L|424:312,2,100,8|0|2,0:0|0:0|0:0,0:0:0:0:
400,120,166376,2,0,L|360:8,2,100,0|8|0,0:0|0:0|0:0,0:0:0:0:
352,208,166692,2,0,L|224:200,1,100,2|0,0:0|0:0,0:0:0:0:
152,196,166904,6,0,P|168:256|216:292,1,100,8|0,0:0|0:0,0:0:0:0:
284,120,167115,2,0,L|180:64,1,100,2|0,0:0|0:0,0:0:0:0:
104,320,167326,1,12,0:0:0:0:
196,280,167432,1,4,0:0:0:0:
288,240,167537,1,6,0:0:0:0:
380,200,167643,1,4,0:0:0:0:
476,160,167749,6,0,P|548:220|488:328,1,200,6|8,0:0|0:0,0:0:0:0:
420,328,168383,1,0,0:0:0:0:
420,328,168594,2,0,P|348:304|224:332,1,200,2|8,0:0|0:0,0:0:0:0:
204,232,169228,1,0,0:0:0:0:
156,320,169439,5,2,0:0:0:0:
68,268,169650,1,0,0:0:0:0:
44,172,169861,1,8,0:0:0:0:
92,84,170073,1,0,0:0:0:0:
180,36,170284,1,2,0:0:0:0:
376,84,170707,1,8,0:0:0:0:
288,132,170918,1,0,0:0:0:0:
448,152,171129,6,0,P|416:204|420:264,1,100,2|0,0:0|0:0,0:0:0:0:
416,292,171446,2,0,P|364:260|304:264,1,100
276,268,171763,1,0,0:0:0:0:
208,336,171974,6,0,P|144:328|112:300,1,100,2|0,0:0|0:0,0:0:0:0:
100,260,172291,2,0,P|108:196|136:164,1,100
176,160,172608,1,0,0:0:0:0:
356,72,172819,5,2,0:0:0:0:
276,200,173030,1,0,0:0:0:0:
200,16,173242,1,8,0:0:0:0:
132,248,173453,1,0,0:0:0:0:
432,140,173664,5,2,0:0:0:0:
468,176,173770,1,0,0:0:0:0:
480,224,173876,1,0,0:0:0:0:
464,272,173981,1,0,0:0:0:0:
432,308,174087,1,8,0:0:0:0:
388,284,174192,1,0,0:0:0:0:
340,280,174298,1,0,0:0:0:0:
292,300,174404,1,0,0:0:0:0:
252,328,174509,6,0,P|200:336|144:212,1,200,2|8,0:0|0:0,0:0:0:0:
240,220,175143,1,0,0:0:0:0:
64,164,175354,2,0,P|116:80|220:36,1,200,2|8,0:0|0:0,0:0:0:0:
304,40,175988,1,0,0:0:0:0:
392,84,176199,5,2,0:0:0:0:
280,248,176411,1,0,0:0:0:0:
468,184,176622,1,8,0:0:0:0:
280,120,176833,1,0,0:0:0:0:
392,284,177045,1,2,0:0:0:0:
136,300,177467,1,8,0:0:0:0:
224,252,177678,1,0,0:0:0:0:
64,232,177890,6,0,P|96:180|92:92,1,150.000005722046,2|0,0:0|0:0,0:0:0:0:
96,0,178207,2,0,P|148:32|264:24,1,150.000005722046
300,20,178523,1,0,0:0:0:0:
296,172,178735,6,0,P|360:180|428:236,1,150.000005722046,2|0,0:0|0:0,0:0:0:0:
456,300,179052,2,0,P|388:348|304:344,1,150.000005722046
268,300,179368,1,0,0:0:0:0:
204,164,179580,5,2,0:0:0:0:
140,200,179685,1,0,0:0:0:0:
120,272,179791,1,0,0:0:0:0:
316,152,180002,1,8,0:0:0:0:
264,100,180108,1,0,0:0:0:0:
188,88,180214,1,0,0:0:0:0:
328,344,180425,1,2,0:0:0:0:
396,312,180530,1,0,0:0:0:0:
448,256,180636,1,0,0:0:0:0:
472,184,180742,1,0,0:0:0:0:
484,108,180847,5,8,0:0:0:0:
424,64,180953,1,0,0:0:0:0:
352,44,181059,1,0,0:0:0:0:
276,44,181164,1,0,0:0:0:0:
204,68,181270,2,0,L|176:24,2,50,2|0|0,0:0|0:0|0:0,0:0:0:0:
160,156,181692,2,0,L|188:200,2,50,2|0|0,0:0|0:0|0:0,0:0:0:0:
64,136,182115,5,2,0:0:0:0:
192,288,182326,2,0,L|176:328,4,25.0000000745058
88,184,182960,6,0,P|204:136|276:160,1,200,8|2,0:0|0:0,0:0:0:0:
272,156,184228,1,8,0:0:0:0:
456,232,184650,6,0,P|376:304|264:312,1,200,2|8,0:0|0:0,0:0:0:0:
200,136,185495,2,0,P|280:64|392:56,1,200,2|8,0:0|0:0,0:0:0:0:
100,40,186340,6,0,B|60:104|148:168|104:236,1,200,2|8,0:0|0:0,0:0:0:0:
44,308,186974,2,0,P|148:368|244:336,1,200,2|2,0:0|0:0,0:0:0:0:
344,192,187819,1,2,0:0:0:0:
412,268,188030,5,8,0:0:0:0:
412,268,188242,2,0,P|464:188|408:112,1,200,2|0,0:0|0:0,0:0:0:0:
344,36,188876,1,8,0:0:0:0:
296,32,189087,1,0,0:0:0:0:
252,60,189298,1,2,0:0:0:0:
192,140,189721,5,8,0:0:0:0:
180,188,189932,1,0,0:0:0:0:
148,224,190143,1,2,0:0:0:0:
108,252,190354,1,0,0:0:0:0:
60,264,190566,2,0,P|80:332|220:348,1,200,0|2,0:0|0:0,0:0:0:0:
240,340,191199,1,8,0:0:0:0:
308,268,191622,5,8,0:0:0:0:
356,284,191833,1,2,0:0:0:0:
404,276,192045,1,0,0:0:0:0:
444,244,192256,1,8,0:0:0:0:
464,196,192467,1,0,0:0:0:0:
460,148,192678,1,2,0:0:0:0:
376,176,192890,1,0,0:0:0:0:
376,176,192942,1,0,0:0:0:0:
376,176,192995,1,0,0:0:0:0:
376,176,193048,1,8,0:0:0:0:
376,176,193101,1,0,0:0:0:0:
348,52,193523,5,2,0:0:0:0:
300,40,193735,1,8,0:0:0:0:
220,56,193946,1,2,0:0:0:0:
132,120,194157,1,8,0:0:0:0:
120,260,194368,1,2,0:0:0:0:
276,328,194580,1,8,0:0:0:0:
132,140,196059,6,0,P|240:128|296:84,1,150,2|0,0:0|0:0,0:0:0:0:
336,28,196481,6,0,P|440:84|464:180,1,200,8|0,0:0|0:0,0:0:0:0:
428,248,196798,2,0,P|304:232|208:272,1,200.000000596046,2|2,0:0|0:0,0:0:0:0:
152,308,197115,2,0,P|100:276|84:232,1,100.000000298023
68,144,197326,5,8,0:0:0:0:
132,68,197431,1,0,0:0:0:0:
216,124,197537,1,0,0:0:0:0:
296,64,197642,2,0,B|328:136|392:104|392:104|420:192,1,200,2|2,0:0|0:0,0:0:0:0:
356,316,197960,2,0,L|328:216,1,100.000000298023,0|2,0:0|0:0,0:0:0:0:
432,260,198171,6,0,P|472:289|500:330,1,100,8|0,0:0|0:0,0:0:0:0:
256,264,198382,2,0,P|184:328|128:300,1,100
68,240,198593,2,0,L|136:168,1,100,2|0,0:0|0:0,0:0:0:0:
332,132,198805,2,0,L|228:132,1,100.000000298023
88,88,199016,6,0,P|168:56|220:72,1,100,8|0,0:0|0:0,0:0:0:0:
264,216,199227,2,0,P|184:248|132:232,1,100
320,16,199439,2,0,L|368:124,1,100,2|0,0:0|0:0,0:0:0:0:
404,200,199650,2,0,L|444:291,1,100
308,344,199861,5,8,0:0:0:0:
256,272,199966,1,0,0:0:0:0:
168,252,200072,1,0,0:0:0:0:
88,304,200178,2,0,P|40:208|44:144,1,100,0|2,0:0|0:0,0:0:0:0:
92,96,200389,1,0,0:0:0:0:
200,172,200495,1,0,0:0:0:0:
260,60,200600,1,0,0:0:0:0:
356,148,200706,6,0,P|408:108|480:128,1,100,8|0,0:0|0:0,0:0:0:0:
392,304,200917,2,0,P|332:288|296:256,1,100
184,100,201129,2,0,P|236:40|284:32,1,100,2|0,0:0|0:0,0:0:0:0:
200,336,201340,2,0,P|128:360|84:344,1,100
36,284,201551,5,8,0:0:0:0:
52,184,201657,1,0,0:0:0:0:
112,104,201762,2,0,P|172:92|216:120,1,100
296,216,201973,1,2,0:0:0:0:
408,192,202079,1,0,0:0:0:0:
468,92,202185,2,0,P|480:32|452:-12,1,100
324,52,202396,6,0,P|208:36|120:84,1,200,8|2,0:0|0:0,0:0:0:0:
188,332,202819,2,0,P|304:348|392:300,1,200,8|2,0:0|0:0,0:0:0:0:
404,92,203241,6,0,P|360:200|312:200,1,100,8|0,0:0|0:0,0:0:0:0:
300,132,203453,2,0,P|252:184|212:192,1,100
100,88,203664,2,0,P|208:132|208:180,1,100,2|0,0:0|0:0,0:0:0:0:
156,260,203875,2,0,P|208:308|216:348,1,100
40,160,204086,6,0,P|128:164|196:180,1,100,8|0,0:0|0:0,0:0:0:0:
304,208,204297,2,0,P|352:216|440:216,2,100,0|0|2,0:0|0:0|0:0,0:0:0:0:
212,156,204614,1,0,0:0:0:0:
264,72,204720,1,0,0:0:0:0:
360,44,204826,1,0,0:0:0:0:
456,76,204931,6,0,P|500:152|464:268,1,200,8|2,0:0|0:0,0:0:0:0:
412,320,205248,1,0,0:0:0:0:
412,320,205354,2,0,P|320:268|192:292,1,200,2|0,0:0|0:0,0:0:0:0:
152,324,205671,1,0,0:0:0:0:
84,264,205776,5,8,0:0:0:0:
120,180,205882,1,0,0:0:0:0:
212,188,205988,2,0,L|300:132,1,100,0|0,0:0|0:0,0:0:0:0:
368,76,206199,1,2,0:0:0:0:
440,132,206304,1,0,0:0:0:0:
412,220,206410,2,0,P|376:248|316:260,1,100,0|0,0:0|0:0,0:0:0:0:
72,144,206621,6,0,P|156:68|256:76,1,200,8|0,0:0|0:0,0:0:0:0:
328,112,206938,1,0,0:0:0:0:
264,188,207044,2,0,B|320:228|376:196|376:196|456:300,1,200,2|0,0:0|0:0,0:0:0:0:
244,340,207467,6,0,L|180:240,1,100,8|0,0:0|0:0,0:0:0:0:
288,140,207678,2,0,L|352:240,1,100
88,264,207889,6,0,L|24:164,1,100,2|0,0:0|0:0,0:0:0:0:
144,28,208100,1,0,0:0:0:0:
212,100,208206,1,0,0:0:0:0:
308,128,208311,6,0,P|376:128|484:52,1,200,8|0,0:0|0:0,0:0:0:0:
432,344,208628,1,0,0:0:0:0:
432,344,208734,2,0,P|382:258|293:216,1,200,2|0,0:0|0:0,0:0:0:0:
32,192,209157,5,8,0:0:0:0:
68,100,209262,1,0,0:0:0:0:
156,148,209368,1,2,0:0:0:0:
248,56,209473,5,0,0:0:0:0:
292,144,209579,1,12,0:0:0:0:
392,132,209685,1,4,0:0:0:0:
200,228,209791,6,0,P|252:248|304:260,1,100,6|4,0:0|0:0,0:0:0:0:
396,272,210002,6,0,P|316:340|164:332,1,200,8|2,0:0|0:0,0:0:0:0:
68,228,210424,2,0,P|196:248|256:220,1,200,8|2,0:0|0:0,0:0:0:0:
308,28,210847,2,0,P|240:116|152:136,1,200,8|2,0:0|0:0,0:0:0:0:
64,312,211269,2,0,P|168:264|256:288,1,200,8|2,0:0|0:0,0:0:0:0:
364,120,211692,5,8,0:0:0:0:
364,120,211903,1,0,0:0:0:0:
176,184,212114,1,2,0:0:0:0:
364,252,212326,1,0,0:0:0:0:
156,36,212537,5,8,0:0:0:0:
284,308,212748,1,0,0:0:0:0:
40,136,212959,1,2,0:0:0:0:
436,196,213171,1,0,0:0:0:0:
140,244,213382,6,0,P|184:292|344:288,1,200,8|0,0:0|0:0,0:0:0:0:
380,56,213804,1,2,0:0:0:0:
212,168,214016,1,0,0:0:0:0:
388,260,214227,1,8,0:0:0:0:
452,28,214438,5,0,0:0:0:0:
216,68,214650,1,2,0:0:0:0:
124,252,214861,1,0,0:0:0:0:
368,80,215072,5,8,0:0:0:0:
272,364,215283,1,0,0:0:0:0:
188,76,215495,1,2,0:0:0:0:
416,268,215706,1,0,0:0:0:0:
76,136,215917,6,0,P|140:180|188:176,1,100,8|0,0:0|0:0,0:0:0:0:
256,152,216129,2,0,P|308:208|312:252,1,100
108,297,216340,1,6,0:0:0:0:
194,243,216445,1,4,0:0:0:0:
280,193,216551,1,4,0:0:0:0:
365,143,216657,1,4,0:0:0:0:
448,88,216762,5,8,0:0:0:0:
460,244,216973,1,0,0:0:0:0:
264,44,217185,1,2,0:0:0:0:
340,312,217396,1,0,0:0:0:0:
472,124,217607,1,8,0:0:0:0:
192,140,217819,1,0,0:0:0:0:
400,264,218030,1,2,0:0:0:0:
64,224,218241,6,0,P|120:304|220:352,1,200,0|8,0:0|0:0,0:0:0:0:
464,192,218664,1,0,0:0:0:0:
264,192,218875,1,2,0:0:0:0:
76,128,219086,1,0,0:0:0:0:
256,36,219297,5,8,0:0:0:0:
448,364,219509,1,0,0:0:0:0:
68,360,219720,1,2,0:0:0:0:
256,192,219931,1,0,0:0:0:0:
256,192,220037,1,0,0:0:0:0:
256,192,220142,6,0,P|352:256|456:232,1,200,8|0,0:0|0:0,0:0:0:0:
176,88,220565,2,0,P|88:140|76:244,1,200,2|0,0:0|0:0,0:0:0:0:
336,296,220988,2,0,P|424:244|436:140,1,200,8|0,0:0|0:0,0:0:0:0:
176,288,221410,1,2,0:0:0:0:
368,192,221621,1,0,0:0:0:0:
256,36,221833,5,8,0:0:0:0:
68,360,222150,1,2,0:0:0:0:
448,364,222466,1,2,0:0:0:0:
96,132,222678,5,8,0:0:0:0:
416,132,222995,1,2,0:0:0:0:
256,348,223311,1,2,0:0:0:0:
80,256,223523,5,8,0:0:0:0:
164,204,223628,1,0,0:0:0:0:
204,112,223734,1,0,0:0:0:0:
180,16,223840,2,0,P|276:4|372:44,2,200,2|2|2,0:0|0:0|0:0,0:0:0:0:
92,60,224368,6,0,P|124:168|212:200,1,200,8|0,0:0|0:0,0:0:0:0:
296,184,224685,1,0,0:0:0:0:
380,132,224790,2,0,P|440:228|424:320,1,200,2|0,0:0|0:0,0:0:0:0:
124,308,225213,5,8,0:0:0:0:
132,208,225319,1,0,0:0:0:0:
204,140,225424,1,0,0:0:0:0:
300,116,225530,2,0,P|376:192|400:304,2,200,2|2|2,0:0|0:0|0:0,0:0:0:0:
248,200,226058,6,0,P|256:304|344:352,1,200,8|0,0:0|0:0,0:0:0:0:
508,256,226375,1,0,0:0:0:0:
508,256,226481,2,0,P|500:152|412:104,1,200,2|0,0:0|0:0,0:0:0:0:
244,20,226904,5,8,0:0:0:0:
240,120,227010,1,0,0:0:0:0:
316,184,227115,1,0,0:0:0:0:
308,284,227221,2,0,P|416:284|476:204,2,200,2|2|2,0:0|0:0|0:0,0:0:0:0:
212,308,227749,6,0,P|228:204|288:128,1,200,8|0,0:0|0:0,0:0:0:0:
364,72,228066,1,0,0:0:0:0:
364,72,228172,2,0,P|272:24|132:44,1,200,2|0,0:0|0:0,0:0:0:0:
60,188,228594,5,8,0:0:0:0:
148,140,228700,1,0,0:0:0:0:
248,140,228805,1,0,0:0:0:0:
324,204,228911,2,0,P|388:308|384:384,2,200,2|2|2,0:0|0:0|0:0,0:0:0:0:
140,288,229439,5,8,0:0:0:0:
184,328,229545,1,0,0:0:0:0:
240,348,229651,1,2,0:0:0:0:
300,340,229756,1,0,0:0:0:0:
360,308,229862,5,12,0:0:0:0:
404,252,229967,1,4,0:0:0:0:
420,184,230073,1,6,0:0:0:0:
408,116,230179,1,4,0:0:0:0:
364,68,230284,5,8,0:0:0:0:
328,48,230390,1,0,0:0:0:0:
292,36,230496,1,0,0:0:0:0:
252,36,230601,2,0,P|156:68|84:152,2,200,0|0|2,0:0|0:0|0:0,0:0:0:0:
288,128,231129,6,0,P|384:172|392:272,1,200,8|0,0:0|0:0,0:0:0:0:
332,336,231446,1,0,0:0:0:0:
332,336,231552,2,0,B|232:336|232:336|144:264,1,200,2|0,0:0|0:0,0:0:0:0:
40,108,231974,5,8,0:0:0:0:
124,164,232080,1,0,0:0:0:0:
224,180,232186,1,0,0:0:0:0:
312,132,232291,2,0,P|416:144|484:224,2,200,2|2|0,0:0|0:0|0:0,0:0:0:0:
196,232,232820,6,0,P|264:308|380:324,1,200,8|0,0:0|0:0,0:0:0:0:
92,148,233136,1,0,0:0:0:0:
92,148,233242,2,0,P|86:249|157:343,1,200,2|0,0:0|0:0,0:0:0:0:
80,8,233665,5,8,0:0:0:0:
148,80,233770,1,0,0:0:0:0:
240,124,233876,1,0,0:0:0:0:
340,104,233982,2,0,P|376:200|352:312,2,200,2|2|2,0:0|0:0|0:0,0:0:0:0:
264,36,234510,6,0,P|364:8|444:84,1,200,8|0,0:0|0:0,0:0:0:0:
408,260,234827,1,0,0:0:0:0:
408,260,234932,2,0,P|308:288|228:212,1,200,2|0,0:0|0:0,0:0:0:0:
164,168,235249,1,0,0:0:0:0:
108,252,235355,6,0,P|64:280|8:276,2,100,8|0|2,0:0|0:0|0:0,0:0:0:0:
164,168,235672,2,0,P|208:140|264:144,2,100,0|8|0,0:0|0:0|0:0,0:0:0:0:
288,288,235989,2,0,L|336:196,1,100,2|0,0:0|0:0,0:0:0:0:
372,108,236200,6,0,B|428:160|376:216|432:216,1,100.000000298023,8|0,0:0|0:0,0:0:0:0:
196,328,236411,2,0,P|140:276|136:220,1,100,2|0,0:0|0:0,0:0:0:0:
180,88,236622,1,12,0:0:0:0:
280,76,236728,1,4,0:0:0:0:
372,108,236834,1,6,0:0:0:0:
444,176,236939,1,4,0:0:0:0:
468,272,237045,6,0,P|500:264|520:248,1,50,12|2,0:0|0:0,0:0:0:0:
372,80,237889,2,0,P|344:76|312:84,1,50,8|4,0:0|0:0,0:0:0:0:
196,236,238734,2,0,P|176:180|136:156,1,100,8|4,0:0|0:0,0:0:0:0:
153,91,239579,5,8,0:0:0:0:
153,92,239684,2,0,L|180:44,2,50.0000001490115
200,224,240001,1,2,0:0:0:0:
248,136,240107,1,0,0:0:0:0:
320,204,240213,1,0,0:0:0:0:
372,120,240318,1,0,0:0:0:0:
448,192,240424,5,8,0:0:0:0:
460,240,240529,1,0,0:0:0:0:
448,288,240635,1,0,0:0:0:0:
416,328,240741,2,0,P|372:356|308:360,2,100,2|2|2,0:0|0:0|0:0,0:0:0:0:
364,176,241269,5,8,0:0:0:0:
338,217,241374,1,0,0:0:0:0:
296,243,241480,1,0,0:0:0:0:
245,248,241586,2,0,P|194:236|146:194,2,100,2|2|2,0:0|0:0|0:0,0:0:0:0:
292,124,242114,5,8,0:0:0:0:
244,134,242220,1,0,0:0:0:0:
196,123,242325,1,0,0:0:0:0:
156,90,242431,2,0,P|127:45|124:-17,2,100,2|2|2,0:0|0:0|0:0,0:0:0:0:
380,64,242959,6,0,P|428:104|436:176,1,100,8|0,0:0|0:0,0:0:0:0:
264,192,243382,5,2,0:0:0:0:
188,184,243487,1,2,0:0:0:0:
116,208,243593,1,2,0:0:0:0:
68,268,243698,1,2,0:0:0:0:
