osu file format v14

[General]
AudioFilename: BABYMETAL - - MEGITSUNE (Full ver.).mp3
AudioLeadIn: 2000
PreviewTime: 71511
Countdown: 0
SampleSet: Normal
StackLeniency: 0.7
Mode: 0
LetterboxInBreaks: 0
EpilepsyWarning: 1
WidescreenStoryboard: 1

[Editor]
Bookmarks: 122513,123142,181263
DistanceSpacing: 1.1
BeatDivisor: 4
GridSize: 4
TimelineZoom: 1

[Metadata]
Title:MEGITSUNE
TitleUnicode:メギツネ
Artist:BABYMETAL
ArtistUnicode:BABYMETAL
Creator:Onisakura
Version:Alpaca's Hard
Source:
Tags:jpop moshiri BluOxy JUDYDANNY AlpacaCokelat
BeatmapID:371917
BeatmapSetID:110357

[Difficulty]
HPDrainRate:6
CircleSize:4
OverallDifficulty:7
ApproachRate:8
SliderMultiplier:1.80000000596046
SliderTickRate:1

[Events]
//Background and Video events
0,0,"BG.jpg",0,0
Video,0,"BABYMETAL-MEGITSUNE.avi"
//Break Periods
2,102556,112582
2,140907,153478
2,227104,229534
//Storyboard Layer 0 (Background)
//Storyboard Layer 1 (Fail)
//Storyboard Layer 2 (Pass)
//Storyboard Layer 3 (Foreground)
//Storyboard Sound Samples

[TimingPoints]
948,422.535211267606,4,1,0,70,1,0
7602,-133.333333333333,4,1,0,20,0,0
7708,-133.333333333333,4,1,1,70,0,0
11088,-100,4,1,0,20,0,0
14469,-100,4,1,0,50,0,1
14574,-100,4,1,0,50,0,0
29257,-100,4,1,1,70,0,0
29680,-100,4,1,0,70,0,0
31370,-100,4,1,1,70,0,0
33060,-100,4,1,0,70,0,0
34750,-100,4,1,1,70,0,0
36440,-100,4,1,0,70,0,0
38131,-100,4,1,1,70,0,0
39821,-100,4,1,0,70,0,0
41511,-100,4,1,1,70,0,0
43201,-100,4,1,0,50,0,0
56300,-133.333333333333,4,1,0,50,0,0
62638,-100,4,1,0,50,0,0
63483,-133.333333333333,4,1,0,50,0,0
71933,-100,4,1,0,50,0,1
102356,-100,4,1,0,50,0,0
105736,422.535211267606,3,1,0,100,1,0
110806,631.578947368421,4,1,0,60,1,0
113332,-100,4,1,1,60,0,0
138595,422.535211267606,5,1,1,20,1,0
140701,422.535211267606,4,1,0,50,1,0
140707,422.535211267606,4,1,0,50,1,0
154228,-100,4,1,0,50,0,1
154333,-100,4,1,0,50,0,0
167749,-133.333333333333,4,1,0,40,0,0
177890,-100,4,1,0,50,0,0
182960,845.070422535211,4,1,0,60,1,1
182960,-50,4,1,0,60,0,1
183171,-50,4,1,0,60,0,0
188030,-133.333333333333,4,1,0,60,0,0
194791,422.535211267606,4,1,0,20,1,0
194791,-133.333333333333,4,1,0,20,0,0
196481,-100,4,1,0,60,0,1
209897,-100,4,1,0,60,0,0
210002,-100,4,1,0,60,0,1
223418,-100,4,1,0,60,0,0
223523,-100,4,1,0,60,0,1
223629,-100,4,1,0,60,0,0
230284,-100,4,1,0,60,0,1
230390,-100,4,1,0,60,0,0
237045,-133.333333333333,4,1,0,60,0,0
240425,-100,4,1,0,60,0,0

[Colours]
Combo1 : 2,123,60
Combo2 : 173,92,3
Combo3 : 211,33,47

[HitObjects]
104,104,948,6,0,L|181:74,3,45.0000001490115,4|0|0|0,0:0|0:0|0:0|0:0,0:0:0:0:
248,52,1476,1,0,0:0:0:0:
356,85,1687,2,0,L|400:100,1,45.0000001490115
356,85,4328,6,0,L|408:104,3,45.0000001490115,4|0|0|0,0:0|0:0|0:0|0:0,0:0:0:0:
416,204,4856,1,0,0:0:0:0:
404,304,5067,2,0,L|352:322,1,45.0000001490115,0|0,0:0|0:0,0:0:0:0:
404,304,7286,2,0,P|368:292|232:304,1,135.000000447034,4|0,0:0|0:0,0:0:0:0:
244,300,7708,6,0,P|272:240|268:152,1,135.000005596876,4|0,0:0|0:0,0:0:0:0:
384,224,8553,2,0,P|412:164|408:76,1,135.000005596876,4|0,0:0|0:0,0:0:0:0:
368,56,9187,1,0,0:0:0:0:
308,52,9398,6,0,L|164:72,1,135.000005596876,6|0,0:0|0:0,0:0:0:0:
152,188,10243,2,0,L|240:176,1,67.500002798438,6|0,0:0|0:0,0:0:0:0:
240,260,10666,2,0,L|306:250,1,67.500002798438
348,320,11088,6,0,B|400:268|376:200|328:180|328:180|360:136,1,180.000000596046,4|0,0:0|0:0,0:0:0:0:
392,112,11722,1,0,0:0:0:0:
328,64,11933,1,0,0:0:0:0:
252,36,12145,1,0,0:0:0:0:
176,64,12356,1,0,0:0:0:0:
112,112,12567,1,0,0:0:0:0:
256,192,12778,12,0,14046,0:0:0:0:
88,80,14469,6,0,L|44:116,2,45.0000001490115,4|0|0,0:0|0:0|0:0,0:0:0:0:
124,64,14786,2,0,P|176:72|224:56,1,90.000000298023
308,44,15208,1,0,0:0:0:0:
308,44,15314,2,0,P|356:88|400:100,1,90.000000298023
448,164,15736,2,0,P|380:188|352:208,1,90.000000298023,2|0,0:0|0:0,0:0:0:0:
332,292,16159,6,0,L|360:332,2,45.0000001490115
288,268,16476,2,0,P|232:256|184:264,1,90.000000298023
112,308,16898,1,0,0:0:0:0:
112,308,17004,1,0,0:0:0:0:
60,224,17215,1,0,0:0:0:0:
120,148,17426,1,2,0:0:0:0:
68,64,17638,1,0,0:0:0:0:
216,96,17849,6,0,L|212:144,2,45.0000001490115
248,60,18166,2,0,L|376:44,2,90.000000298023
260,108,18694,2,0,L|352:160,1,90.000000298023
420,212,19117,1,2,0:0:0:0:
372,296,19328,1,0,0:0:0:0:
272,284,19539,6,0,L|168:244,1,90.000000298023
120,176,19962,2,0,L|172:68,1,90.000000298023
252,64,20384,2,0,L|356:104,1,90.000000298023
404,172,20807,2,0,L|352:280,1,90.000000298023
284,312,21229,6,0,L|304:356,2,45.0000001490115
240,292,21546,2,0,P|196:268|184:228,1,90.000000298023
244,152,21969,1,0,0:0:0:0:
244,152,22074,2,0,P|288:176|300:216,1,90.000000298023
400,208,22497,2,0,P|416:167|456:148,1,90.000000298023,2|0,0:0|0:0,0:0:0:0:
368,100,22919,6,0,L|300:100,2,45.0000001490115
352,52,23236,2,0,L|236:52,1,90.000000298023
164,64,23659,1,0,0:0:0:0:
164,64,23764,2,0,P|128:100|88:128,1,90.000000298023
164,181,24187,2,0,P|128:145|88:117,1,90.000000298023,2|0,0:0|0:0,0:0:0:0:
46,207,24609,6,0,L|8:256,2,45.0000001490115
46,207,24926,2,0,L|89:295,1,90.000000298023
171,337,25349,1,0,0:0:0:0:
171,337,25455,1,0,0:0:0:0:
257,290,25666,1,0,0:0:0:0:
346,331,25877,1,2,0:0:0:0:
425,272,26088,1,0,0:0:0:0:
384,180,26300,6,0,L|252:176,1,90.000000298023
332,88,26722,2,0,L|200:84,1,90.000000298023
100,172,27145,2,0,L|232:168,1,90.000000298023
152,88,27567,2,0,L|284:84,1,90.000000298023
424,60,27990,5,4,0:0:0:0:
424,60,29257,2,0,L|464:72,6,22.5000000745057
424,60,29680,6,0,P|412:116|416:172,1,90.000000298023,4|0,0:0|0:0,0:0:0:0:
488,192,30102,2,0,P|440:228|376:216,1,90.000000298023
372,208,30419,2,0,P|324:188|280:188,2,90.000000298023
396,248,30948,1,0,0:0:0:0:
396,248,31159,1,0,0:0:0:0:
280,320,31370,6,0,L|232:344,1,45.0000001490115
240,252,31581,2,0,L|180:264,1,45.0000001490115
232,172,31793,2,0,L|128:172,1,90.000000298023
196,56,32215,6,0,L|224:12,1,45.0000001490115
272,92,32426,2,0,L|312:72,1,45.0000001490115
328,160,32638,2,0,L|440:172,1,90.000000298023
440,276,33060,6,0,P|368:296|328:320,1,90.000000298023
312,320,33377,1,0,0:0:0:0:
268,328,33483,2,0,P|184:320|156:292,1,90.000000298023
148,288,33800,2,0,L|180:192,2,90.000000298023
72,248,34328,2,0,L|72:148,1,90.000000298023
108,76,34750,5,0,0:0:0:0:
108,76,34856,1,0,0:0:0:0:
108,76,34962,1,0,0:0:0:0:
108,76,35067,1,0,0:0:0:0:
108,76,35173,2,0,L|200:80,1,90.000000298023
404,76,35595,5,0,0:0:0:0:
404,76,35701,1,0,0:0:0:0:
404,76,35807,1,0,0:0:0:0:
404,76,35912,1,0,0:0:0:0:
404,76,36018,2,0,L|312:80,1,90.000000298023
314,79,36335,1,0,0:0:0:0:
314,79,36440,6,0,L|288:180,1,90.000000298023,4|0,0:0|0:0,0:0:0:0:
312,196,36757,1,0,0:0:0:0:
348,236,36863,2,0,P|288:244|228:272,1,90.000000298023
180,328,37180,1,0,0:0:0:0:
180,328,37391,2,0,P|160:272|180:208,1,90.000000298023
120,212,37708,2,0,L|216:184,1,90.000000298023
296,124,38131,6,0,L|252:100,3,45.0000001490115
256,103,38553,2,0,L|160:75,1,90.000000298023
60,68,38976,6,0,L|-16:80,3,45.0000001490115
15,75,39398,2,0,P|36:124|44:200,1,90.000000298023
76,264,39821,6,0,L|168:320,2,90.000000298023,4|0|0,0:0|0:0|0:0,0:0:0:0:
160,196,40455,1,0,0:0:0:0:
160,196,40560,1,0,0:0:0:0:
160,196,40771,2,0,L|264:196,1,90.000000298023
340,196,41088,2,0,L|236:196,1,90.000000298023
248,64,41511,5,8,0:0:0:0:
248,64,41722,1,8,0:0:0:0:
248,64,41933,1,8,0:0:0:0:
352,108,42145,5,8,0:0:0:0:
352,108,42250,1,8,0:0:0:0:
248,64,42462,5,8,0:0:0:0:
160,108,42673,5,8,0:0:0:0:
160,108,42778,1,8,0:0:0:0:
96,248,43201,6,0,P|48:268|36:268,2,45.0000001490115,4|0|0,0:0|0:0|0:0,0:0:0:0:
96,248,43518,2,0,L|200:264,1,90.000000298023
236,336,43940,1,0,0:0:0:0:
236,336,44046,2,0,P|264:296|264:244,1,90.000000298023,0|0,0:0|0:0,0:0:0:0:
372,336,44469,2,0,P|344:296|344:244,1,90.000000298023,2|0,0:0|0:0,0:0:0:0:
336,168,44891,6,0,L|408:204,2,45.0000001490115
336,168,45208,2,0,P|272:176|232:168,1,90.000000298023
184,108,45631,1,0,0:0:0:0:
184,108,45736,2,0,L|128:192,1,90.000000298023
181,259,46159,2,0,L|134:182,1,90.000000298023,2|0,0:0|0:0,0:0:0:0:
32,146,46581,6,0,L|21:94,2,45.0000001490115
32,146,46898,2,0,L|22:255,2,90.000000298023
32,146,47426,2,0,P|88:147|134:164,1,90.000000298023
210,160,47849,2,0,P|253:148|298:148,1,90.000000298023,2|0,0:0|0:0,0:0:0:0:
378,109,48271,6,0,L|300:47,1,90.000000298023
204,52,48694,2,0,L|134:109,1,90.000000298023
129,199,49117,2,0,L|199:255,1,90.000000298023
303,255,49539,2,0,L|373:198,1,90.000000298023
344,112,49962,5,4,0:0:0:0:
344,112,50067,1,0,0:0:0:0:
344,112,50173,1,0,0:0:0:0:
344,112,50278,2,0,L|224:80,1,90.000000298023
172,56,50701,1,0,0:0:0:0:
172,56,50807,2,0,P|144:108|144:160,1,90.000000298023
52,128,51229,2,0,P|72:192|120:224,1,90.000000298023,2|0,0:0|0:0,0:0:0:0:
160,260,51652,5,0,0:0:0:0:
160,260,51757,1,0,0:0:0:0:
160,260,51863,1,0,0:0:0:0:
160,260,51969,2,0,L|240:160,1,90.000000298023
312,68,52391,1,0,0:0:0:0:
312,68,52497,2,0,P|316:120|292:184,1,90.000000298023
396,148,52919,2,0,P|372:216|336:240,1,90.000000298023,2|0,0:0|0:0,0:0:0:0:
292,284,53342,5,0,0:0:0:0:
292,284,53448,1,0,0:0:0:0:
292,284,53553,2,0,P|212:280|168:300,2,90.000000298023
336,296,54081,1,0,0:0:0:0:
376,312,54187,2,0,L|396:200,1,90.000000298023
304,196,54609,2,0,L|324:84,1,90.000000298023,2|0,0:0|0:0,0:0:0:0:
252,48,55032,5,0,0:0:0:0:
252,48,55243,1,0,0:0:0:0:
160,120,55455,1,0,0:0:0:0:
160,120,55666,1,0,0:0:0:0:
228,212,55877,1,0,0:0:0:0:
228,212,56088,1,0,0:0:0:0:
328,144,56300,5,0,0:0:0:0:
328,144,56511,1,0,0:0:0:0:
328,144,56722,2,0,B|336:192|336:192|304:228|316:268,2,101.250004197657,4|0|0,0:0|0:0|0:0,0:0:0:0:
300,108,57462,1,0,0:0:0:0:
300,108,57567,2,0,P|228:112|164:56,1,135.000005596876
92,72,58201,5,0,0:0:0:0:
92,72,58307,1,0,0:0:0:0:
92,72,58412,2,0,P|84:124|100:196,2,101.250004197657
128,48,59152,1,0,0:0:0:0:
128,48,59257,2,0,L|228:52,1,67.500002798438
236,132,59680,2,0,L|168:129,1,67.500002798438
112,213,60102,6,0,L|227:218,2,101.250004197657,0|0|0,0:0|0:0|0:0,0:0:0:0:
84,248,60842,1,0,0:0:0:0:
84,248,60948,2,0,L|48:352,2,101.250004197657
72,204,61687,1,0,0:0:0:0:
72,204,61793,2,0,P|56:160|88:96,2,101.250004197657
116,188,62532,5,0,0:0:0:0:
116,188,62638,2,0,L|208:176,1,90.000000298023
212,264,63060,2,0,L|304:252,1,90.000000298023
364,188,63483,6,0,B|348:132|308:116|376:84,2,101.250004197657
356,232,64222,1,0,0:0:0:0:
356,232,64328,2,0,P|320:272|236:260,1,135.000005596876
160,236,64962,5,0,0:0:0:0:
160,236,65173,2,0,P|184:196|232:188,1,67.500002798438
180,104,65595,2,0,P|232:108|260:136,1,67.500002798438
312,172,66018,2,0,P|376:168|404:128,1,101.250004197657
400,100,66440,2,0,L|444:208,1,101.250004197657
420,276,66863,5,0,0:0:0:0:
336,244,67074,1,0,0:0:0:0:
252,276,67286,1,0,0:0:0:0:
168,244,67497,1,0,0:0:0:0:
100,184,67708,5,0,0:0:0:0:
176,132,67919,1,0,0:0:0:0:
260,164,68131,1,0,0:0:0:0:
344,132,68342,1,0,0:0:0:0:
256,192,68553,12,0,70138,0:0:0:0:
256,192,70243,12,0,71511,0:0:0:0:
92,104,71933,6,0,L|212:92,1,90.000000298023,4|0,0:0|0:0,0:0:0:0:
216,60,72250,2,0,P|268:84|332:80,1,90.000000298023
344,76,72567,1,0,0:0:0:0:
432,132,72778,2,0,L|472:160,2,45.0000001490115
372,200,73201,2,0,L|412:228,2,45.0000001490115
252,156,73624,5,0,0:0:0:0:
188,220,73835,1,0,0:0:0:0:
104,192,74046,2,0,P|64:236|24:248,1,90.000000298023
80,352,74469,2,0,P|120:308|160:296,1,90.000000298023
260,320,74891,1,0,0:0:0:0:
364,296,75102,1,0,0:0:0:0:
364,296,75314,6,0,P|392:232|344:144,1,165.000000546375
284,228,75948,2,0,L|100:224,1,180.000000596046
68,136,76581,1,0,0:0:0:0:
68,136,76793,6,0,P|144:108|176:80,1,90.000000298023
236,52,77215,2,0,P|296:64|332:64,1,90.000000298023
400,128,77638,2,0,L|432:220,2,90.000000298023
300,132,78271,1,0,0:0:0:0:
300,132,78377,1,0,0:0:0:0:
300,132,78483,1,0,0:0:0:0:
300,132,78588,1,0,0:0:0:0:
300,132,78694,6,0,L|280:228,1,90.000000298023,4|0,0:0|0:0,0:0:0:0:
212,292,79117,1,0,0:0:0:0:
124,248,79328,1,0,0:0:0:0:
28,228,79539,2,0,P|68:172|160:156,1,135.000000447034
180,144,79962,2,0,P|236:136|268:92,1,90.000000298023
340,60,80384,5,0,0:0:0:0:
412,128,80595,1,0,0:0:0:0:
364,216,80807,1,0,0:0:0:0:
396,308,81018,1,0,0:0:0:0:
396,308,81229,2,0,P|332:300|244:320,1,135.000000447034
216,332,81652,2,0,L|172:236,1,90.000000298023
80,244,82074,6,0,P|104:188|248:184,1,180.000000596046
300,168,82708,2,0,P|386:158|431:84,1,180.000000596046
312,60,83342,1,0,0:0:0:0:
312,60,83553,2,0,B|236:64|236:64|200:112|140:96,2,180.000000596046
384,104,84609,6,0,L|416:140,1,45.0000001490115
296,156,84926,2,0,L|316:208,1,45.0000001490115
196,168,85243,2,0,L|208:228,1,45.0000001490115
232,248,85455,6,0,P|276:284|332:284,1,90.000000298023,4|0,0:0|0:0,0:0:0:0:
348,268,85771,2,0,P|372:220|440:196,1,90.000000298023
444,192,86088,1,0,0:0:0:0:
444,100,86300,2,0,L|444:44,2,45.0000001490115
356,100,86722,2,0,L|356:44,2,45.0000001490115
264,156,87145,5,0,0:0:0:0:
176,108,87356,1,0,0:0:0:0:
92,160,87567,1,0,0:0:0:0:
176,212,87778,1,0,0:0:0:0:
176,212,87990,2,0,P|160:264|128:300,1,90.000000298023
228,332,88412,2,0,P|244:280|276:244,1,90.000000298023
352,300,88835,6,0,P|352:220|272:156,1,180.000000596046
292,52,89469,2,0,P|372:88|432:180,1,180.000000596046
448,256,90102,1,0,0:0:0:0:
448,256,90314,6,0,L|344:280,1,90.000000298023
264,304,90736,2,0,P|188:284|64:292,1,180.000000596046
56,192,91370,2,0,L|48:144,2,45.0000001490115
152,176,91793,2,0,L|128:128,2,45.0000001490115
248,196,92215,6,0,P|312:204|320:176,1,90.000000298023
360,112,92638,2,0,P|296:104|288:132,1,90.000000298023
388,200,93060,2,0,P|440:200|464:72,1,180.000000596046
392,40,93694,6,0,L|196:60,1,180.000000596046
116,84,94328,1,0,0:0:0:0:
60,164,94539,1,0,0:0:0:0:
116,84,94750,2,0,P|160:148|132:232,1,135.000000447034
136,248,95173,2,0,L|228:272,1,90.000000298023
320,272,95595,6,0,P|360:224|348:76,1,180.000000596046
280,64,96229,2,0,P|212:72|92:40,1,180.000000596046
216,160,97074,5,0,0:0:0:0:
216,160,97286,2,0,B|188:218|204:254|204:254|172:290,2,135.000000447034
315,160,98131,2,0,B|343:217|327:253|327:253|359:289,2,135.000000447034
256,192,98976,12,4,102356,0:0:0:0:
256,188,113332,5,4,0:0:0:0:
256,188,113648,1,0,0:0:0:0:
344,56,113963,2,0,L|428:72,1,45.0000001490115
356,136,114279,2,0,L|311:127,1,45.0000001490115
232,44,114595,6,0,P|172:72|152:112,1,90.000000298023,6|0,0:0|0:0,0:0:0:0:
24,100,115227,2,0,P|72:140|124:148,1,90.000000298023
256,188,115858,5,4,0:0:0:0:
256,188,116174,1,0,0:0:0:0:
384,256,116490,2,0,L|392:320,1,45.0000001490115
304,300,116806,2,0,L|312:356,1,45.0000001490115
192,320,117121,6,0,P|144:288|112:228,1,90.000000298023,2|0,0:0|0:0,0:0:0:0:
320,64,117753,2,0,P|368:96|400:156,1,90.000000298023
336,275,118384,6,0,P|277:271|176:293,1,135.000000447034,4|0,0:0|0:0,0:0:0:0:
175,325,119016,2,0,P|188:279|142:171,1,135.000000447034
118,181,119648,2,0,P|177:175|243:104,1,135.000000447034,2|0,0:0|0:0,0:0:0:0:
196,92,120279,2,0,P|242:132|349:138,1,135.000000447034
361,135,120911,6,0,B|386:183|401:189|401:189|362:258|379:311,2,180.000000596046,4|4|2,0:0|0:0|0:0,0:0:0:0:
277,82,122490,1,0,0:0:0:0:
276,82,122806,2,0,P|222:103|135:74,1,135.000000447034
116,115,123437,6,0,L|88:245,1,90.000000298023,4|0,0:0|0:0,0:0:0:0:
112,256,123911,1,0,0:0:0:0:
112,256,124069,2,0,L|194:280,1,45.0000001490115
232,211,124384,2,0,L|188:198,1,45.0000001490115
170,114,124700,2,0,L|213:126,3,45.0000001490115,2|0|0|0,0:0|0:0|0:0|0:0,0:0:0:0:
275,125,125332,2,0,L|318:112,3,45.0000001490115
368,112,125963,6,0,P|415:149|421:238,1,135.000000447034,4|0,0:0|0:0,0:0:0:0:
408,268,126595,2,0,P|355:257|263:288,1,135.000000447034
236,308,127227,2,0,L|200:260,3,45.0000001490115,2|0|0|0,0:0|0:0|0:0|0:0,0:0:0:0:
232,228,127858,2,0,L|196:180,3,45.0000001490115
176,152,128490,5,6,0:0:0:0:
364,92,129121,1,4,0:0:0:0:
440,276,129753,1,6,0:0:0:0:
264,364,130384,1,4,0:0:0:0:
264,364,131016,6,0,P|200:336|88:344,1,180.000000596046,2|0,0:0|0:0,0:0:0:0:
44,256,131963,1,0,0:0:0:0:
44,256,132279,2,0,P|72:208|76:88,1,135.000000447034
128,104,132911,6,0,L|212:112,1,45.0000001490115,2|0,0:0|0:0,0:0:0:0:
268,56,133227,2,0,L|223:51,2,45.0000001490115,0|0|4,0:0|0:0|0:0,0:0:0:0:
344,108,134174,5,4,0:0:0:0:
384,168,134806,1,4,0:0:0:0:
364,240,135437,1,4,0:0:0:0:
296,272,136069,6,0,B|244:264|208:288|208:288|180:248|120:244,2,180.000000596046,6|4|4,0:0|0:0|0:0,0:0:0:0:
256,192,137490,12,4,140707,0:0:0:0:
128,72,154228,6,0,L|80:88,2,45.0000001490115,4|0|0,0:0|0:0|0:0,0:0:0:0:
128,72,154545,2,0,P|184:80|244:68,1,90.000000298023
288,156,154967,1,0,0:0:0:0:
287,157,155073,2,0,P|231:149|171:161,1,90.000000298023
144,236,155495,2,0,P|200:244|260:232,1,90.000000298023,2|0,0:0|0:0,0:0:0:0:
332,240,155918,6,0,L|376:272,2,45.0000001490115
332,240,156235,2,0,P|368:204|368:148,1,90.000000298023
288,48,156657,1,0,0:0:0:0:
288,48,156763,2,0,P|264:92|272:136,1,90.000000298023
340,200,157185,2,0,L|448:224,1,90.000000298023,2|0,0:0|0:0,0:0:0:0:
460,312,157608,6,0,L|488:356,2,45.0000001490115
460,312,157925,2,0,L|372:292,2,90.000000298023
460,312,158453,2,0,L|448:200,1,90.000000298023
360,180,158876,2,0,L|348:76,1,90.000000298023,2|0,0:0|0:0,0:0:0:0:
260,44,159298,6,0,P|212:80|176:72,1,90.000000298023
112,164,159721,2,0,P|148:212|140:248,1,90.000000298023
260,300,160143,2,0,P|308:264|344:272,1,90.000000298023
380,156,160566,2,0,P|344:108|352:72,1,90.000000298023
260,32,160988,5,4,0:0:0:0:
260,32,161094,1,0,0:0:0:0:
260,32,161199,1,0,0:0:0:0:
260,32,161305,2,0,P|212:60|164:64,1,90.000000298023
88,104,161728,1,0,0:0:0:0:
88,104,161833,2,0,L|100:208,1,90.000000298023
196,208,162256,2,0,L|208:312,1,90.000000298023,2|0,0:0|0:0,0:0:0:0:
292,344,162678,5,0,0:0:0:0:
292,344,162784,1,0,0:0:0:0:
292,344,162890,1,0,0:0:0:0:
292,344,162995,2,0,P|344:324|392:328,1,90.000000298023
412,232,163418,1,0,0:0:0:0:
412,232,163523,2,0,L|308:224,1,90.000000298023
276,136,163946,2,0,L|365:142,1,90.000000298023,2|0,0:0|0:0,0:0:0:0:
420,60,164368,5,0,0:0:0:0:
420,60,164474,1,0,0:0:0:0:
420,60,164580,1,0,0:0:0:0:
420,60,164685,2,0,L|330:53,2,90.000000298023
420,60,165214,2,0,P|424:104|440:168,1,90.000000298023
380,232,165636,2,0,P|312:252|276:268,1,90.000000298023,2|0,0:0|0:0,0:0:0:0:
204,300,166059,5,0,0:0:0:0:
204,300,166270,1,0,0:0:0:0:
188,204,166481,1,0,0:0:0:0:
188,204,166692,1,0,0:0:0:0:
236,116,166904,1,0,0:0:0:0:
236,116,167115,1,0,0:0:0:0:
336,104,167326,5,0,0:0:0:0:
336,104,167537,1,0,0:0:0:0:
336,104,167749,2,0,P|364:156|380:216,2,101.250004197657,4|0|0,0:0|0:0|0:0,0:0:0:0:
268,76,168488,1,0,0:0:0:0:
268,76,168594,2,0,P|216:88|136:64,1,135.000005596876
60,56,169228,5,0,0:0:0:0:
60,56,169439,2,0,L|32:140,1,67.500002798438
100,160,169861,2,0,L|72:244,1,67.500002798438
128,320,170284,2,0,L|160:220,1,101.250004197657
172,188,170707,2,0,P|224:204|256:200,1,67.500002798438
312,224,171129,6,0,P|312:184|268:136,1,101.250004197657
244,116,171552,2,0,P|296:88|324:40,1,101.250004197657
340,24,171974,2,0,P|396:72|464:96,1,135.000005596876
480,164,172608,5,0,0:0:0:0:
488,240,172819,1,0,0:0:0:0:
424,288,173030,1,0,0:0:0:0:
344,300,173242,2,0,P|288:300|256:316,2,67.500002798438
344,300,174087,6,0,L|368:216,1,67.500002798438
372,160,174509,2,0,P|320:172|288:220,2,101.250004197657,4|0|0,0:0|0:0|0:0,0:0:0:0:
416,100,175249,1,0,0:0:0:0:
416,100,175354,2,0,P|336:88|280:112,1,135.000005596876
236,168,175988,5,0,0:0:0:0:
236,168,176199,2,0,P|204:200|172:216,1,67.500002798438
276,216,176622,2,0,P|308:184|340:168,2,67.500002798438
276,216,177467,5,0,0:0:0:0:
276,216,177678,1,0,0:0:0:0:
276,216,177890,6,0,P|208:212|100:264,1,180.000000596046
280,80,178735,2,0,P|348:76|456:128,1,180.000000596046
468,216,179368,5,0,0:0:0:0:
468,216,179580,2,0,L|444:312,1,90.000000298023
344,160,180002,2,0,L|320:256,1,90.000000298023
240,80,180425,2,0,L|216:176,1,90.000000298023
132,8,180847,2,0,L|108:104,1,90.000000298023
256,192,181270,12,0,182537,0:0:0:0:
256,192,182960,5,4,0:0:0:0:
256,192,184650,5,4,0:0:0:0:
256,176,185495,1,4,0:0:0:0:
256,156,186340,5,4,0:0:0:0:
316,56,188030,6,0,P|248:44|180:64,1,135.000005596876,4|0,0:0|0:0,0:0:0:0:
108,168,189087,2,0,L|136:196,2,33.750001399219
204,272,189721,6,0,P|272:252|356:272,1,135.000005596876,4|0,0:0|0:0,0:0:0:0:
428,140,191411,6,0,P|356:164|292:152,1,135.000005596876,4|0,0:0|0:0,0:0:0:0:
128,56,192467,2,0,L|100:88,2,33.750001399219
256,192,193101,12,0,194791,0:0:0:0:
56,88,196481,6,0,P|108:96|156:88,1,90.000000298023,4|0,0:0|0:0,0:0:0:0:
192,76,196798,2,0,P|268:68|320:88,1,90.000000298023
328,80,197115,1,0,0:0:0:0:
412,128,197326,2,0,L|464:152,2,45.0000001490115
336,192,197749,2,0,L|388:216,2,45.0000001490115
256,252,198171,5,0,0:0:0:0:
256,252,198383,2,0,L|172:212,2,90.000000298023
292,344,199016,2,0,P|340:308|356:252,1,90.000000298023
224,160,199439,2,0,P|176:196|160:252,1,90.000000298023
204,312,199861,5,0,0:0:0:0:
280,248,200073,1,0,0:0:0:0:
376,224,200284,1,0,0:0:0:0:
444,112,200495,2,0,P|376:88|248:84,1,180.000000596046
116,56,201129,5,0,0:0:0:0:
116,56,201340,2,0,P|92:96|104:152,1,90.000000298023
116,236,201763,2,0,P|152:160|256:168,1,180.000000596046
316,220,202397,1,0,0:0:0:0:
388,152,202608,1,0,0:0:0:0:
320,80,202819,1,0,0:0:0:0:
244,144,203030,1,0,0:0:0:0:
132,212,203242,6,0,L|244:268,1,90.000000298023
80,288,203664,2,0,L|192:344,1,90.000000298023
260,312,204087,1,0,0:0:0:0:
352,280,204298,1,0,0:0:0:0:
448,304,204509,1,0,0:0:0:0:
355,191,204721,6,0,P|276:227|260:312,1,180.000000596046
352,280,205354,1,0,0:0:0:0:
444,216,205566,1,0,0:0:0:0:
424,120,205777,2,0,P|368:104|304:56,1,135.000000447034
260,44,206199,2,0,L|164:68,1,90.000000298023
64,152,206622,6,0,P|88:200|232:240,1,180.000000596046
448,232,207256,2,0,P|424:184|280:144,1,180.000000596046
216,148,207890,1,0,0:0:0:0:
216,148,208101,2,0,B|156:164|100:132|100:132|68:192,2,180.000000596046
328,108,209157,6,0,L|384:112,1,45.0000001490115
312,200,209474,2,0,L|368:204,1,45.0000001490115
296,288,209791,1,0,0:0:0:0:
308,288,209897,1,0,0:0:0:0:
320,288,210002,6,0,L|368:288,7,45.0000001490115,4|0|0|0|0|0|0|0,0:0|0:0|0:0|0:0|0:0|0:0|0:0|0:0,0:0:0:0:
421,212,210847,2,0,L|272:208,2,135.000000447034
376,120,211692,5,0,0:0:0:0:
376,120,211904,2,0,P|320:108|268:64,1,90.000000298023
192,92,212326,2,0,P|152:113|108:121,1,90.000000298023
60,208,212749,2,0,P|84:280|80:328,2,90.000000298023
156,192,213383,6,0,P|232:228|356:200,1,180.000000596046
352,84,214016,2,0,P|276:48|152:76,1,180.000000596046
104,120,214650,1,0,0:0:0:0:
48,200,214861,6,0,P|84:236|132:256,1,90.000000298023
212,220,215284,2,0,B|300:188|396:216,1,180.000000596046
476,168,215918,1,0,0:0:0:0:
404,100,216129,1,0,0:0:0:0:
312,68,216340,5,0,0:0:0:0:
300,72,216446,1,0,0:0:0:0:
288,76,216552,1,0,0:0:0:0:
276,80,216657,1,0,0:0:0:0:
264,84,216763,2,0,L|168:112,1,90.000000298023
108,216,217185,2,0,L|194:190,1,90.000000298023
328,252,217608,2,0,L|241:277,2,90.000000298023
424,224,218242,6,0,P|416:172|332:76,1,180.000000596046
236,60,218876,2,0,P|168:68|116:52,1,90.000000298023
48,72,219298,2,0,P|64:144|60:212,1,135.000000447034
100,236,219721,2,0,P|148:220|224:236,1,90.000000298023
280,252,220143,6,0,P|352:244|344:128,1,180.000000596046
276,72,220777,2,0,P|204:80|212:196,1,180.000000596046
252,248,221411,1,0,0:0:0:0:
348,228,221622,1,0,0:0:0:0:
400,144,221833,6,0,P|344:120|292:60,2,135.000000447034
400,244,222678,2,0,P|344:268|292:328,2,135.000000447034
256,192,223523,12,4,226904,0:0:0:0:
256,192,230284,12,0,236622,0:0:0:0:
136,172,237045,6,0,P|168:128|328:60,1,225.000009328127,4|0,0:0|0:0,0:0:0:0:
392,156,237890,2,0,P|360:200|200:268,1,225.000009328127,4|0,0:0|0:0,0:0:0:0:
100,212,238735,2,0,P|80:164|84:120,1,67.500002798438,4|0,0:0|0:0,0:0:0:0:
148,88,239157,2,0,P|168:136|164:180,1,67.500002798438
120,276,239580,6,0,P|100:228|104:184,1,67.500002798438
184,192,240002,2,0,L|224:204,2,33.750001399219
172,92,240425,5,0,0:0:0:0:
172,92,240530,1,0,0:0:0:0:
172,92,240636,1,0,0:0:0:0:
172,92,240742,2,0,L|264:124,1,90.000000298023
340,292,241270,5,0,0:0:0:0:
340,292,241376,1,0,0:0:0:0:
340,292,241481,1,0,0:0:0:0:
340,292,241587,2,0,L|248:260,1,90.000000298023
136,173,242115,5,0,0:0:0:0:
136,173,242221,1,0,0:0:0:0:
136,173,242326,1,0,0:0:0:0:
136,173,242432,2,0,L|168:81,1,90.000000298023
312,80,242960,6,0,P|364:92|408:88,1,90.000000298023
464,168,243383,2,0,L|472:216,3,45.0000001490115,0|0|0|4,0:0|0:0|0:0|0:0,0:0:0:0:
