osu file format v14

[General]
AudioFilename: BABYMETAL - - MEGITSUNE (Full ver.).mp3
AudioLeadIn: 2000
PreviewTime: 71511
Countdown: 0
SampleSet: Normal
StackLeniency: 0.7
Mode: 0
LetterboxInBreaks: 0
WidescreenStoryboard: 0

[Editor]
Bookmarks: 122513,123142,167108,181263,237038
DistanceSpacing: 1.4
BeatDivisor: 8
GridSize: 4
TimelineZoom: 2.1

[Metadata]
Title:MEGITSUNE
TitleUnicode:メギツネ
Artist:BABYMETAL
ArtistUnicode:BABYMETAL
Creator:Onisakura
Version:Insane
Source:
Tags:jpop moshiri BluOxy JUDYDANNY AlpacaCokelat
BeatmapID:287577
BeatmapSetID:110357

[Difficulty]
HPDrainRate:8
CircleSize:4
OverallDifficulty:8
ApproachRate:9
SliderMultiplier:3.00000000596046
SliderTickRate:1

[Events]
//Background and Video events
0,0,"BG.jpg",0,0
Video,0,"BABYMETAL-MEGITSUNE.avi"
//Break Periods
2,140907,151937
2,194779,195459
//Storyboard Layer 0 (Background)
//Storyboard Layer 1 (Fail)
//Storyboard Layer 2 (Pass)
//Storyboard Layer 3 (Foreground)
//Storyboard Sound Samples

[TimingPoints]
948,422.535211267606,4,1,1,100,1,0
30419,-200,4,1,1,100,0,0
30631,-100,4,1,1,100,0,0
31370,-66.6666666666667,4,1,1,100,0,0
31793,-200,4,1,1,100,0,0
32004,-100,4,1,1,100,0,0
32215,-66.6666666666667,4,1,1,100,0,0
32638,-200,4,1,1,100,0,0
32849,-100,4,1,1,100,0,0
33793,-200,4,1,1,100,0,0
34004,-100,4,1,1,100,0,0
37701,-200,4,1,1,100,0,0
37912,-100,4,1,1,100,0,0
41081,-200,4,1,1,100,0,0
41292,-100,4,1,1,100,0,0
57567,-200,4,1,1,100,0,0
57990,-100,4,1,1,100,0,0
60314,-66.6666666666667,4,1,1,100,0,0
60736,-100,4,1,1,100,0,0
60948,-200,4,1,1,100,0,0
61370,-100,4,1,1,100,0,0
64328,-200,4,1,1,100,0,0
64750,-100,4,1,1,100,0,0
65384,-200,4,1,1,100,0,0
65595,-100,4,1,1,100,0,0
71933,-100,4,1,1,100,0,1
73201,-100,4,1,1,100,0,1
75314,-133.333333333333,4,1,1,100,0,1
75736,-100,4,1,1,100,0,1
75948,-133.333333333333,4,1,1,100,0,1
76370,-100,4,1,1,100,0,1
80173,-200,4,1,1,100,0,1
80595,-100,4,1,1,100,0,1
88412,-200,4,1,1,100,0,1
88624,-100,4,1,1,100,0,1
98976,-200,4,1,1,100,0,1
100666,-100,4,1,1,100,0,0
105736,422.535211267606,3,1,1,100,1,0
110806,631.578947368421,4,1,1,100,1,0
120911,-66.6666666666667,4,1,1,100,0,0
121542,-100,4,1,1,100,0,0
122174,-200,4,1,1,100,0,0
122806,-100,4,1,1,100,0,0
124069,-50,4,1,1,100,0,0
125963,-200,4,1,1,100,0,0
126279,-100,4,1,1,100,0,0
128806,-50,4,1,1,100,0,0
129595,-100,4,1,1,100,0,0
129753,-200,4,1,1,100,0,0
130069,-100,4,1,1,100,0,0
133542,-133.333333333333,4,1,1,100,0,0
133858,-100,4,1,1,100,0,0
134806,-133.333333333333,4,1,1,100,0,0
135121,-100,4,1,1,100,0,0
136069,-200,4,1,1,100,0,0
136700,-100,4,1,1,100,0,0
138595,422.535211267606,5,1,1,100,1,0
140707,422.535211267606,4,1,1,100,1,0
175354,-133.333333333333,4,1,1,100,0,0
175777,-100,4,1,1,100,0,0
182960,845.070422535211,4,1,1,100,1,0
182960,-200,4,1,1,100,0,0
194791,422.535211267606,4,1,1,100,1,0
194791,-100,4,1,1,100,0,0
196059,-66.6666666666667,4,1,1,100,0,1
196481,-100,4,1,1,100,0,1
233664,-100,4,1,1,100,0,0
239474,-80,4,1,1,100,0,0
240108,-100,4,1,1,100,0,0
240319,-100,4,1,1,100,0,0
243383,-50,4,1,1,100,0,0
243805,-100,4,1,1,100,0,0

[Colours]
Combo1 : 2,123,60
Combo2 : 173,92,3
Combo3 : 211,33,47

[HitObjects]
120,264,948,6,0,L|192:188,3,75.0000001490115,8|0|0|8,0:0|0:0|0:0|0:0,0:0:0:0:
256,240,1476,1,8,0:0:0:0:
256,240,1687,1,0,0:0:0:0:
328,320,1793,1,12,0:0:0:0:
368,216,2004,2,2,L|420:276,2,75.0000001490115,2|0|2,0:0|0:0|0:0,0:0:0:0:
104,252,2638,6,0,L|40:304,1,75.0000001490115,8|0,0:0|0:0,0:0:0:0:
372,92,2849,2,0,L|444:156,1,75.0000001490115
100,88,3060,2,0,L|40:32,1,75.0000001490115
144,152,3271,2,0,L|212:92,1,75.0000001490115,8|0,0:0|0:0,0:0:0:0:
256,240,3483,6,0,L|256:320,1,75.0000001490115
304,32,3694,2,0,L|388:32,1,75.0000001490115
180,252,3905,2,0,L|96:252,1,75.0000001490115,8|0,0:0|0:0,0:0:0:0:
240,104,4117,2,0,L|240:20,1,75.0000001490115
300,152,4328,5,8,0:0:0:0:
348,132,4433,1,8,0:0:0:0:
380,88,4539,1,8,0:0:0:0:
388,36,4645,1,8,0:0:0:0:
452,128,4856,2,0,B|468:176|456:208|456:208|424:228|424:228|392:260,1,150.000000298023,8|0,0:0|0:0,0:0:0:0:
344,324,5173,5,12,0:0:0:0:
260,352,5384,2,0,L|164:352,2,75.0000001490115
224,284,5807,1,0,0:0:0:0:
296,120,6018,5,0,0:0:0:0:
112,280,6229,1,0,0:0:0:0:
312,256,6440,1,0,0:0:0:0:
76,148,6652,1,8,0:0:0:0:
176,44,6863,5,0,0:0:0:0:
328,60,7074,2,0,L|344:20,4,37.5000000745057,0|0|0|0|0,0:0|0:0|0:0|0:0|0:0,0:0:0:0:
372,124,7497,1,0,0:0:0:0:
448,120,7708,5,12,0:0:0:0:
428,284,8131,1,8,0:0:0:0:
300,184,8342,1,0,0:0:0:0:
448,120,8553,1,12,0:0:0:0:
256,328,8976,5,0,0:0:0:0:
140,216,9187,1,8,0:0:0:0:
300,184,9398,1,4,0:0:0:0:
140,216,9821,5,8,0:0:0:0:
184,60,10032,1,0,0:0:0:0:
12,104,10243,1,8,0:0:0:0:
300,184,10455,1,0,0:0:0:0:
184,60,10666,1,8,0:0:0:0:
12,104,10877,2,0,L|32:72,4,37.5000000745057,0|0|0|0|12,0:0|0:0|0:0|0:0|0:0,0:0:0:0:
108,200,11511,5,0,0:0:0:0:
144,272,11722,1,0,0:0:0:0:
184,172,11933,1,8,0:0:0:0:
256,184,12145,1,0,0:0:0:0:
208,312,12356,1,0,0:0:0:0:
280,340,12567,1,0,0:0:0:0:
328,200,12778,1,12,0:0:0:0:
330,278,12990,5,0,0:0:0:0:
368,282,13095,1,0,0:0:0:0:
401,267,13201,1,8,0:0:0:0:
432,247,13307,1,0,0:0:0:0:
456,220,13412,1,0,0:0:0:0:
472,186,13518,1,0,0:0:0:0:
476,148,13624,5,8,0:0:0:0:
380,44,13835,2,0,L|416:28,4,37.5000000745057,8|0|0|0|8,0:0|0:0|0:0|0:0|0:0,0:0:0:0:
260,28,14257,1,8,0:0:0:0:
280,100,14469,6,0,P|248:152|256:192,1,75.0000001490115
320,160,14680,2,0,P|288:248|280:248,1,75.0000001490115
420,140,14997,1,8,0:0:0:0:
452,248,15208,1,0,0:0:0:0:
452,248,15314,2,0,B|472:312|472:312|420:312|384:336,1,150.000000298023,8|8,0:0|0:0,0:0:0:0:
208,212,15736,2,0,B|227:248|227:248|244:308|315:320,1,150.000000298023
320,176,16159,5,8,0:0:0:0:
296,108,16264,1,8,0:0:0:0:
236,76,16370,1,8,0:0:0:0:
168,88,16476,1,8,0:0:0:0:
148,300,16687,2,8,B|104:256|104:256|144:176,1,150.000000298023,8|0,0:0|0:0,0:0:0:0:
80,36,17004,2,0,B|32:72|32:72|32:180,1,150.000000298023
32,162,17426,1,8,0:0:0:0:
236,28,17638,1,8,0:0:0:0:
368,48,17849,6,0,P|436:36|456:48,2,75.0000001490115
292,92,18166,2,0,B|312:120|344:132|344:132|412:92|424:152,1,150.000000298023
464,72,18588,1,8,0:0:0:0:
464,72,18694,2,0,P|496:132|448:204,1,150.000000298023
476,280,19117,1,0,0:0:0:0:
340,348,19328,1,0,0:0:0:0:
364,172,19539,5,10,0:0:0:0:
152,188,19750,1,0,0:0:0:0:
316,268,19962,1,10,0:0:0:0:
200,96,20173,1,0,0:0:0:0:
212,280,20384,5,10,0:0:0:0:
304,92,20595,1,0,0:0:0:0:
264,188,20807,1,10,0:0:0:0:
264,188,21018,1,0,0:0:0:0:
392,128,21229,6,8,P|432:112|456:92,1,75.0000001490115,8|8,0:0|0:0,0:0:0:0:
388,236,21440,2,8,P|432:256|452:272,1,75.0000001490115
336,332,21757,1,8,0:0:0:0:
264,188,21969,1,8,0:0:0:0:
264,188,22074,2,0,B|256:172|268:148|268:148|252:136|252:136|268:132|268:132|252:120|252:120|268:116|268:116|268:100|256:72,1,150.000000298023
252,348,22497,6,0,B|184:356|184:356|184:328|184:328|112:320,1,150.000000298023,8|8,0:0|0:0,0:0:0:0:
128,88,22919,2,0,P|60:164|64:236,1,150.000000298023
140,176,23236,2,0,P|108:268|28:312,1,150.000000298023
196,296,23659,5,8,0:0:0:0:
284,208,23764,1,8,0:0:0:0:
140,176,23976,2,0,B|76:172|76:172|85:133|36:96,2,150.000000298023,0|8|8,0:0|0:0|0:0,0:0:0:0:
144,40,24609,6,0,B|188:120|188:120|224:92|276:80|328:156|304:200,1,225.000000447034
236,172,25032,1,0,0:0:0:0:
264,36,25138,2,8,B|352:44|352:44|368:108,1,150.000000298023
366,103,25455,1,8,0:0:0:0:
408,176,25666,1,0,0:0:0:0:
416,252,25877,2,8,B|348:276|348:276|324:252|324:252|276:236,1,150.000000298023
172,292,26300,5,8,0:0:0:0:
152,240,26405,1,0,0:0:0:0:
148,188,26511,1,2,0:0:0:0:
160,132,26617,1,0,0:0:0:0:
184,92,26722,1,8,0:0:0:0:
340,88,26933,5,2,0:0:0:0:
344,284,27145,1,8,0:0:0:0:
148,188,27356,1,2,0:0:0:0:
340,88,27567,1,8,0:0:0:0:
256,192,27778,1,10,0:0:0:0:
256,192,27990,12,4,29257,0:0:0:0:
384,336,29680,6,0,P|424:268|388:212,1,150.000000298023,0|8,0:0|0:0,0:0:0:0:
328,272,29997,2,0,P|292:230|304:198,1,75.0000001490115
280,80,30314,1,8,0:0:0:0:
408,136,30419,2,0,B|368:172|368:172|328:176,1,75.0000001490115
248,280,30842,1,8,0:0:0:0:
248,280,30948,2,8,B|200:296|192:368|96:288,1,150.000000298023
116,208,31370,6,0,B|102:182|102:182|115:127|115:127|100:114|78:136,1,112.500004515052
116,208,31581,2,0,B|151:200|151:200|179:154|179:154|225:170|203:200,1,112.500004515052
172,80,31793,2,0,P|226:19|234:14,1,75.0000001490115
400,204,32215,6,0,B|413:178|413:178|401:127|401:127|428:106|446:135,1,112.500004515052
400,204,32426,2,0,B|364:196|364:196|340:154|340:154|295:165|312:196,1,112.500004515052
340,80,32638,2,0,P|286:19|278:14,2,75.0000001490115
252,96,33271,5,0,0:0:0:0:
160,132,33377,1,0,0:0:0:0:
120,228,33483,1,0,0:0:0:0:
260,288,33694,1,0,0:0:0:0:
260,288,33800,2,0,B|228:248|228:248|196:228,1,75.0000001490115
384,328,34222,1,0,0:0:0:0:
384,328,34328,1,8,0:0:0:0:
476,128,34539,1,8,0:0:0:0:
364,116,34750,5,2,0:0:0:0:
308,76,34856,1,0,0:0:0:0:
248,48,34962,1,2,0:0:0:0:
184,40,35067,1,0,0:0:0:0:
120,44,35173,1,14,0:0:0:0:
24,96,35384,1,14,0:0:0:0:
72,200,35595,5,2,0:0:0:0:
128,240,35701,1,0,0:0:0:0:
188,268,35807,1,2,0:0:0:0:
252,276,35912,1,0,0:0:0:0:
316,272,36018,1,14,0:0:0:0:
168,164,36229,2,0,B|216:192|216:192|256:176|256:176|308:204,1,150.000000298023
475,212,36652,5,8,0:0:0:0:
466,144,36757,1,8,0:0:0:0:
432,84,36863,1,8,0:0:0:0:
320,100,37074,1,0,0:0:0:0:
320,100,37180,2,8,P|368:176|368:240,1,150.000000298023
292,184,37602,1,0,0:0:0:0:
412,344,37708,2,0,B|352:324|352:324|316:336,1,75.0000001490115
300,260,38131,6,0,P|252:248|204:272,1,75.0000001490115,2|0,0:0|0:0,0:0:0:0:
260,320,38342,2,0,P|204:328|168:300,1,75.0000001490115,2|0,0:0|0:0,0:0:0:0:
156,256,38553,1,14,0:0:0:0:
156,256,38764,1,14,0:0:0:0:
364,260,38976,6,0,P|316:248|268:272,1,75.0000001490115,2|0,0:0|0:0,0:0:0:0:
324,320,39187,2,0,P|268:328|232:300,1,75.0000001490115,2|0,0:0|0:0,0:0:0:0:
96,316,39398,1,14,0:0:0:0:
96,316,39609,1,14,0:0:0:0:
96,316,39821,1,4,0:0:0:0:
68,188,40032,1,0,0:0:0:0:
32,112,40138,1,0,0:0:0:0:
96,56,40243,1,0,0:0:0:0:
256,180,40455,5,0,0:0:0:0:
320,80,40560,2,8,P|376:40|456:64,1,150.000000298023
368,212,40983,1,8,0:0:0:0:
260,280,41088,2,0,B|292:316|292:316|300:364,1,75.0000001490115
176,232,41511,5,2,0:0:0:0:
248,56,41722,1,2,0:0:0:0:
296,176,41933,2,0,P|212:128|144:144,1,150.000000298023
120,68,42250,2,0,P|72:148|104:228,1,150.000000298023
84,200,42673,1,8,0:0:0:0:
84,200,42778,1,8,0:0:0:0:
132,320,43201,6,8,P|108:344|56:344,3,75.0000001490115
72,244,43729,1,0,0:0:0:0:
44,176,43940,1,8,0:0:0:0:
44,176,44046,2,0,P|72:96|128:80,1,150.000000298023,0|8,0:0|0:0,0:0:0:0:
128,80,44469,2,0,P|200:80|240:40,1,75.0000001490115,8|0,0:0|0:0,0:0:0:0:
252,32,44680,2,0,P|324:32|348:48,1,75.0000001490115,8|0,0:0|0:0,0:0:0:0:
408,36,44891,6,0,P|460:84|468:112,1,75.0000001490115
376,108,45102,2,0,P|404:172|436:188,1,75.0000001490115,8|0,0:0|0:0,0:0:0:0:
244,292,45419,2,0,B|200:352|200:352|164:324|121:327,1,150.000000298023
108,208,45736,2,0,B|75:275|75:275|117:293|134:333,1,150.000000298023
130,324,46159,5,8,0:0:0:0:
168,260,46264,1,8,0:0:0:0:
208,200,46370,1,8,0:0:0:0:
288,184,46476,1,0,0:0:0:0:
320,260,46581,6,8,P|340:268|376:312,3,75.0000001490115
208,200,47109,1,0,0:0:0:0:
320,151,47321,1,8,0:0:0:0:
320,151,47426,2,0,B|380:165|398:148|398:148|446:200,1,150.000000298023,0|8,0:0|0:0,0:0:0:0:
446,197,47849,2,8,B|408:277|408:277|463:353,1,150.000000298023
328,72,48271,5,2,0:0:0:0:
244,228,48483,1,0,0:0:0:0:
360,28,48694,1,2,0:0:0:0:
216,272,48905,1,8,0:0:0:0:
332,352,49117,5,0,0:0:0:0:
296,352,49222,1,8,0:0:0:0:
260,344,49328,1,0,0:0:0:0:
224,328,49433,1,8,0:0:0:0:
196,300,49539,5,8,0:0:0:0:
156,316,49645,1,8,0:0:0:0:
120,328,49750,1,8,0:0:0:0:
80,320,49856,1,8,0:0:0:0:
32,260,49962,6,8,B|72:244|72:244|88:200,1,75.0000001490115
140,248,50173,2,8,B|156:208|156:208|216:164,1,75.0000001490115
28,144,50490,2,0,P|88:96|152:140,1,150.000000298023,8|0,0:0|0:0,0:0:0:0:
145,126,50807,2,8,P|216:100|260:172,1,150.000000298023
96,188,51229,1,8,0:0:0:0:
196,188,51440,1,8,0:0:0:0:
272,40,51652,5,8,0:0:0:0:
332,92,51757,1,8,0:0:0:0:
392,40,51863,2,0,P|444:72|460:112,1,75.0000001490115
240,240,52180,6,8,P|308:276|336:220,1,150.000000298023
336,226,52497,2,0,B|368:156|368:156|444:152,1,150.000000298023,0|8,0:0|0:0,0:0:0:0:
412,288,52919,1,8,0:0:0:0:
348,320,53025,1,0,0:0:0:0:
280,312,53131,1,8,0:0:0:0:
198,90,53342,6,0,P|143:149|147:216,1,150.000000298023
220,192,53659,2,0,P|213:275|157:331,1,150.000000298023
100,336,53976,2,0,L|104:376,4,37.5000000745057,0|0|0|0|0,0:0|0:0|0:0|0:0|0:0,0:0:0:0:
36,264,54398,5,0,0:0:0:0:
164,220,54609,1,8,0:0:0:0:
220,164,54715,1,0,0:0:0:0:
200,92,54821,1,8,0:0:0:0:
76,76,55032,5,8,0:0:0:0:
44,104,55138,1,0,0:0:0:0:
28,140,55243,1,0,0:0:0:0:
20,180,55349,1,0,0:0:0:0:
24,216,55455,5,8,0:0:0:0:
36,252,55560,1,0,0:0:0:0:
60,280,55666,1,0,0:0:0:0:
96,296,55771,1,0,0:0:0:0:
132,296,55877,1,8,0:0:0:0:
200,160,56088,5,8,0:0:0:0:
304,208,56300,1,8,0:0:0:0:
204,272,56511,2,8,B|220:316|276:284|276:284|312:352|332:340|344:332,1,150.000000298023
408,232,56933,2,0,P|391:173|399:151,1,75.0000001490115
464,144,57250,2,0,P|460:84|450:66,1,75.0000001490115
296,88,57567,6,0,B|232:40|232:40|232:137|200:120,1,150.000000298023,10|6,0:0|0:0,0:0:0:0:
92,120,58201,5,0,0:0:0:0:
92,120,58412,1,8,0:0:0:0:
212,168,58624,1,0,0:0:0:0:
284,212,58729,1,0,0:0:0:0:
300,300,58835,1,8,0:0:0:0:
132,252,59046,5,0,0:0:0:0:
228,348,59257,1,8,0:0:0:0:
368,348,59469,1,0,0:0:0:0:
228,348,59680,1,8,0:0:0:0:
368,348,59891,1,2,0:0:0:0:
436,224,60102,5,8,0:0:0:0:
256,160,60314,2,0,B|205:109|205:109|185:151,1,112.500004515052
256,160,60631,2,0,B|306:109|306:109|326:151,1,112.500004515052
256,160,60948,2,0,B|268:208|268:208|248:228|248:228|252:280,1,112.500000223517
432,48,61581,5,0,0:0:0:0:
472,104,61687,1,0,0:0:0:0:
468,172,61793,1,8,0:0:0:0:
328,96,62004,1,0,0:0:0:0:
224,200,62215,1,8,0:0:0:0:
316,312,62426,1,0,0:0:0:0:
128,272,62638,6,8,L|224:280,4,75.0000001490115,8|2|8|2|14,0:0|0:0|0:0|0:0|0:0,0:0:0:0:
132,196,63271,6,0,L|304:188,1,150.000000298023,0|8,0:0|0:0,0:0:0:0:
320,304,63694,1,0,0:0:0:0:
396,328,63800,1,8,0:0:0:0:
452,280,63905,1,0,0:0:0:0:
464,208,64011,1,0,0:0:0:0:
412,156,64117,5,8,0:0:0:0:
392,80,64222,1,0,0:0:0:0:
312,36,64328,2,0,B|248:44|240:100|240:100|180:108,1,150.000000298023,2|2,0:0|0:0,0:0:0:0:
120,160,64962,5,8,0:0:0:0:
184,208,65067,1,0,0:0:0:0:
200,288,65173,1,8,0:0:0:0:
308,332,65384,6,0,B|348:340|348:340|380:308,1,75.0000001490115
425,218,65807,1,0,0:0:0:0:
380,156,65912,1,0,0:0:0:0:
308,120,66018,1,8,0:0:0:0:
440,80,66229,1,0,0:0:0:0:
322,214,66440,5,8,0:0:0:0:
272,200,66546,1,0,0:0:0:0:
224,180,66652,1,8,0:0:0:0:
185,145,66757,1,0,0:0:0:0:
171,95,66863,1,10,0:0:0:0:
120,224,67074,6,0,B|76:208|76:208|48:172,2,75.0000001490115,0|0|0,0:0|0:0|0:0,0:0:0:0:
128,340,67497,5,0,0:0:0:0:
252,188,67708,1,10,0:0:0:0:
352,348,67919,1,0,0:0:0:0:
352,348,68025,1,0,0:0:0:0:
352,348,68131,1,2,0:0:0:0:
256,192,68342,1,0,0:0:0:0:
424,336,68553,5,8,0:0:0:0:
472,280,68659,1,0,0:0:0:0:
472,208,68764,1,8,0:0:0:0:
424,160,68870,1,0,0:0:0:0:
468,96,68976,5,8,0:0:0:0:
420,32,69081,1,0,0:0:0:0:
348,32,69187,1,8,0:0:0:0:
308,92,69293,1,8,0:0:0:0:
344,160,69398,1,8,0:0:0:0:
160,128,69609,6,8,L|132:112,7,18.7500000372529
196,288,70032,1,8,0:0:0:0:
256,192,70243,12,4,71511,0:0:0:0:
96,256,71933,6,0,B|144:312|144:312|252:300,1,150.000000298023
264,160,72356,1,0,0:0:0:0:
392,260,72567,2,0,P|456:296|464:324,1,75.0000001490115
440,48,72884,5,0,0:0:0:0:
420,80,72990,1,0,0:0:0:0:
396,108,73095,1,0,0:0:0:0:
364,128,73201,1,0,0:0:0:0:
168,60,73412,2,0,L|92:84,2,75.0000001490115,8|8|8,0:0|0:0|0:0,0:0:0:0:
348,248,73835,5,0,0:0:0:0:
420,224,74046,1,0,0:0:0:0:
420,224,74152,2,0,P|480:168|484:152,1,75.0000001490115,8|0,0:0|0:0,0:0:0:0:
388,144,74469,1,0,0:0:0:0:
388,144,74574,2,0,P|368:80|336:68,1,75.0000001490115,8|0,0:0|0:0,0:0:0:0:
312,136,74891,2,8,P|232:152|188:88,1,150.000000596046,8|8,0:0|0:0,0:0:0:0:
120,168,75314,6,0,B|88:244|88:244|104:296|104:296|156:288|188:324,1,225.000009030104,8|0,0:0|0:0,0:0:0:0:
264,352,75842,1,0,0:0:0:0:
348,332,75948,2,0,B|340:268|432:260|432:260|360:208|360:164,1,225.000009030104,8|8,0:0|0:0,0:0:0:0:
440,168,76476,1,0,0:0:0:0:
384,116,76581,1,0,0:0:0:0:
312,128,76687,1,0,0:0:0:0:
252,80,76793,6,0,L|252:132,4,37.5,8|8|8|8|0,0:0|0:0|0:0|0:0|0:0,0:0:0:0:
56,56,77215,1,8,0:0:0:0:
328,48,77426,1,0,0:0:0:0:
132,316,77638,1,2,0:0:0:0:
356,292,77849,5,10,0:0:0:0:
56,56,78060,1,2,0:0:0:0:
64,108,78166,1,0,0:0:0:0:
92,152,78271,1,10,0:0:0:0:
132,184,78377,1,0,0:0:0:0:
232,128,78483,5,2,0:0:0:0:
272,160,78588,1,0,0:0:0:0:
288,208,78694,1,10,0:0:0:0:
440,328,78905,5,0,0:0:0:0:
480,96,79117,1,8,0:0:0:0:
260,304,79328,1,0,0:0:0:0:
400,116,79539,2,0,B|376:84|348:76|348:76|348:92|348:92|336:76|336:76|336:92|336:92|324:76|324:76|324:92|324:92|312:76|312:76|312:92|312:92|272:36|184:68,1,300.000001192092,8|0,0:0|0:0,0:0:0:0:
236,136,80173,6,0,B|204:164|204:164|160:172|112:132|112:132|96:136,1,150.000000298023
332,252,80807,1,0,0:0:0:0:
60,232,81018,2,8,L|44:272,4,37.5
104,332,81440,1,0,0:0:0:0:
248,336,81652,1,8,0:0:0:0:
184,208,81863,1,0,0:0:0:0:
328,268,82074,6,0,P|316:304|364:248,1,300.000001192092,8|0,0:0|0:0,0:0:0:0:
244,152,82708,2,8,P|206:147|277:128,1,300.000001192092
180,284,83342,5,0,0:0:0:0:
312,196,83553,2,8,L|348:172,4,37.5000000745057
348,64,83976,1,8,0:0:0:0:
212,200,84187,1,0,0:0:0:0:
20,196,84398,1,0,0:0:0:0:
136,80,84609,6,0,L|136:128,2,37.5
212,200,84821,2,0,L|212:152,2,37.5
88,196,85032,2,0,L|136:196,2,37.5000001490115
252,88,85243,2,0,L|204:88,2,37.5
324,176,85455,6,8,B|352:164|352:164|392:128,1,75.0000001490115,8|0,0:0|0:0,0:0:0:0:
464,136,85666,1,0,0:0:0:0:
468,196,85771,1,0,0:0:0:0:
448,248,85877,1,8,0:0:0:0:
416,296,85983,1,0,0:0:0:0:
364,328,86088,1,0,0:0:0:0:
316,336,86194,6,0,B|292:352|292:352|233:352|233:352|204:320|144:316,1,150.000000298023
180,240,86511,2,0,L|120:176,1,75.0000001490115
112,72,86722,1,0,0:0:0:0:
64,300,86933,2,2,L|96:328,4,37.5000000745057,2|2|2|2|2,0:0|0:0|0:0|0:0|0:0,0:0:0:0:
292,264,87356,5,0,0:0:0:0:
292,264,87462,2,0,L|256:184,1,75.0000001490115
428,200,87778,1,0,0:0:0:0:
368,68,87990,2,8,L|408:36,4,37.5000000745057,8|0|8|0|8,0:0|0:0|0:0|0:0|0:0,0:0:0:0:
208,32,88412,2,0,B|108:68|120:60,1,75.0000001490115
268,188,88835,5,8,0:0:0:0:
144,120,89046,1,8,0:0:0:0:
184,176,89152,1,8,0:0:0:0:
180,244,89257,1,8,0:0:0:0:
144,300,89363,1,0,0:0:0:0:
84,336,89469,6,0,B|56:289|66:260|66:260|41:263|41:263|63:244|63:244|39:247|39:247|61:228|61:228|38:231|38:231|36:173|84:120,1,300.000000596046,8|8,0:0|0:0,0:0:0:0:
136,80,90102,1,0,0:0:0:0:
440,64,90314,5,2,0:0:0:0:
440,64,90419,2,0,L|416:152,1,75.0000001490115,0|0,0:0|0:0,0:0:0:0:
412,328,90736,1,2,0:0:0:0:
412,328,90842,2,0,L|364:264,1,75.0000001490115
328,160,91159,1,2,0:0:0:0:
328,160,91370,6,8,L|328:208,4,37.5
252,152,91793,1,8,0:0:0:0:
256,48,91898,1,2,0:0:0:0:
172,100,92004,1,8,0:0:0:0:
252,152,92109,1,2,0:0:0:0:
160,208,92215,5,8,0:0:0:0:
304,264,92426,1,0,0:0:0:0:
228,336,92638,2,8,B|176:352|128:328|128:328|72:348,1,150.000000298023
80,264,93060,2,0,B|80:188|68:180|68:180|80:180|80:180|68:172|68:172|80:172|80:172|68:164|68:164|80:164|80:164|64:140|4:124|92:16,1,300.000001192092,0|8,0:0|0:0,0:0:0:0:
204,76,93694,6,8,L|164:52,4,37.5000000745057,8|8|8|8|8,0:0|0:0|0:0|0:0|0:0,0:0:0:0:
412,128,94117,2,0,B|356:160|356:160|312:160|312:160|260:192,1,150.000000298023
340,252,94539,2,8,L|300:228,4,37.5000000745057,8|8|8|8|8,0:0|0:0|0:0|0:0|0:0,0:0:0:0:
208,288,94962,5,8,0:0:0:0:
368,336,95173,1,12,0:0:0:0:
464,220,95384,1,0,0:0:0:0:
464,136,95595,6,0,B|424:112|424:112|436:88|436:88|408:100|408:100|420:80|420:80|392:88|392:88|404:68|404:68|376:56|376:56|344:32|260:40,1,300.000001192092,8|0,0:0|0:0,0:0:0:0:
264,116,96229,2,8,B|199:102|199:102|187:94|187:94|183:110|183:110|167:94|167:94|163:114|163:114|147:110|147:110|139:122|139:122|131:134|131:134|107:182|43:202,1,300.000001192092
44,256,96757,5,0,0:0:0:0:
52,308,96863,1,0,0:0:0:0:
88,348,96969,1,0,0:0:0:0:
140,356,97074,1,0,0:0:0:0:
240,328,97286,5,8,0:0:0:0:
344,324,97497,21,0,0:0:0:0:
396,332,97602,1,8,0:0:0:0:
436,296,97708,1,0,0:0:0:0:
448,244,97814,1,0,0:0:0:0:
416,204,97919,1,8,0:0:0:0:
272,152,98131,5,0,0:0:0:0:
200,76,98342,21,0,0:0:0:0:
240,40,98448,1,8,0:0:0:0:
292,44,98553,1,0,0:0:0:0:
336,72,98659,1,0,0:0:0:0:
344,124,98764,1,8,0:0:0:0:
272,152,98976,22,0,B|304:220|304:220|368:192|368:192|380:188,1,150.000000298023,0|0,0:0|0:0,0:0:0:0:
208,176,99821,2,0,B|239:244|239:244|176:275|176:275|166:281,1,150.000000298023,0|0,0:0|0:0,0:0:0:0:
292,288,100666,1,4,0:0:0:0:
104,256,101511,5,0,0:0:0:0:
104,192,101617,1,0,0:0:0:0:
116,140,101722,1,0,0:0:0:0:
140,88,101828,1,0,0:0:0:0:
192,60,101933,5,0,0:0:0:0:
248,48,102039,1,0,0:0:0:0:
312,56,102145,1,0,0:0:0:0:
368,88,102250,1,0,0:0:0:0:
408,132,102356,1,0,0:0:0:0:
256,192,102567,12,4,105314,0:0:0:0:
172,264,105736,6,0,P|188:308|220:312,1,75.000000298023,8|8,0:0|0:0,0:0:0:0:
304,312,105947,2,0,P|344:280|344:256,1,75.000000298023,8|8,0:0|0:0,0:0:0:0:
256,228,106264,1,2,0:0:0:0:
256,228,106369,2,2,B|256:212|256:200|256:200|264:192|264:192|248:184|248:184|264:176|264:176|248:168|248:168|264:160|264:160|256:152|256:152|256:136|256:104,1,150.000000596046,10|10,0:0|0:0,0:0:0:0:
344,88,107003,6,8,P|324:44|288:36,1,75.000000298023
212,40,107214,2,8,P|171:65|168:102,1,75.000000298023
256,124,107531,1,10,0:0:0:0:
256,124,107637,2,10,B|256:140|256:152|256:152|264:160|264:160|248:168|248:168|264:176|264:176|248:184|248:184|264:192|264:192|256:200|256:200|256:216|256:248,1,150.000000596046,10|14,0:0|0:0,0:0:0:0:
148,104,108271,5,8,0:0:0:0:
360,104,108376,1,2,0:0:0:0:
256,292,108482,1,8,0:0:0:0:
312,224,108693,5,8,0:0:0:0:
200,224,108799,1,2,0:0:0:0:
256,136,108905,1,8,0:0:0:0:
424,140,109116,5,8,0:0:0:0:
424,176,109221,1,0,0:0:0:0:
412,212,109327,1,8,0:0:0:0:
384,236,109433,1,0,0:0:0:0:
348,244,109538,1,8,0:0:0:0:
320,268,109644,1,0,0:0:0:0:
296,300,109750,1,8,0:0:0:0:
280,332,109855,1,0,0:0:0:0:
232,332,109961,5,8,0:0:0:0:
216,300,110066,1,8,0:0:0:0:
192,268,110172,1,8,0:0:0:0:
164,244,110278,1,8,0:0:0:0:
128,236,110383,1,8,0:0:0:0:
100,212,110489,1,8,0:0:0:0:
88,176,110595,1,8,0:0:0:0:
88,140,110700,1,8,0:0:0:0:
256,192,110963,12,12,113332,0:0:0:0:
256,336,113648,5,8,0:0:0:0:
256,192,113963,2,2,L|256:236,4,37.5000001490115
80,192,114437,1,8,0:0:0:0:
256,192,114595,2,0,L|196:192,4,37.5000001490115
428,192,115069,1,8,0:0:0:0:
256,192,115227,2,2,L|312:192,4,37.5000001490115
256,192,115700,1,8,0:0:0:0:
256,192,115858,5,12,0:0:0:0:
256,40,116174,1,8,0:0:0:0:
256,112,116332,1,0,0:0:0:0:
186,151,116490,6,0,L|139:183,1,37.5000000745057
227,187,116648,2,0,L|202:233,1,37.5000000745057
284,188,116806,2,0,L|299:241,1,37.5000000745057
326,151,116963,2,0,L|372:183,1,37.5000000745057
388,88,117121,6,2,L|424:52,3,37.5000001490115
416,164,117437,2,0,L|496:112,1,75.0000001490115,0|8,0:0|0:0,0:0:0:0:
404,248,117753,5,2,0:0:0:0:
392,264,117832,1,2,0:0:0:0:
376,280,117911,1,0,0:0:0:0:
360,288,117990,1,2,0:0:0:0:
344,296,118069,1,2,0:0:0:0:
328,296,118148,1,2,0:0:0:0:
308,296,118227,1,2,0:0:0:0:
288,296,118306,1,2,0:0:0:0:
272,304,118384,1,14,0:0:0:0:
76,336,118700,5,8,0:0:0:0:
196,344,118858,1,8,0:0:0:0:
140,232,119016,1,2,0:0:0:0:
144,212,119095,1,2,0:0:0:0:
144,192,119174,1,2,0:0:0:0:
140,172,119253,1,2,0:0:0:0:
132,156,119332,1,2,0:0:0:0:
48,64,119490,2,0,B|76:36|76:36|112:44,1,75.000000298023,8|12,0:0|0:0,0:0:0:0:
192,84,119963,5,10,0:0:0:0:
208,72,120042,1,2,0:0:0:0:
224,60,120121,1,10,0:0:0:0:
240,52,120200,1,2,0:0:0:0:
260,48,120279,1,10,0:0:0:0:
348,44,120437,1,8,0:0:0:0:
320,184,120595,1,8,0:0:0:0:
468,140,120753,1,8,0:0:0:0:
360,332,120911,6,0,B|324:340|324:340|200:340|200:264|256:244|256:244|312:264|312:340|184:340|184:340|137:323,1,450.000018060207,12|8,0:0|0:0,0:0:0:0:
100,160,121858,1,8,0:0:0:0:
248,72,122174,2,0,B|232:128|324:168|232:204|256:228,1,150.000000298023,12|0,0:0|0:0,0:0:0:0:
316,96,123437,5,8,0:0:0:0:
228,232,123595,1,0,0:0:0:0:
228,232,123674,1,8,0:0:0:0:
228,232,123753,1,0,0:0:0:0:
104,336,123911,1,0,0:0:0:0:
76,180,124069,2,0,P|108:92|176:68,1,150.000000298023
244,40,124384,2,0,P|212:128|144:152,1,150.000000298023
200,216,124700,2,0,P|276:176|316:108,1,150.000000298023
320,44,125016,2,0,P|388:120|336:208,1,150.000000298023
348,296,125332,5,0,0:0:0:0:
320,320,125411,1,0,0:0:0:0:
284,336,125490,1,0,0:0:0:0:
248,336,125569,1,0,0:0:0:0:
212,324,125648,1,0,0:0:0:0:
180,304,125727,1,0,0:0:0:0:
144,304,125806,1,0,0:0:0:0:
108,316,125884,1,0,0:0:0:0:
104,112,125963,6,8,P|160:92|184:100,1,75.0000001490115,12|8,0:0|0:0,0:0:0:0:
244,160,126437,1,0,0:0:0:0:
296,236,126595,2,2,L|256:272,4,37.5000000745057
444,312,127069,1,8,0:0:0:0:
444,312,127227,2,0,L|488:336,4,37.5000001490115
408,184,127700,5,8,0:0:0:0:
465,132,127858,1,2,0:0:0:0:
483,97,127937,1,2,0:0:0:0:
480,48,128016,1,2,0:0:0:0:
453,18,128095,1,2,0:0:0:0:
417,9,128174,1,2,0:0:0:0:
382,20,128253,1,2,0:0:0:0:
353,47,128332,1,2,0:0:0:0:
344,83,128411,1,2,0:0:0:0:
352,122,128490,1,14,0:0:0:0:
216,64,128806,6,0,P|224:152|172:200,1,150.000000298023
156,128,129121,2,0,P|112:192|148:256,1,150.000000298023
108,320,129437,2,0,P|180:308|224:228,1,150.000000298023
336,156,129753,2,0,B|372:136|372:136|404:156,1,75.0000001490115
444,300,130227,1,8,0:0:0:0:
444,300,130384,2,2,L|408:348,4,37.5000001490115,8|2|2|2|2,0:0|0:0|0:0|0:0|0:0,0:0:0:0:
256,52,130858,5,8,0:0:0:0:
176,292,131016,1,0,0:0:0:0:
328,292,131174,1,0,0:0:0:0:
132,144,131332,1,0,0:0:0:0:
376,140,131490,1,8,0:0:0:0:
256,236,131648,1,0,0:0:0:0:
304,184,131806,1,0,0:0:0:0:
256,140,131963,1,0,0:0:0:0:
208,188,132121,1,8,0:0:0:0:
396,224,132279,5,10,0:0:0:0:
411,272,132358,1,10,0:0:0:0:
404,325,132437,1,10,0:0:0:0:
371,364,132516,1,10,0:0:0:0:
322,371,132595,1,10,0:0:0:0:
274,351,132674,1,10,0:0:0:0:
249,304,132753,1,10,0:0:0:0:
205,274,132832,1,10,0:0:0:0:
153,263,132911,1,10,0:0:0:0:
136,356,133069,5,8,0:0:0:0:
216,192,133227,1,8,0:0:0:0:
36,232,133384,1,8,0:0:0:0:
116,72,133542,2,0,B|79:48|79:48|41:60|41:60|8:34,1,112.500004515052,0|4,0:0|0:0,0:0:0:0:
264,40,134016,1,0,0:0:0:0:
436,48,134174,2,8,L|488:28,4,37.5000000745057
264,40,134648,1,0,0:0:0:0:
408,260,134806,6,0,B|444:276|444:276|448:312|448:312|500:348,1,112.500004515052,0|4,0:0|0:0,0:0:0:0:
256,344,135279,1,0,0:0:0:0:
84,288,135437,2,8,L|28:324,4,37.5000001490115
256,344,135911,1,0,0:0:0:0:
236,132,136069,6,0,B|279:140|308:121|308:121|300:152|317:197,1,150.000000298023,0|4,0:0|0:0,0:0:0:0:
240,216,137016,1,0,0:0:0:0:
240,216,137332,1,8,0:0:0:0:
256,192,137648,12,4,140707,0:0:0:0:
256,192,152537,12,12,153805,0:0:0:0:
256,268,154228,6,0,L|196:332,1,75.000000298023,8|0,0:0|0:0,0:0:0:0:
256,268,154439,2,0,L|316:332,1,75.000000298023,0|8,0:0|0:0,0:0:0:0:
256,268,154756,2,0,L|256:112,1,150.000000596046,8|0,0:0|0:0,0:0:0:0:
256,120,155073,1,8,0:0:0:0:
256,120,155284,1,8,0:0:0:0:
148,184,155495,5,12,0:0:0:0:
100,120,155601,1,0,0:0:0:0:
140,52,155707,1,8,0:0:0:0:
216,52,155812,1,0,0:0:0:0:
296,40,155918,6,0,L|376:40,1,75.0000001490115
456,44,156129,1,0,0:0:0:0:
484,124,156235,1,0,0:0:0:0:
356,136,156446,2,0,B|424:180|424:180|380:260,1,150.000000596046,8|0,0:0|0:0,0:0:0:0:
392,240,156763,2,8,B|352:312|352:312|432:364,1,150.000000596046
468,292,157185,5,12,0:0:0:0:
392,240,157291,1,0,0:0:0:0:
296,248,157397,1,8,0:0:0:0:
235,320,157502,1,0,0:0:0:0:
159,352,157608,6,0,P|71:336|47:268,1,150.000000298023
48,288,157925,2,0,P|131:252|124:176,1,150.000000298023
68,220,158242,2,0,B|32:192|32:192|32:132,2,75.0000001490115,0|8|0,0:0|0:0|0:0,0:0:0:0:
56,88,158664,2,0,B|116:96|116:96|128:44|172:32,1,150.000000298023,8|12,0:0|0:0,0:0:0:0:
172,36,158981,1,0,0:0:0:0:
172,36,159087,1,8,0:0:0:0:
232,68,159298,5,8,0:0:0:0:
268,60,159404,1,0,0:0:0:0:
304,60,159509,1,8,0:0:0:0:
340,68,159615,1,0,0:0:0:0:
372,88,159721,1,8,0:0:0:0:
476,228,159932,5,8,0:0:0:0:
464,264,160037,1,0,0:0:0:0:
432,284,160143,1,8,0:0:0:0:
396,296,160249,1,0,0:0:0:0:
360,292,160354,1,8,0:0:0:0:
288,172,160566,5,8,0:0:0:0:
248,188,160671,1,0,0:0:0:0:
212,212,160777,1,8,0:0:0:0:
180,240,160883,1,0,0:0:0:0:
164,280,160988,6,0,B|108:344|108:344|32:296,1,150.000000298023
84,224,161305,2,0,B|120:168|120:168|72:136|68:96,1,150.000000298023
104,28,161622,1,0,0:0:0:0:
160,84,161728,1,0,0:0:0:0:
236,96,161833,2,0,B|276:36|276:36|312:64|312:64|372:80,1,150.000000298023
412,156,162256,5,8,0:0:0:0:
256,192,162361,2,0,B|248:228|248:228|228:224|228:224|200:236,1,75.0000001490115
132,112,162678,6,0,P|76:72|84:44,1,75.0000001490115
136,40,162890,2,0,P|196:72|200:88,1,75.0000001490115
284,76,163207,2,0,P|364:84|388:168,1,150.000000596046,8|0,0:0|0:0,0:0:0:0:
324,168,163523,2,0,P|356:244|444:260,1,150.000000298023,8|0,0:0|0:0,0:0:0:0:
252,184,163946,5,8,0:0:0:0:
208,248,164052,1,8,0:0:0:0:
248,312,164157,1,8,0:0:0:0:
320,328,164263,1,0,0:0:0:0:
384,264,164368,6,0,P|464:220|476:160,1,150.000000298023
384,264,164685,2,0,P|300:192|240:232,1,150.000000298023
384,264,165108,2,0,P|384:340|392:352,1,75.0000001490115
256,192,165425,5,0,0:0:0:0:
216,264,165530,1,0,0:0:0:0:
164,340,165636,1,8,0:0:0:0:
124,260,165742,1,8,0:0:0:0:
44,224,165847,1,8,0:0:0:0:
136,116,166059,5,8,0:0:0:0:
164,92,166164,1,0,0:0:0:0:
196,72,166270,1,0,0:0:0:0:
232,64,166376,1,0,0:0:0:0:
264,80,166481,1,8,0:0:0:0:
292,104,166587,1,0,0:0:0:0:
328,112,166692,1,0,0:0:0:0:
364,108,166798,1,0,0:0:0:0:
400,96,166904,1,8,0:0:0:0:
440,160,167115,6,8,P|420:248|364:248,1,150.000000596046
304,276,167537,2,0,L|348:340,2,75.000000298023,8|0|8,0:0|0:0|0:0,0:0:0:0:
228,272,167960,2,0,P|208:324|216:352,1,75.000000298023,0|8,0:0|0:0,0:0:0:0:
156,248,168277,2,0,P|136:280|144:336,1,75.000000298023,0|8,0:0|0:0,0:0:0:0:
60,316,168594,5,8,0:0:0:0:
72,216,168805,1,2,0:0:0:0:
48,128,169016,1,8,0:0:0:0:
120,80,169228,6,0,B|156:88|188:116|200:64|220:84|280:96,1,150.000000596046
336,64,169650,1,8,0:0:0:0:
328,144,169756,1,10,0:0:0:0:
368,212,169861,1,8,0:0:0:0:
404,100,170073,2,8,P|472:176|448:228,1,150.000000596046
440,304,170495,5,0,0:0:0:0:
352,316,170707,1,8,0:0:0:0:
352,316,170918,2,0,P|260:336|212:300,1,150.000000596046,2|8,0:0|0:0,0:0:0:0:
40,260,171340,6,0,B|28:296|28:296|44:348,1,75.0000001490115
132,300,171657,2,0,B|140:264|140:264|128:211,1,75.0000001490115
96,152,171974,2,0,L|52:88,1,75.0000001490115
164,180,172185,2,0,L|252:152,1,75.0000001490115
168,80,172397,1,10,0:0:0:0:
328,56,172608,6,0,B|368:80|368:80|376:72|376:72|384:80|384:80|376:88|376:88|401:119|412:156,1,150.000000596046
316,156,173030,1,0,0:0:0:0:
288,216,173136,1,8,0:0:0:0:
228,240,173242,1,0,0:0:0:0:
272,328,173453,2,0,B|284:328|296:316|296:316|296:332|296:332|312:316|312:316|312:332|312:332|332:320|344:332|388:324,1,150.000000298023,8|0,0:0|0:0,0:0:0:0:
428,184,173876,6,2,L|459:209,4,37.5000000745057
296,48,174298,1,8,0:0:0:0:
112,96,174509,1,8,0:0:0:0:
184,208,174721,5,8,0:0:0:0:
196,248,174826,1,8,0:0:0:0:
216,280,174932,1,8,0:0:0:0:
240,308,175037,1,8,0:0:0:0:
276,328,175143,1,8,0:0:0:0:
308,336,175249,1,8,0:0:0:0:
336,340,175354,6,0,B|396:364|396:364|448:360|448:288|448:288|488:244,1,225.000009030104,14|2,0:0|0:0,0:0:0:0:
444,148,175988,6,0,B|404:172|384:196|384:196|364:168|320:140,1,150.000000298023,2|2,0:0|0:0,0:0:0:0:
256,140,176411,2,2,L|256:228,2,75.000000298023
180,148,176833,2,0,B|140:168|120:196|120:196|100:168|56:140,1,150.000000298023,2|2,0:0|0:0,0:0:0:0:
180,148,177256,1,0,0:0:0:0:
52,296,177467,5,8,0:0:0:0:
80,320,177573,1,0,0:0:0:0:
116,332,177678,1,8,0:0:0:0:
156,328,177784,1,0,0:0:0:0:
192,312,177890,1,8,0:0:0:0:
256,292,178101,5,0,0:0:0:0:
256,40,178312,1,8,0:0:0:0:
336,248,178523,1,0,0:0:0:0:
204,132,178735,1,8,0:0:0:0:
308,132,178946,1,0,0:0:0:0:
172,248,179157,1,8,0:0:0:0:
396,188,179368,1,0,0:0:0:0:
120,184,179580,1,8,0:0:0:0:
256,192,179791,5,8,0:0:0:0:
256,284,180002,1,8,0:0:0:0:
256,192,180214,1,8,0:0:0:0:
176,232,180425,1,8,0:0:0:0:
256,192,180636,1,8,0:0:0:0:
332,232,180847,1,8,0:0:0:0:
256,192,181059,1,8,0:0:0:0:
256,192,181270,12,4,182537,0:0:0:0:
104,120,182960,6,0,P|180:92|248:108,1,150.000000298023
245,106,184650,1,0,0:0:0:0:
288,160,185495,1,0,0:0:0:0:
384,252,186340,2,0,B|328:236|304:268|304:268|264:252|232:256,1,150.000000298023
112,211,188030,2,0,P|106:282|164:336,1,150.000000298023
208,320,189086,1,0,0:0:0:0:
236,332,189298,1,0,0:0:0:0:
268,344,189509,1,0,0:0:0:0:
348,348,189720,6,0,P|392:284|376:216,1,150.000000298023
312,264,191410,2,0,P|276:188|308:120,1,150.000000298023
244,84,192467,1,0,0:0:0:0:
224,108,192678,1,0,0:0:0:0:
208,128,192889,1,0,0:0:0:0:
164,188,193100,6,0,B|140:216|140:216|96:220,1,75.0000001490115
192,272,193734,1,0,0:0:0:0:
216,284,193945,1,0,0:0:0:0:
240,296,194157,1,0,0:0:0:0:
260,304,194368,1,0,0:0:0:0:
276,312,194579,1,0,0:0:0:0:
52,136,196059,6,0,B|115:101|246:273|314:103|91:-87|74:88|158:239,1,450.000018060207
168,292,196587,5,0,0:0:0:0:
200,312,196692,1,8,0:0:0:0:
236,320,196798,1,0,0:0:0:0:
272,320,196904,1,8,0:0:0:0:
308,308,197009,1,0,0:0:0:0:
332,280,197115,1,8,0:0:0:0:
344,244,197221,1,0,0:0:0:0:
336,208,197326,5,8,0:0:0:0:
332,172,197432,1,0,0:0:0:0:
352,140,197537,1,8,0:0:0:0:
380,112,197643,1,0,0:0:0:0:
416,100,197749,1,8,0:0:0:0:
452,108,197854,1,0,0:0:0:0:
484,128,197960,5,8,0:0:0:0:
496,164,198066,1,8,0:0:0:0:
492,200,198171,1,8,0:0:0:0:
480,276,198383,2,0,P|440:328|348:352,1,150.000000298023,0|8,0:0|0:0,0:0:0:0:
232,212,198805,2,0,P|256:244|268:292,1,75.0000001490115
308,80,199121,1,8,0:0:0:0:
164,56,199228,2,0,B|112:60|88:48|88:48|84:76|44:136,1,150.000000298023
232,212,199650,6,10,L|180:200,4,37.5000001490115,8|8|8|8|8,0:0|0:0|0:0|0:0|0:0,0:0:0:0:
60,344,200073,1,8,0:0:0:0:
60,344,200178,1,2,0:0:0:0:
60,344,200284,1,8,0:0:0:0:
120,196,200495,1,0,0:0:0:0:
168,292,200707,5,8,0:0:0:0:
188,324,200812,1,2,0:0:0:0:
224,340,200918,1,8,0:0:0:0:
264,336,201023,1,0,0:0:0:0:
296,320,201129,1,0,0:0:0:0:
332,316,201234,1,0,0:0:0:0:
368,324,201340,6,8,B|401:274|391:267|391:267|440:261|440:261|406:226|406:226|454:211|454:211|429:190|429:190|424:164|424:164|394:144|376:124,1,300.000000596046
304,172,201974,1,0,0:0:0:0:
404,48,202185,1,8,0:0:0:0:
232,44,202397,5,8,0:0:0:0:
304,172,202608,1,0,0:0:0:0:
296,208,202714,1,0,0:0:0:0:
276,244,202819,1,8,0:0:0:0:
252,272,202925,1,0,0:0:0:0:
220,292,203030,1,0,0:0:0:0:
184,312,203136,1,0,0:0:0:0:
144,324,203242,5,8,0:0:0:0:
44,264,203453,1,0,0:0:0:0:
152,204,203664,1,8,0:0:0:0:
44,124,203876,2,10,L|76:152,4,37.5000001490115
204,120,204298,1,0,0:0:0:0:
132,16,204509,1,8,0:0:0:0:
276,48,204721,6,0,B|304:60|336:80|348:116|348:116|368:96|368:96|368:128|368:128|388:108|388:108|396:136|396:136|388:156|404:236,1,300.000001192092,0|8,0:0|0:0,0:0:0:0:
304,288,205354,1,0,0:0:0:0:
416,336,205566,1,8,0:0:0:0:
236,324,205777,2,10,L|236:364,4,37.5000001490115
104,328,206199,1,8,0:0:0:0:
168,212,206411,1,0,0:0:0:0:
52,240,206622,5,8,0:0:0:0:
56,192,206728,1,0,0:0:0:0:
76,148,206833,1,0,0:0:0:0:
112,120,206939,1,0,0:0:0:0:
148,104,207045,1,0,0:0:0:0:
256,72,207256,5,8,0:0:0:0:
168,212,207467,1,0,0:0:0:0:
256,72,207678,1,8,0:0:0:0:
336,212,207890,1,0,0:0:0:0:
260,72,208101,6,8,B|356:76|356:76|432:28|432:120|432:120|476:196,1,300.000001192092
128,272,208735,1,0,0:0:0:0:
336,212,208946,1,8,0:0:0:0:
196,140,209157,1,8,0:0:0:0:
408,144,209368,2,0,L|432:184,2,37.5000000745057
268,336,209580,1,0,0:0:0:0:
400,300,209791,2,0,L|424:340,2,37.5000000745057
144,328,210002,21,2,0:0:0:0:
124,308,210108,1,0,0:0:0:0:
96,280,210214,1,8,0:0:0:0:
64,260,210319,1,0,0:0:0:0:
52,224,210425,1,2,0:0:0:0:
64,188,210530,1,0,0:0:0:0:
92,164,210636,1,8,0:0:0:0:
128,172,210742,1,0,0:0:0:0:
156,196,210847,5,2,0:0:0:0:
188,172,210953,1,2,0:0:0:0:
212,156,211059,1,10,0:0:0:0:
248,168,211164,1,2,0:0:0:0:
268,200,211270,1,10,0:0:0:0:
264,236,211376,1,10,0:0:0:0:
244,268,211481,1,10,0:0:0:0:
220,296,211587,1,10,0:0:0:0:
196,324,211692,1,10,0:0:0:0:
356,352,211904,5,0,0:0:0:0:
272,352,212115,1,10,0:0:0:0:
416,296,212326,2,0,B|480:260|480:260|468:160,1,150.000000596046,0|10,0:0|0:0,0:0:0:0:
420,132,212749,1,8,0:0:0:0:
420,132,212854,1,2,0:0:0:0:
420,132,212960,1,8,0:0:0:0:
352,100,213171,1,2,0:0:0:0:
260,32,213383,5,8,0:0:0:0:
144,76,213594,1,0,0:0:0:0:
96,104,213699,1,0,0:0:0:0:
56,144,213805,1,0,0:0:0:0:
44,196,213911,1,0,0:0:0:0:
108,252,214016,2,0,P|208:144|336:192,1,300.000000596046
256,224,214545,5,0,0:0:0:0:
292,268,214650,1,0,0:0:0:0:
340,284,214756,1,0,0:0:0:0:
388,280,214861,1,0,0:0:0:0:
256,224,215073,5,0,0:0:0:0:
160,332,215284,1,8,0:0:0:0:
256,184,215495,1,0,0:0:0:0:
312,340,215707,1,0,0:0:0:0:
356,344,215812,1,0,0:0:0:0:
392,332,215918,1,8,0:0:0:0:
416,264,216129,5,0,0:0:0:0:
388,240,216235,1,0,0:0:0:0:
368,208,216340,1,8,0:0:0:0:
364,172,216446,1,0,0:0:0:0:
372,136,216552,1,0,0:0:0:0:
392,104,216657,1,0,0:0:0:0:
420,80,216763,1,8,0:0:0:0:
352,44,216974,6,0,P|244:48|208:80,1,150.000000596046,0|8,0:0|0:0,0:0:0:0:
176,136,217397,2,0,P|224:212|208:272,1,150.000000596046,0|8,0:0|0:0,0:0:0:0:
316,128,217819,1,0,0:0:0:0:
188,312,218030,1,8,0:0:0:0:
364,288,218242,1,0,0:0:0:0:
156,108,218453,5,0,0:0:0:0:
300,52,218664,2,0,B|312:124|312:124|400:120,1,150.000000596046,0|8,0:0|0:0,0:0:0:0:
464,248,219087,1,0,0:0:0:0:
464,248,219192,1,0,0:0:0:0:
464,248,219298,1,8,0:0:0:0:
292,308,219509,5,0,0:0:0:0:
416,356,219721,1,8,0:0:0:0:
336,200,219932,2,0,L|336:240,2,37.5000000745057
204,304,220143,5,2,0:0:0:0:
312,116,220354,2,0,L|332:84,2,37.5000000745057
96,200,220566,1,8,0:0:0:0:
120,52,220777,1,2,0:0:0:0:
248,176,220988,2,0,L|224:208,4,37.5000000745057
248,176,221411,1,0,0:0:0:0:
260,344,221622,5,0,0:0:0:0:
260,344,221728,1,0,0:0:0:0:
260,344,221833,1,0,0:0:0:0:
320,244,222045,5,0,0:0:0:0:
408,312,222150,2,0,B|476:288|476:288|476:180,1,150.000000298023
468,136,222467,5,0,0:0:0:0:
412,84,222573,1,0,0:0:0:0:
344,52,222678,1,0,0:0:0:0:
344,52,222890,1,0,0:0:0:0:
124,192,222995,2,0,B|120:136|76:92|76:92|124:80|168:24,1,225.000000447034,8|0,0:0|0:0,0:0:0:0:
192,60,223523,5,8,0:0:0:0:
196,112,223629,1,0,0:0:0:0:
220,160,223735,1,0,0:0:0:0:
264,188,223840,1,8,0:0:0:0:
292,92,224052,6,0,P|356:116|368:196,1,150.000000298023,0|8,0:0|0:0,0:0:0:0:
372,192,224368,2,0,P|372:252|456:292,1,150.000000596046,0|8,0:0|0:0,0:0:0:0:
360,352,224791,1,8,0:0:0:0:
308,288,224897,1,8,0:0:0:0:
232,288,225002,1,8,0:0:0:0:
92,312,225214,6,0,B|148:280|148:280|149:355|215:362,1,150.000000298023
64,248,225530,2,0,B|115:218|115:218|87:174|72:157|81:118,1,150.000000298023
80,136,225953,5,8,0:0:0:0:
188,220,226059,2,0,B|272:200|272:200|336:148,1,150.000000298023,0|8,0:0|0:0,0:0:0:0:
288,92,226481,1,8,0:0:0:0:
384,112,226587,1,8,0:0:0:0:
388,212,226692,1,8,0:0:0:0:
232,308,226903,6,0,B|200:344|200:344|148:360,2,75.0000001490115,0|0|0,0:0|0:0|0:0,0:0:0:0:
148,276,227221,2,0,B|104:240|104:240|44:256|16:172,1,150.000000298023
96,168,227537,1,0,0:0:0:0:
152,152,227643,1,8,0:0:0:0:
188,116,227749,1,8,0:0:0:0:
280,64,227960,6,0,B|324:40|360:36|360:36|448:36,1,150.000000298023,0|8,0:0|0:0,0:0:0:0:
376,132,228277,1,8,0:0:0:0:
484,128,228383,1,8,0:0:0:0:
444,288,228594,6,0,P|469:309|467:348,3,75.0000001490115,8|0|0|8,0:0|0:0|0:0|0:0,0:0:0:0:
264,248,229122,2,0,P|332:309|295:362,1,150.000000596046,0|8,0:0|0:0,0:0:0:0:
313,349,229439,2,0,P|228:350|213:283,1,150.000000596046,8|0,0:0|0:0,0:0:0:0:
209,299,229861,1,8,0:0:0:0:
64,152,229967,1,8,0:0:0:0:
276,104,230073,1,8,0:0:0:0:
256,192,230284,12,4,233664,0:0:0:0:
304,132,234192,6,0,P|336:192|296:256,1,150.000000298023,8|0,0:0|0:0,0:0:0:0:
216,256,234509,6,0,P|176:192|216:128,1,150.000000298023,8|0,0:0|0:0,0:0:0:0:
256,192,234932,1,8,0:0:0:0:
256,192,235037,1,10,0:0:0:0:
256,192,235143,1,8,0:0:0:0:
432,160,235354,5,0,0:0:0:0:
420,80,235460,1,0,0:0:0:0:
352,32,235566,1,0,0:0:0:0:
276,36,235671,1,0,0:0:0:0:
304,184,235883,5,8,0:0:0:0:
248,124,235988,1,0,0:0:0:0:
172,120,236094,1,0,0:0:0:0:
136,192,236199,2,0,P|76:236|64:316,1,150.000000596046,8|8,0:0|0:0,0:0:0:0:
184,256,236622,2,0,B|216:232|216:232|252:272,2,75.0000001490115
92,320,237045,5,8,0:0:0:0:
92,320,237150,1,2,0:0:0:0:
92,320,237256,1,2,0:0:0:0:
92,320,237361,2,8,P|168:364|220:320,1,150.000000596046
312,336,237784,5,0,0:0:0:0:
348,324,237890,1,8,0:0:0:0:
372,296,237995,1,2,0:0:0:0:
388,260,238101,1,2,0:0:0:0:
400,224,238207,2,8,P|468:196|448:128,1,150.000000596046
336,24,238629,2,0,L|264:88,1,75.0000001490115,0|0,0:0|0:0,0:0:0:0:
340,120,238840,2,8,L|412:56,1,75.0000001490115,0|0,0:0|0:0,0:0:0:0:
256,168,239052,2,8,B|279:216|279:216|291:208|291:208|287:224|287:224|299:216|299:216|294:232|294:232|334:249,1,150.000000596046
52,40,239474,6,0,P|42:127|68:156,1,93.7500001862644
144,120,239685,2,0,P|195:191|188:228,1,93.7500001862644
80,248,239897,2,0,P|75:336|108:364,1,93.7500001862644
140,288,240108,2,0,P|176:316|228:308,2,75.0000001490115
280,356,240425,2,0,P|340:316|340:288,1,75.0000001490115
328,260,240636,2,0,P|376:212|412:212,1,75.0000001490115
464,264,240953,1,8,0:0:0:0:
384,204,241164,5,0,0:0:0:0:
408,176,241270,1,8,0:0:0:0:
428,144,241376,1,0,0:0:0:0:
440,108,241481,1,0,0:0:0:0:
440,72,241587,1,8,0:0:0:0:
328,76,241798,1,8,0:0:0:0:
236,36,242009,5,0,0:0:0:0:
212,64,242115,1,8,0:0:0:0:
180,88,242221,1,8,0:0:0:0:
144,96,242326,1,8,0:0:0:0:
108,96,242432,1,8,0:0:0:0:
212,184,242643,1,8,0:0:0:0:
96,252,242854,5,0,0:0:0:0:
96,252,242960,2,8,B|84:320|84:320|128:320|128:320|172:376,1,150.000000596046
268,312,243383,2,0,P|328:348|360:244,1,150.000000298023
372,272,243594,2,0,P|312:236|280:340,1,150.000000298023
