osu file format v14

[General]
AudioFilename: BABYMETAL - - MEGITSUNE (Full ver.).mp3
AudioLeadIn: 2000
PreviewTime: 71511
Countdown: 0
SampleSet: Normal
StackLeniency: 0.7
Mode: 0
LetterboxInBreaks: 0
WidescreenStoryboard: 0

[Editor]
Bookmarks: 122513,123142,167108,181263
DistanceSpacing: 1
BeatDivisor: 4
GridSize: 4
TimelineZoom: 1

[Metadata]
Title:MEGITSUNE
TitleUnicode:メギツネ
Artist:BABYMETAL
ArtistUnicode:BABYMETAL
Creator:Onisakura
Version:Easy
Source:
Tags:jpop moshiri BluOxy JUDYDANNY AlpacaCokelat
BeatmapID:288143
BeatmapSetID:110357

[Difficulty]
HPDrainRate:2
CircleSize:2
OverallDifficulty:1
ApproachRate:4
SliderMultiplier:1.00000000596046
SliderTickRate:1

[Events]
//Background and Video events
0,0,"BG.jpg",0,0
Video,0,"BABYMETAL-MEGITSUNE.avi"
//Break Periods
2,1993,3008
2,5373,6388
2,43401,55402
2,100878,109486
2,140907,152908
2,183160,195161
//Storyboard Layer 0 (Background)
//Storyboard Layer 1 (Fail)
//Storyboard Layer 2 (Pass)
//Storyboard Layer 3 (Foreground)
//Storyboard Sound Samples

[TimingPoints]
948,422.535211267606,4,1,1,100,1,0
71933,-100,4,1,1,100,0,1
100666,-100,4,1,1,100,0,0
105736,422.535211267606,3,1,1,100,1,0
110806,631.578947368421,4,1,1,100,1,0
138595,422.535211267606,5,1,1,100,1,0
140707,422.535211267606,4,1,1,100,1,0
182960,845.070422535211,4,1,1,100,1,0
194791,422.535211267606,4,1,1,100,1,0
196481,-100,4,1,1,100,0,1
233664,-100,4,1,1,100,0,0

[Colours]
Combo1 : 2,123,60
Combo2 : 173,92,3
Combo3 : 211,33,47

[HitObjects]
88,64,948,6,0,P|160:152|244:128,1,200.000001192092
408,224,4328,6,0,P|350:310|242:266,1,200.000001192092
184,88,7708,5,0,0:0:0:0:
132,228,8342,6,0,P|168:280|196:288,1,50.000000298023
300,304,9187,6,0,P|344:264|360:236,1,50.000000298023
400,136,10032,6,0,P|352:128|324:112,1,50.000000298023
256,92,10666,1,0,0:0:0:0:
256,192,11088,12,0,13624,0:0:0:0:
256,120,14469,5,0,0:0:0:0:
444,188,15314,2,0,P|460:280|432:308,2,100.000000596046
288,316,17004,6,0,P|204:288|192:248,2,100.000000596046
256,120,18694,5,0,0:0:0:0:
448,180,19539,6,0,P|464:260|456:288,2,100.000000596046
360,228,20807,1,0,0:0:0:0:
272,276,21229,1,0,0:0:0:0:
72,300,22074,5,0,0:0:0:0:
76,200,22497,2,0,P|100:140|112:124,2,50.000000298023
196,40,23764,5,0,0:0:0:0:
272,104,24187,2,0,P|320:104|348:88,2,50.000000298023
436,220,25455,6,0,P|400:284|368:284,1,100.000000596046
284,260,26300,1,0,0:0:0:0:
88,292,27145,1,0,0:0:0:0:
256,192,27990,12,0,29257,0:0:0:0:
64,160,30102,6,0,B|116:104|188:188|152:68|236:52,2,200.000001192092
156,336,32637,1,0,0:0:0:0:
352,300,33483,6,0,P|360:200|300:124,1,200.000001192092
204,104,34750,2,0,L|172:168,2,50.000000298023
104,108,35595,2,0,L|132:48,2,50.000000298023
88,208,36440,5,0,0:0:0:0:
244,336,37286,1,0,0:0:0:0:
288,140,38131,6,0,P|232:180|228:192,2,50.000000298023
380,176,38976,2,0,P|432:180|452:196,2,50.000000298023
304,240,39821,5,0,0:0:0:0:
476,344,40666,1,0,0:0:0:0:
256,192,41511,12,0,43201,0:0:0:0:
236,160,56722,5,0,0:0:0:0:
76,280,57567,1,0,0:0:0:0:
264,352,58412,2,0,P|396:304|436:228,1,200.000001192092
348,76,60102,5,0,0:0:0:0:
148,68,60948,1,0,0:0:0:0:
48,240,61793,1,0,0:0:0:0:
124,176,62215,1,0,0:0:0:0:
144,276,62638,1,0,0:0:0:0:
340,316,63483,6,0,P|456:300|468:288,1,100.000000596046
412,216,64328,1,0,0:0:0:0:
248,100,65173,1,0,0:0:0:0:
324,36,65595,1,0,0:0:0:0:
344,136,66018,1,0,0:0:0:0:
144,108,66863,5,0,0:0:0:0:
120,256,67497,2,0,P|180:264|204:252,1,50.000000298023
312,312,68342,2,0,P|272:272|244:268,1,50.000000298023
256,192,68976,12,0,71088,0:0:0:0:
327,136,71933,6,0,P|215:272|319:256,1,400.000002384184
256,192,74469,1,0,0:0:0:0:
440,268,75314,5,0,0:0:0:0:
428,120,75948,2,0,P|352:84|324:80,1,100.000000596046
252,28,76793,2,0,P|240:88|204:128,1,100.000000596046
124,152,77638,2,0,L|88:208,1,50.000000298023
240,284,78694,6,0,L|280:248,2,50.000000298023
312,352,79539,1,0,0:0:0:0:
164,336,80173,2,0,B|104:352|104:352|48:344,1,100.000000596046
56,296,80807,2,0,B|64:244|64:244|32:192,2,100.000000596046
256,192,82074,12,0,84609,0:0:0:0:
348,221,85455,6,0,P|163:162|235:100,1,400.000002384184
256,192,87990,1,0,0:0:0:0:
392,48,88835,6,0,P|460:112|456:152,1,100.000000596046
452,160,89469,2,0,P|412:224|412:268,1,100.000000596046
340,320,90314,2,0,P|236:296|212:272,2,100.000000596046
376,284,91370,1,0,0:0:0:0:
152,248,92215,6,0,P|160:180|192:140,1,100.000000596046
248,84,93060,1,0,0:0:0:0:
344,56,93483,1,0,0:0:0:0:
384,84,93694,2,0,B|404:160|404:160|356:160|320:196|320:196,1,150.000000894069
260,244,94750,2,0,L|260:312,2,50.000000298023
200,164,95595,6,0,B|155:198|152:218|152:218|125:211|62:235,1,150.000000894069
48,136,96652,1,0,0:0:0:0:
256,192,97286,12,4,100666,0:0:0:0:
256,192,110806,12,0,112700,0:0:0:0:
80,256,113332,6,0,P|116:172|160:152,1,100.000000596046
220,184,114595,2,0,P|288:244|320:236,1,100.000000596046
384,220,115858,6,0,P|384:144|376:136,2,50.000000298023
364,320,117121,2,0,L|304:340|304:340,2,50.000000298023
352,216,118384,5,0,0:0:0:0:
260,176,119016,1,0,0:0:0:0:
184,244,119648,1,0,0:0:0:0:
84,248,120279,1,0,0:0:0:0:
88,148,120911,5,0,0:0:0:0:
156,72,121542,1,0,0:0:0:0:
204,64,121858,1,0,0:0:0:0:
252,64,122174,2,0,B|304:76|312:44|312:44|332:80|332:80|368:68|368:68|376:76|440:76,1,200.000001192092
412,176,124069,5,0,0:0:0:0:
336,240,124700,2,0,P|220:236|204:252,2,100.000000596046
276,320,126595,1,0,0:0:0:0:
180,292,127227,2,0,P|116:336|72:336,2,100.000000596046
104,224,129121,5,0,0:0:0:0:
60,132,129753,1,0,0:0:0:0:
136,68,130384,1,0,0:0:0:0:
220,120,131016,1,0,0:0:0:0:
196,216,131648,2,0,P|304:248|320:236,1,100.000000596046
372,300,132911,1,0,0:0:0:0:
396,204,133542,5,0,0:0:0:0:
356,112,134174,1,0,0:0:0:0:
268,60,134806,2,0,B|200:64|144:100|144:120,1,100.000000596046
104,160,136069,1,0,0:0:0:0:
120,260,136700,2,0,P|172:280|196:272,2,50.000000298023
256,192,138595,12,0,140707,0:0:0:0:
172,144,154228,6,0,P|280:108|312:104,1,100.000000596046
348,164,155073,1,0,0:0:0:0:
360,264,155495,1,0,0:0:0:0:
272,312,155918,6,0,P|228:308|216:288,2,50.000000298023
232,220,156763,1,0,0:0:0:0:
156,156,157185,1,0,0:0:0:0:
112,68,157608,6,0,P|176:68|200:56,2,50.000000298023
224,32,158453,2,0,P|272:64|276:76,2,50.000000298023
340,32,159298,5,0,0:0:0:0:
420,92,159721,1,0,0:0:0:0:
436,192,160143,1,0,0:0:0:0:
404,288,160566,1,0,0:0:0:0:
324,348,160988,6,0,B|232:292|232:292|120:276|120:276,1,200.000001192092
52,232,162256,1,0,0:0:0:0:
76,136,162678,6,0,P|148:156|176:152,1,100.000000596046
180,252,163523,1,0,0:0:0:0:
272,212,163946,1,0,0:0:0:0:
312,120,164368,6,0,P|372:116|388:128,2,50.000000298023
384,192,165214,2,0,P|384:256|404:268,2,50.000000298023
472,140,166059,5,0,0:0:0:0:
476,240,166481,1,0,0:0:0:0:
416,320,166904,1,0,0:0:0:0:
316,320,167326,5,0,0:0:0:0:
248,248,167749,2,0,P|160:280|128:256,1,100.000000596046
88,212,168594,1,0,0:0:0:0:
200,44,169439,1,0,0:0:0:0:
108,88,169861,2,0,P|152:136|200:140,1,100.000000596046
284,128,170707,6,0,P|312:204|320:208,2,50.000000298023
360,64,171552,2,0,P|388:108|388:168,1,100.000000596046
312,284,172608,2,0,P|297:335|324:360,1,50.000000298023
196,324,173242,2,0,P|136:332|92:304,1,100.000000596046
84,216,174087,6,0,P|64:224|44:264,2,50.000000298023
164,156,174932,1,0,0:0:0:0:
192,60,175354,1,0,0:0:0:0:
304,48,175988,1,0,0:0:0:0:
340,84,176199,2,0,P|384:72|424:80,2,75.0000004470345
336,132,177045,1,0,0:0:0:0:
368,228,177467,6,0,P|348:280|328:296,2,50.000000298023
192,228,178523,2,0,P|212:188|244:164,1,50.000000298023
184,40,179368,2,0,P|228:76|232:112,1,50.000000298023
256,192,179791,12,0,182960,0:0:0:0:
96,192,196481,6,0,P|252:48|336:88,1,300.000001788138
380,136,198171,1,0,0:0:0:0:
312,324,199016,1,0,0:0:0:0:
136,232,199861,5,0,0:0:0:0:
192,92,200495,2,0,P|284:52|300:64,1,100.000000596046
280,148,201340,2,0,P|336:204|384:184,1,100.000000596046
428,140,202185,2,0,P|472:180|464:204,1,50.000000298023
440,260,202819,1,0,0:0:0:0:
356,316,203242,6,0,P|240:340|224:340,2,100.000000596046
288,244,204509,1,0,0:0:0:0:
196,204,204932,2,0,P|84:188|80:180,2,100.000000596046
228,108,206199,1,0,0:0:0:0:
328,92,206622,6,0,B|392:92|392:92|332:172|444:144|444:144|436:208,1,250.000001490115
356,260,208101,2,0,P|272:300|248:284,1,100.000000596046
208,228,208946,1,0,0:0:0:0:
160,240,209157,1,0,0:0:0:0:
80,184,209580,1,0,0:0:0:0:
256,192,210002,12,0,211692,0:0:0:0:
240,152,212537,5,0,0:0:0:0:
436,200,213383,1,0,0:0:0:0:
380,284,213805,2,0,P|300:308|252:292,1,100.000000596046
188,332,214650,1,0,0:0:0:0:
100,288,215073,2,0,P|140:236|140:176,1,100.000000596046
244,220,215918,2,0,P|256:192|240:124,1,100.000000596046
144,100,216763,6,0,P|79:151|147:124,1,200.000001192092
224,156,218030,1,0,0:0:0:0:
324,168,218453,2,0,P|378:222|306:194,1,200.000001192092
248,292,219721,1,0,0:0:0:0:
152,320,220143,6,0,P|88:336|36:320,1,100.000000596046
52,280,220777,2,0,P|76:224|124:200,1,100.000000596046
208,200,221622,5,0,0:0:0:0:
208,200,221833,2,0,B|248:224|248:224|292:204,1,75.0000004470345
340,172,222467,1,0,0:0:0:0:
340,172,222678,2,0,P|353:107|341:83,1,75.0000004470345
420,76,223312,2,0,L|480:48,2,50.000000298023
404,224,224368,5,0,0:0:0:0:
308,256,224791,1,0,0:0:0:0:
208,264,225214,6,0,L|192:352|192:352,2,50.000000298023
108,248,226059,1,0,0:0:0:0:
68,156,226481,1,0,0:0:0:0:
168,168,226904,6,0,P|204:96|212:56,1,100.000000596046
304,108,227749,2,0,P|424:100|440:112,1,100.000000596046
400,188,228594,6,0,P|396:228|388:252,2,50.000000298023
304,212,229439,2,0,P|296:272|296:280,2,50.000000298023
256,192,230284,12,0,233664,0:0:0:0:
216,160,234509,5,0,0:0:0:0:
232,284,234932,1,0,0:0:0:0:
324,308,235354,6,0,P|380:308|416:316,2,75.0000004470345
308,216,236199,2,0,P|344:180|356:164,2,50.000000298023
280,120,237045,5,0,0:0:0:0:
280,120,237890,1,0,0:0:0:0:
280,120,238735,1,0,0:0:0:0:
92,48,239580,6,0,P|48:112|48:156,2,100.000000596046
192,236,241270,5,0,0:0:0:0:
192,236,242115,1,0,0:0:0:0:
392,220,242960,6,0,P|440:232|464:248,1,50.000000298023
456,280,243383,2,0,P|444:292|440:304,3,25.0000001490115
