osu file format v12

[General]
AudioFilename: 03 Give Me Choco!!.mp3
AudioLeadIn: 0
PreviewTime: -1
Countdown: 1
SampleSet: Normal
StackLeniency: 0.7
Mode: 0
LetterboxInBreaks: 1
EpilepsyWarning: 1
WidescreenStoryboard: 0

[Editor]
DistanceSpacing: 1.2
BeatDivisor: 4
GridSize: 4
TimelineZoom: 1

[Metadata]
Title:Give Me Choco!!
TitleUnicode:Give Me Choco!!
Artist:BABYMETAL
ArtistUnicode:BABYMETAL
Creator:Kysko
Version:Insane
Source:
Tags:
BeatmapID:413703
BeatmapSetID:170957

[Difficulty]
HPDrainRate:6
CircleSize:5
OverallDifficulty:7
ApproachRate:8
SliderMultiplier:1.30000000596046
SliderTickRate:3

[Events]
//Background and Video events
//Break Periods
//Storyboard Layer 0 (Background)
//Storyboard Layer 1 (Fail)
//Storyboard Layer 2 (Pass)
//Storyboard Layer 3 (Foreground)
//Storyboard Sound Samples
//Background Colour Transformations
3,100,163,162,255

[TimingPoints]
0,272.727272727273,3,1,0,100,1,0
9340,-83.3333333333333,3,1,0,100,0,0
15340,-66.6666666666667,3,1,0,100,0,0
18068,-200,3,1,0,73,0,0
44113,-66.6666666666667,3,1,0,82,0,1

[HitObjects]
256,192,6000,12,0,9000,0:0:0:0:
244,80,9545,5,0,0:0:0:0:
268,84,9681,1,0,0:0:0:0:
352,136,9886,1,0,0:0:0:0:
336,180,10022,1,0,0:0:0:0:
304,144,10159,1,0,0:0:0:0:
288,188,10295,6,0,B|-16:184|-12:184,1,292.50001115799
64,116,10977,5,0,0:0:0:0:
108,92,11113,1,0,0:0:0:0:
152,72,11250,1,0,0:0:0:0:
200,76,11386,6,0,B|476:68|464:72,1,243.750009298325
444,144,11931,1,0,0:0:0:0:
444,192,12068,1,0,0:0:0:0:
404,220,12204,1,0,0:0:0:0:
308,236,12409,6,0,P|240:292|84:148,1,341.250013017655
136,104,13159,1,0,0:0:0:0:
180,80,13295,1,0,0:0:0:0:
228,88,13431,1,0,0:0:0:0:
320,56,13704,5,0,0:0:0:0:
340,100,13840,1,0,0:0:0:0:
320,144,13977,1,0,0:0:0:0:
204,252,14250,1,0,0:0:0:0:
268,80,15340,6,0,L|392:80,2,120.000000596046
416,128,15886,6,0,L|276:128,2,120.000000596046
416,188,16431,6,0,L|308:188,3,97.5000041663645
260,128,17250,5,0,0:0:0:0:
260,128,17386,1,0,0:0:0:0:
260,128,17522,1,0,0:0:0:0:
280,44,18136,6,0,L|496:44,1,210.000001043081
472,140,19431,5,0,0:0:0:0:
472,140,19568,1,0,0:0:0:0:
472,140,19704,1,0,0:0:0:0:
472,140,19840,1,0,0:0:0:0:
480,236,20113,6,0,L|256:236,1,210.000001043081
204,168,21340,5,0,0:0:0:0:
256,140,21477,1,0,0:0:0:0:
308,108,21613,1,0,0:0:0:0:
324,208,22022,5,0,0:0:0:0:
436,256,22295,6,0,P|280:328|264:320,1,210.000001043081
128,204,23659,6,0,L|160:204,2,30.0000001490115
124,116,24340,6,0,P|240:44|280:60,1,180.000000894069
384,84,25295,5,0,0:0:0:0:
412,136,25432,1,0,0:0:0:0:
324,196,25840,5,0,0:0:0:0:
260,196,25977,1,0,0:0:0:0:
296,144,26113,1,0,0:0:0:0:
168,136,26386,6,0,B|240:52|380:92|328:88,1,195.000000894069
420,116,27340,1,0,0:0:0:0:
440,180,27477,1,0,0:0:0:0:
348,272,27750,6,0,L|152:272,1,195.000000894069
160,144,28840,2,0,L|364:144,1,195.000000894069
456,224,29931,5,0,0:0:0:0:
324,224,30204,1,0,0:0:0:0:
388,112,30477,1,0,0:0:0:0:
272,56,30750,6,0,B|188:68|240:168|244:168,1,130.000000596046
120,104,31568,5,0,0:0:0:0:
184,100,31704,1,0,0:0:0:0:
248,100,31840,1,0,0:0:0:0:
312,96,31977,1,0,0:0:0:0:
376,88,32113,1,0,0:0:0:0:
412,212,32386,5,0,0:0:0:0:
352,232,32522,1,0,0:0:0:0:
292,256,32659,1,0,0:0:0:0:
232,280,32795,1,0,0:0:0:0:
172,304,32931,1,0,0:0:0:0:
108,192,33204,5,0,0:0:0:0:
172,192,33340,1,0,0:0:0:0:
236,192,33477,1,0,0:0:0:0:
208,136,33613,6,0,P|216:80|304:96,1,162.500000745057
344,140,34431,6,0,P|364:224|224:184,1,292.500001341103
60,84,36045,5,0,0:0:0:0:
180,88,36318,1,0,0:0:0:0:
308,88,36545,1,0,0:0:0:0:
268,200,36818,5,0,0:0:0:0:
148,204,37091,1,0,0:0:0:0:
20,204,37318,1,0,0:0:0:0:
116,320,37590,5,0,0:0:0:0:
236,324,37863,1,0,0:0:0:0:
364,324,38090,1,0,0:0:0:0:
452,320,38454,5,0,0:0:0:0:
456,200,38727,1,0,0:0:0:0:
456,72,38954,1,0,0:0:0:0:
380,76,39273,5,0,0:0:0:0:
260,80,39545,1,0,0:0:0:0:
132,80,39773,1,0,0:0:0:0:
256,192,40136,12,0,43818,0:0:0:0:
256,64,44181,5,0,0:0:0:0:
256,64,44272,1,0,0:0:0:0:
256,64,44363,1,0,0:0:0:0:
256,64,44454,1,0,0:0:0:0:
348,68,44636,2,0,L|348:204,1,130.000005555153
316,204,45000,1,0,0:0:0:0:
292,204,45091,1,0,0:0:0:0:
264,204,45182,1,0,0:0:0:0:
236,204,45273,1,0,0:0:0:0:
212,204,45363,6,0,L|72:204,2,130.000005555153
384,192,46272,5,0,0:0:0:0:
384,192,46363,1,0,0:0:0:0:
384,192,46454,1,0,0:0:0:0:
384,192,46545,1,0,0:0:0:0:
380,284,46727,2,0,L|244:284,1,130.000005555153
244,252,47091,1,0,0:0:0:0:
244,228,47182,1,0,0:0:0:0:
244,200,47273,1,0,0:0:0:0:
240,116,47545,5,0,0:0:0:0:
440,48,48204,5,0,0:0:0:0:
448,336,48613,1,0,0:0:0:0:
440,48,49022,1,0,0:0:0:0:
448,336,49636,1,0,0:0:0:0:
188,32,50090,1,0,0:0:0:0:
192,328,50545,1,0,0:0:0:0:
260,164,50727,1,0,0:0:0:0:
260,164,50818,1,0,0:0:0:0:
260,164,50909,1,0,0:0:0:0:
260,164,51000,1,0,0:0:0:0:
260,164,51090,1,0,0:0:0:0:
260,164,51181,1,0,0:0:0:0:
