osu file format v14

[General]
AudioFilename: Give me Chocolate .mp3
AudioLeadIn: 0
PreviewTime: 52885
Countdown: 0
SampleSet: Normal
StackLeniency: 0.7
Mode: 1
LetterboxInBreaks: 0
WidescreenStoryboard: 0

[Editor]
Bookmarks: 42930,82749
DistanceSpacing: 1.2
BeatDivisor: 4
GridSize: 4
TimelineZoom: 2.7

[Metadata]
Title:Gimme Chocolate!!
TitleUnicode:ギミチョコ!!
Artist:BABYMETAL
ArtistUnicode:BABYMETAL
Creator:Rad-
Version:defused's Muzukashii
Source:
Tags:J-metal idol rock loli kitsune give me ilikecheese defused bomb nwolf
BeatmapID:451172
BeatmapSetID:162368

[Difficulty]
HPDrainRate:5
CircleSize:4
OverallDifficulty:5
ApproachRate:5
SliderMultiplier:1.2
SliderTickRate:1

[Events]
//Background and Video events
0,0,"babymetal.jpg",0,125
//Break Periods
//Storyboard Layer 0 (Background)
//Storyboard Layer 1 (Fail)
//Storyboard Layer 2 (Pass)
//Storyboard Layer 3 (Foreground)
//Storyboard Sound Samples

[TimingPoints]
9249,272.727272727273,4,1,0,100,1,0
52885,-100,4,1,0,100,0,1
70339,-100,4,1,0,100,0,0
96521,-100,4,1,0,100,0,1
113976,-100,4,1,0,100,0,0
157612,-100,4,1,0,100,0,0
158703,-83.3333333333333,4,1,0,100,0,0
159794,-71.4285714285714,4,1,0,100,0,0
160885,-62.5,4,1,0,100,0,0
161976,-55.5555555555556,4,1,0,50,0,0
162112,-100,4,1,0,100,0,0
175339,-100,4,2,0,100,0,0
183794,-100,4,1,0,100,0,0
192521,-100,4,1,0,100,0,1
209976,-100,4,1,0,100,0,0

[Colours]
Combo1 : 148,148,148
Combo2 : 0,0,193
Combo3 : 255,0,0

[HitObjects]
256,192,9249,5,12,0:0:0:0:
256,192,9521,1,0,0:0:0:0:
256,192,9794,1,8,0:0:0:0:
256,192,9930,1,0,0:0:0:0:
256,192,10067,1,0,0:0:0:0:
256,192,10203,1,8,0:0:0:0:
256,192,10612,1,8,0:0:0:0:
256,192,10749,1,0,0:0:0:0:
256,192,10885,1,0,0:0:0:0:
256,192,10953,1,0,0:0:0:0:
256,192,11021,1,0,0:0:0:0:
256,192,11294,1,12,0:0:0:0:
256,192,11567,1,0,0:0:0:0:
256,192,11703,1,8,0:0:0:0:
256,192,11840,1,8,0:0:0:0:
256,192,11976,1,0,0:0:0:0:
256,192,12112,1,8,0:0:0:0:
256,192,12385,1,12,0:0:0:0:
256,192,12658,1,0,0:0:0:0:
256,192,12794,1,8,0:0:0:0:
256,192,12930,1,0,0:0:0:0:
256,192,13067,1,8,0:0:0:0:
256,192,13203,1,0,0:0:0:0:
256,192,13339,1,8,0:0:0:0:
256,192,13476,1,0,0:0:0:0:
256,192,13612,1,12,0:0:0:0:
256,192,13885,1,8,0:0:0:0:
256,192,14021,1,0,0:0:0:0:
256,192,14158,1,0,0:0:0:0:
256,192,14294,1,8,0:0:0:0:
256,192,14567,1,12,0:0:0:0:
256,192,14839,1,0,0:0:0:0:
256,192,14976,1,8,0:0:0:0:
256,192,15249,1,0,0:0:0:0:
256,192,15385,1,0,0:0:0:0:
256,192,15521,1,0,0:0:0:0:
256,192,15658,1,12,0:0:0:0:
256,192,15930,1,8,0:0:0:0:
256,192,16067,1,8,0:0:0:0:
256,192,16203,1,0,0:0:0:0:
256,192,16339,1,0,0:0:0:0:
256,192,16476,1,8,0:0:0:0:
256,192,16749,1,12,0:0:0:0:
256,192,17021,1,8,0:0:0:0:
256,192,17158,1,0,0:0:0:0:
256,192,17294,1,8,0:0:0:0:
256,192,17430,1,0,0:0:0:0:
256,192,17567,1,8,0:0:0:0:
256,192,17703,1,0,0:0:0:0:
256,192,17839,1,0,0:0:0:0:
256,192,17976,1,8,0:0:0:0:
256,192,18249,1,8,0:0:0:0:
256,192,18521,1,0,0:0:0:0:
256,192,18589,1,0,0:0:0:0:
256,192,18657,1,0,0:0:0:0:
256,192,18794,1,0,0:0:0:0:
256,192,18930,1,8,0:0:0:0:
256,192,19203,1,8,0:0:0:0:
256,192,19476,1,8,0:0:0:0:
256,192,19613,1,8,0:0:0:0:
256,192,19749,1,0,0:0:0:0:
256,192,19885,1,0,0:0:0:0:
256,192,20021,1,8,0:0:0:0:
256,192,20294,1,8,0:0:0:0:
256,192,20430,1,0,0:0:0:0:
256,192,20567,1,0,0:0:0:0:
256,192,20703,1,0,0:0:0:0:
256,192,20839,1,8,0:0:0:0:
256,192,20976,1,0,0:0:0:0:
256,192,21112,1,8,0:0:0:0:
256,192,21385,1,0,0:0:0:0:
256,192,21521,1,8,0:0:0:0:
256,192,21658,1,0,0:0:0:0:
256,192,21794,1,8,0:0:0:0:
256,192,21930,1,0,0:0:0:0:
256,192,22067,1,8,0:0:0:0:
256,192,22339,1,12,0:0:0:0:
256,192,22612,1,8,0:0:0:0:
256,192,22749,1,8,0:0:0:0:
256,192,22885,1,0,0:0:0:0:
256,192,23021,1,8,0:0:0:0:
256,192,23158,1,0,0:0:0:0:
256,192,23294,1,8,0:0:0:0:
256,192,23567,1,0,0:0:0:0:
256,192,23703,1,8,0:0:0:0:
256,192,23976,1,0,0:0:0:0:
256,192,24112,1,0,0:0:0:0:
256,192,24249,1,8,0:0:0:0:
256,192,24385,1,0,0:0:0:0:
256,192,24658,1,0,0:0:0:0:
256,192,24726,1,0,0:0:0:0:
256,192,24794,1,0,0:0:0:0:
256,192,24930,1,8,0:0:0:0:
256,192,25067,1,0,0:0:0:0:
256,192,25203,1,0,0:0:0:0:
256,192,25339,1,8,0:0:0:0:
256,192,25476,1,0,0:0:0:0:
256,192,25749,1,8,0:0:0:0:
256,192,25885,1,8,0:0:0:0:
256,192,26021,1,0,0:0:0:0:
256,192,26158,1,8,0:0:0:0:
256,192,26430,1,8,0:0:0:0:
256,192,26703,1,12,0:0:0:0:
256,192,26976,1,8,0:0:0:0:
256,192,27112,1,0,0:0:0:0:
256,192,27249,1,8,0:0:0:0:
256,192,27385,1,0,0:0:0:0:
256,192,27521,1,8,0:0:0:0:
256,192,27658,1,0,0:0:0:0:
256,192,27930,1,0,0:0:0:0:
256,192,28067,1,8,0:0:0:0:
256,192,28203,1,0,0:0:0:0:
256,192,28339,1,8,0:0:0:0:
256,192,28476,1,0,0:0:0:0:
256,192,28612,1,8,0:0:0:0:
256,192,28749,1,0,0:0:0:0:
256,192,29021,1,0,0:0:0:0:
256,192,29158,1,8,0:0:0:0:
256,192,29430,1,8,0:0:0:0:
256,192,29567,1,0,0:0:0:0:
256,192,29703,1,0,0:0:0:0:
256,192,29839,1,12,0:0:0:0:
256,192,30112,1,0,0:0:0:0:
256,192,30249,1,0,0:0:0:0:
256,192,30385,1,0,0:0:0:0:
256,192,30521,1,8,0:0:0:0:
256,192,30658,1,0,0:0:0:0:
256,192,30794,1,8,0:0:0:0:
256,192,30930,1,8,0:0:0:0:
256,192,31067,1,12,0:0:0:0:
256,192,31339,1,0,0:0:0:0:
256,192,31476,1,0,0:0:0:0:
256,192,31612,1,8,0:0:0:0:
256,192,31885,1,0,0:0:0:0:
256,192,32021,1,8,0:0:0:0:
256,192,32294,1,0,0:0:0:0:
256,192,32430,1,8,0:0:0:0:
256,192,32703,1,8,0:0:0:0:
256,192,32976,1,0,0:0:0:0:
256,192,33112,1,0,0:0:0:0:
256,192,33249,1,8,0:0:0:0:
256,192,33385,1,0,0:0:0:0:
256,192,33521,1,8,0:0:0:0:
256,192,33794,1,8,0:0:0:0:
256,192,34067,1,0,0:0:0:0:
256,192,34203,1,8,0:0:0:0:
256,192,34476,1,0,0:0:0:0:
256,192,34612,1,0,0:0:0:0:
256,192,34749,1,0,0:0:0:0:
256,188,34885,5,8,0:0:0:0:
256,188,35021,1,8,0:0:0:0:
256,188,35157,1,8,0:0:0:0:
256,188,35293,1,8,0:0:0:0:
256,188,35430,1,4,0:0:0:0:
256,188,35703,1,8,0:0:0:0:
256,188,35976,1,8,0:0:0:0:
256,188,36249,1,8,0:0:0:0:
256,188,36521,1,8,0:0:0:0:
256,188,36794,1,8,0:0:0:0:
256,188,37067,1,8,0:0:0:0:
256,188,37339,1,8,0:0:0:0:
256,188,37476,1,8,0:0:0:0:
256,188,37544,1,8,0:0:0:0:
256,188,37612,1,8,0:0:0:0:
256,188,37885,1,8,0:0:0:0:
256,188,38158,1,8,0:0:0:0:
256,188,38430,1,8,0:0:0:0:
256,188,38703,1,0,0:0:0:0:
256,188,38839,1,8,0:0:0:0:
256,188,38976,1,0,0:0:0:0:
256,188,39112,1,8,0:0:0:0:
256,188,39249,1,8,0:0:0:0:
256,188,39521,1,8,0:0:0:0:
256,188,39794,1,4,0:0:0:0:
256,188,40067,1,8,0:0:0:0:
256,188,40339,1,8,0:0:0:0:
256,188,40612,1,8,0:0:0:0:
256,188,40885,1,8,0:0:0:0:
256,188,41158,1,8,0:0:0:0:
256,188,41430,1,8,0:0:0:0:
256,188,41703,1,8,0:0:0:0:
256,188,41839,1,0,0:0:0:0:
256,188,41907,1,0,0:0:0:0:
256,188,41975,1,0,0:0:0:0:
256,188,42249,1,8,0:0:0:0:
256,188,42521,1,8,0:0:0:0:
256,188,42794,1,8,0:0:0:0:
256,188,43067,1,12,0:0:0:0:
256,188,43339,1,12,0:0:0:0:
256,188,43612,1,4,0:0:0:0:
256,188,43885,1,4,0:0:0:0:
256,188,44158,1,8,0:0:0:0:
256,188,44294,1,0,0:0:0:0:
256,188,44430,1,8,0:0:0:0:
256,188,44567,1,0,0:0:0:0:
256,188,44703,1,8,0:0:0:0:
256,188,44976,1,0,0:0:0:0:
256,188,45112,1,8,0:0:0:0:
256,188,45385,1,8,0:0:0:0:
256,188,45521,1,0,0:0:0:0:
256,188,45658,1,8,0:0:0:0:
256,188,45794,1,8,0:0:0:0:
256,188,46067,1,8,0:0:0:0:
256,188,46339,1,8,0:0:0:0:
256,188,46476,1,0,0:0:0:0:
256,188,46612,1,8,0:0:0:0:
256,188,46749,1,0,0:0:0:0:
256,188,46885,1,8,0:0:0:0:
256,188,47158,1,0,0:0:0:0:
256,188,47294,1,8,0:0:0:0:
256,188,47567,1,8,0:0:0:0:
256,188,47703,1,8,0:0:0:0:
256,188,47839,1,0,0:0:0:0:
256,188,47976,1,0,0:0:0:0:
256,188,48249,1,8,0:0:0:0:
256,188,48521,1,8,0:0:0:0:
256,188,48658,1,0,0:0:0:0:
256,188,48794,1,0,0:0:0:0:
256,188,49067,1,8,0:0:0:0:
256,188,49203,1,0,0:0:0:0:
256,188,49339,1,0,0:0:0:0:
256,188,49612,1,8,0:0:0:0:
256,188,49749,1,0,0:0:0:0:
256,188,49885,1,8,0:0:0:0:
256,188,50158,1,8,0:0:0:0:
256,188,50294,1,8,0:0:0:0:
256,188,50430,1,8,0:0:0:0:
256,188,50703,1,8,0:0:0:0:
256,188,50976,1,0,0:0:0:0:
256,188,51249,1,8,0:0:0:0:
256,188,51521,1,0,0:0:0:0:
256,188,51794,1,8,0:0:0:0:
256,188,51930,1,0,0:0:0:0:
256,188,52067,1,8,0:0:0:0:
256,188,52203,1,8,0:0:0:0:
256,188,52339,1,4,0:0:0:0:
256,188,52476,1,4,0:0:0:0:
256,188,52885,1,12,0:0:0:0:
256,188,53158,1,8,0:0:0:0:
256,188,53430,1,0,0:0:0:0:
256,188,53567,1,0,0:0:0:0:
256,188,53703,1,8,0:0:0:0:
256,188,53839,1,0,0:0:0:0:
256,188,54112,1,0,0:0:0:0:
256,188,54249,1,8,0:0:0:0:
256,188,54385,1,0,0:0:0:0:
256,188,54521,1,0,0:0:0:0:
256,188,54794,1,8,0:0:0:0:
256,188,54930,1,0,0:0:0:0:
256,188,55203,1,0,0:0:0:0:
256,188,55339,1,8,0:0:0:0:
256,188,55476,1,8,0:0:0:0:
256,188,55612,1,0,0:0:0:0:
256,188,55885,1,8,0:0:0:0:
256,188,56021,1,0,0:0:0:0:
256,188,56294,1,0,0:0:0:0:
256,188,56430,1,8,0:0:0:0:
256,188,56567,1,0,0:0:0:0:
256,188,56703,1,8,0:0:0:0:
256,188,56976,1,0,0:0:0:0:
256,188,57112,1,0,0:0:0:0:
256,188,57249,1,12,0:0:0:0:
256,188,57521,1,8,0:0:0:0:
256,188,57658,1,0,0:0:0:0:
256,188,57794,1,8,0:0:0:0:
256,188,58067,1,0,0:0:0:0:
256,188,58203,1,8,0:0:0:0:
256,188,58476,1,8,0:0:0:0:
256,188,58612,1,0,0:0:0:0:
256,188,58749,1,0,0:0:0:0:
256,188,58885,1,8,0:0:0:0:
256,188,59158,1,8,0:0:0:0:
256,188,59294,1,8,0:0:0:0:
256,188,59567,1,0,0:0:0:0:
256,188,59703,1,0,0:0:0:0:
256,188,59839,1,8,0:0:0:0:
256,188,59976,1,0,0:0:0:0:
256,188,60249,1,0,0:0:0:0:
256,188,60385,1,8,0:0:0:0:
256,188,60658,1,8,0:0:0:0:
256,188,60794,1,8,0:0:0:0:
256,188,60930,1,0,0:0:0:0:
256,188,61067,1,8,0:0:0:0:
256,188,61339,1,8,0:0:0:0:
256,188,61476,1,8,0:0:0:0:
256,188,61612,1,4,0:0:0:0:
256,188,61885,1,8,0:0:0:0:
256,188,62158,1,0,0:0:0:0:
256,188,62294,1,8,0:0:0:0:
256,188,62430,1,0,0:0:0:0:
256,188,62567,1,0,0:0:0:0:
256,188,62839,1,0,0:0:0:0:
256,188,62976,1,8,0:0:0:0:
256,188,63112,1,0,0:0:0:0:
256,188,63249,1,0,0:0:0:0:
256,188,63521,1,8,0:0:0:0:
256,188,63658,1,0,0:0:0:0:
256,188,63930,1,0,0:0:0:0:
256,188,64067,1,8,0:0:0:0:
256,188,64203,1,0,0:0:0:0:
256,188,64339,1,0,0:0:0:0:
256,188,64476,1,0,0:0:0:0:
256,188,64612,1,8,0:0:0:0:
256,188,64749,1,0,0:0:0:0:
256,188,65021,1,0,0:0:0:0:
256,188,65158,1,8,0:0:0:0:
256,188,65430,1,0,0:0:0:0:
256,188,65703,1,8,0:0:0:0:
256,188,65976,1,4,0:0:0:0:
256,188,66249,1,8,0:0:0:0:
256,188,66521,1,0,0:0:0:0:
256,188,66658,1,0,0:0:0:0:
256,188,66794,1,8,0:0:0:0:
256,188,66930,1,0,0:0:0:0:
256,188,67203,1,0,0:0:0:0:
256,188,67339,1,8,0:0:0:0:
256,188,67476,1,0,0:0:0:0:
256,188,67612,1,0,0:0:0:0:
256,188,67885,1,8,0:0:0:0:
256,188,68021,1,0,0:0:0:0:
256,188,68294,1,0,0:0:0:0:
256,188,68430,1,8,0:0:0:0:
256,188,68567,1,0,0:0:0:0:
256,188,68703,1,8,0:0:0:0:
256,188,68976,1,8,0:0:0:0:
256,188,69112,1,0,0:0:0:0:
256,188,69385,1,8,0:0:0:0:
256,188,69521,1,8,0:0:0:0:
256,188,69658,1,8,0:0:0:0:
256,188,69794,1,4,0:0:0:0:
256,188,70339,1,12,0:0:0:0:
256,188,70612,1,0,0:0:0:0:
256,188,70885,1,8,0:0:0:0:
256,188,71021,1,0,0:0:0:0:
256,188,71158,1,0,0:0:0:0:
256,188,71294,1,8,0:0:0:0:
256,188,71567,1,8,0:0:0:0:
256,188,71703,1,0,0:0:0:0:
256,188,71839,1,0,0:0:0:0:
256,188,71976,1,8,0:0:0:0:
256,188,72249,1,8,0:0:0:0:
256,188,72385,1,8,0:0:0:0:
256,188,72658,1,0,0:0:0:0:
256,188,72794,1,8,0:0:0:0:
256,188,73067,1,0,0:0:0:0:
256,188,73135,1,0,0:0:0:0:
256,188,73203,1,0,0:0:0:0:
256,188,73339,1,0,0:0:0:0:
256,188,73476,1,8,0:0:0:0:
256,188,73749,1,8,0:0:0:0:
256,188,73885,1,0,0:0:0:0:
256,188,74021,1,0,0:0:0:0:
256,188,74158,1,8,0:0:0:0:
256,188,74294,1,0,0:0:0:0:
256,188,74430,1,8,0:0:0:0:
256,188,74567,1,8,0:0:0:0:
256,188,74703,1,0,0:0:0:0:
256,188,74976,1,8,0:0:0:0:
256,188,75112,1,0,0:0:0:0:
256,188,75249,1,0,0:0:0:0:
256,188,75385,1,8,0:0:0:0:
256,188,75658,1,8,0:0:0:0:
256,188,75930,1,8,0:0:0:0:
256,188,76067,1,8,0:0:0:0:
256,188,76203,1,8,0:0:0:0:
256,188,76339,1,0,0:0:0:0:
256,188,76476,1,0,0:0:0:0:
256,188,76749,1,8,0:0:0:0:
256,188,77021,1,8,0:0:0:0:
256,188,77294,1,8,0:0:0:0:
256,188,77430,1,8,0:0:0:0:
256,188,77567,1,0,0:0:0:0:
256,188,77839,1,8,0:0:0:0:
256,188,78112,1,8,0:0:0:0:
256,188,78385,1,8,0:0:0:0:
256,188,78521,1,0,0:0:0:0:
256,188,78658,1,0,0:0:0:0:
256,188,78794,1,0,0:0:0:0:
256,188,78930,1,0,0:0:0:0:
256,188,79067,1,8,0:0:0:0:
256,188,79339,1,8,0:0:0:0:
256,188,79612,1,8,0:0:0:0:
256,188,79885,1,8,0:0:0:0:
256,188,80158,1,8,0:0:0:0:
256,188,80430,1,8,0:0:0:0:
256,188,80703,1,8,0:0:0:0:
256,188,80976,1,8,0:0:0:0:
256,188,81112,1,0,0:0:0:0:
256,188,81180,1,0,0:0:0:0:
256,188,81248,1,0,0:0:0:0:
256,188,81521,1,8,0:0:0:0:
256,188,81794,1,8,0:0:0:0:
256,188,82067,1,8,0:0:0:0:
256,188,82339,1,8,0:0:0:0:
256,188,82612,1,8,0:0:0:0:
256,188,82885,1,0,0:0:0:0:
256,188,83021,1,0,0:0:0:0:
256,188,83157,1,0,0:0:0:0:
256,188,83293,1,0,0:0:0:0:
256,188,83430,1,0,0:0:0:0:
256,188,83702,1,8,0:0:0:0:
256,188,83976,1,0,0:0:0:0:
256,188,84112,1,0,0:0:0:0:
256,188,84249,1,8,0:0:0:0:
256,188,84521,1,0,0:0:0:0:
256,188,84794,1,8,0:0:0:0:
256,188,85067,1,0,0:0:0:0:
256,188,85203,1,0,0:0:0:0:
256,188,85339,1,8,0:0:0:0:
256,188,85476,1,0,0:0:0:0:
256,188,85612,1,0,0:0:0:0:
256,188,85885,1,8,0:0:0:0:
256,188,86158,1,0,0:0:0:0:
256,188,86430,1,8,0:0:0:0:
256,188,86703,1,4,0:0:0:0:
256,188,86976,1,12,0:0:0:0:
256,188,87249,1,4,0:0:0:0:
256,188,87521,1,12,0:0:0:0:
256,188,87794,1,8,0:0:0:0:
256,188,87930,1,8,0:0:0:0:
256,188,88066,1,8,0:0:0:0:
256,188,88203,1,0,0:0:0:0:
256,188,88339,1,8,0:0:0:0:
256,188,88476,1,8,0:0:0:0:
256,188,88612,1,0,0:0:0:0:
256,188,88748,1,8,0:0:0:0:
256,188,89021,1,8,0:0:0:0:
256,188,89157,1,0,0:0:0:0:
256,188,89294,1,8,0:0:0:0:
256,188,89430,1,0,0:0:0:0:
256,188,89703,1,0,0:0:0:0:
256,188,89976,1,8,0:0:0:0:
256,188,90112,1,8,0:0:0:0:
256,188,90249,1,0,0:0:0:0:
256,188,90385,1,0,0:0:0:0:
256,188,90521,1,8,0:0:0:0:
256,188,90658,1,0,0:0:0:0:
256,188,90794,1,0,0:0:0:0:
256,188,90930,1,8,0:0:0:0:
256,188,91203,1,8,0:0:0:0:
256,188,91339,1,0,0:0:0:0:
256,188,91476,1,8,0:0:0:0:
256,188,91612,1,8,0:0:0:0:
256,188,91885,1,0,0:0:0:0:
256,188,92158,1,0,0:0:0:0:
256,188,92294,1,8,0:0:0:0:
256,188,92430,1,8,0:0:0:0:
256,188,92703,1,0,0:0:0:0:
256,188,92839,1,8,0:0:0:0:
256,188,92976,1,8,0:0:0:0:
256,188,93249,1,8,0:0:0:0:
256,188,93385,1,0,0:0:0:0:
256,188,93521,1,8,0:0:0:0:
256,188,93794,1,8,0:0:0:0:
256,188,93930,1,8,0:0:0:0:
256,188,94067,1,8,0:0:0:0:
256,188,94339,1,8,0:0:0:0:
256,188,94612,1,0,0:0:0:0:
256,188,94885,1,8,0:0:0:0:
256,188,95158,1,0,0:0:0:0:
256,188,95430,1,8,0:0:0:0:
256,188,95566,1,0,0:0:0:0:
256,188,95703,1,8,0:0:0:0:
256,188,95839,1,8,0:0:0:0:
256,188,95976,1,0,0:0:0:0:
256,188,96112,1,0,0:0:0:0:
256,188,96521,1,4,0:0:0:0:
256,188,96794,1,0,0:0:0:0:
256,188,96930,1,8,0:0:0:0:
256,188,97067,1,0,0:0:0:0:
256,188,97203,1,0,0:0:0:0:
256,188,97339,1,8,0:0:0:0:
256,188,97476,1,8,0:0:0:0:
256,188,97749,1,0,0:0:0:0:
256,188,97885,1,8,0:0:0:0:
256,188,98021,1,8,0:0:0:0:
256,188,98158,1,0,0:0:0:0:
256,188,98430,1,8,0:0:0:0:
256,188,98567,1,8,0:0:0:0:
256,188,98839,1,0,0:0:0:0:
256,188,98976,1,8,0:0:0:0:
256,188,99112,1,0,0:0:0:0:
256,188,99249,1,0,0:0:0:0:
256,188,99521,1,8,0:0:0:0:
256,188,99658,1,8,0:0:0:0:
256,188,99930,1,0,0:0:0:0:
256,188,100067,1,8,0:0:0:0:
256,188,100203,1,0,0:0:0:0:
256,188,100339,1,8,0:0:0:0:
256,188,100612,1,0,0:0:0:0:
256,188,100749,1,0,0:0:0:0:
256,188,100885,1,12,0:0:0:0:
256,188,101158,1,8,0:0:0:0:
256,188,101430,1,0,0:0:0:0:
256,188,101567,1,0,0:0:0:0:
256,188,101703,1,8,0:0:0:0:
256,188,101839,1,0,0:0:0:0:
256,188,102112,1,0,0:0:0:0:
256,188,102249,1,8,0:0:0:0:
256,188,102385,1,8,0:0:0:0:
256,188,102521,1,0,0:0:0:0:
256,188,102794,1,8,0:0:0:0:
256,188,102930,1,0,0:0:0:0:
256,188,103203,1,8,0:0:0:0:
256,188,103339,1,8,0:0:0:0:
256,188,103476,1,0,0:0:0:0:
256,188,103612,1,0,0:0:0:0:
256,188,103885,1,0,0:0:0:0:
256,188,104021,1,0,0:0:0:0:
256,188,104294,1,0,0:0:0:0:
256,188,104430,1,8,0:0:0:0:
256,188,104567,1,8,0:0:0:0:
256,188,104703,1,0,0:0:0:0:
256,188,104839,1,0,0:0:0:0:
256,188,104976,1,12,0:0:0:0:
256,188,105249,1,12,0:0:0:0:
256,188,105521,1,8,0:0:0:0:
256,188,105794,1,0,0:0:0:0:
256,188,105930,1,0,0:0:0:0:
256,188,106067,1,8,0:0:0:0:
256,188,106203,1,0,0:0:0:0:
256,188,106476,1,8,0:0:0:0:
256,188,106612,1,0,0:0:0:0:
256,188,106749,1,0,0:0:0:0:
256,188,106885,1,0,0:0:0:0:
256,188,107158,1,8,0:0:0:0:
256,188,107294,1,0,0:0:0:0:
256,188,107567,1,8,0:0:0:0:
256,188,107703,1,0,0:0:0:0:
256,188,107839,1,8,0:0:0:0:
256,188,107976,1,0,0:0:0:0:
256,188,108249,1,8,0:0:0:0:
256,188,108385,1,0,0:0:0:0:
256,188,108658,1,0,0:0:0:0:
256,188,108794,1,8,0:0:0:0:
256,188,108930,1,0,0:0:0:0:
256,188,109067,1,8,0:0:0:0:
256,188,109339,1,8,0:0:0:0:
256,188,109476,1,0,0:0:0:0:
256,188,109612,1,4,0:0:0:0:
256,188,109885,1,8,0:0:0:0:
256,188,110158,1,0,0:0:0:0:
256,188,110294,1,0,0:0:0:0:
256,188,110430,1,8,0:0:0:0:
256,188,110567,1,0,0:0:0:0:
256,188,110839,1,0,0:0:0:0:
256,188,110976,1,8,0:0:0:0:
256,188,111112,1,0,0:0:0:0:
256,188,111249,1,0,0:0:0:0:
256,188,111521,1,8,0:0:0:0:
256,188,111658,1,0,0:0:0:0:
256,188,111930,1,8,0:0:0:0:
256,188,112067,1,0,0:0:0:0:
256,188,112203,1,8,0:0:0:0:
256,188,112339,1,0,0:0:0:0:
256,188,112612,1,8,0:0:0:0:
256,188,112749,1,8,0:0:0:0:
256,188,113021,1,8,0:0:0:0:
256,188,113294,1,8,0:0:0:0:
256,188,113430,1,0,0:0:0:0:
256,188,113703,1,8,0:0:0:0:
256,188,113976,1,4,0:0:0:0:
256,188,114112,1,0,0:0:0:0:
256,188,114249,1,8,0:0:0:0:
256,188,114385,1,0,0:0:0:0:
256,188,114521,1,0,0:0:0:0:
256,188,114658,1,0,0:0:0:0:
256,188,114794,1,8,0:0:0:0:
256,188,114930,1,0,0:0:0:0:
256,188,115203,1,0,0:0:0:0:
256,188,115339,1,8,0:0:0:0:
256,188,115612,1,0,0:0:0:0:
256,188,115749,1,0,0:0:0:0:
256,188,115885,1,8,0:0:0:0:
256,188,116021,1,0,0:0:0:0:
256,188,116294,1,0,0:0:0:0:
256,188,116430,1,8,0:0:0:0:
256,188,116567,1,0,0:0:0:0:
256,188,116703,1,0,0:0:0:0:
256,188,116839,1,0,0:0:0:0:
256,188,116976,1,8,0:0:0:0:
256,188,117112,1,0,0:0:0:0:
256,188,117521,1,8,0:0:0:0:
256,188,117794,1,0,0:0:0:0:
256,188,117930,1,0,0:0:0:0:
256,188,118067,1,8,0:0:0:0:
256,188,118203,1,12,0:0:0:0:
256,188,118612,1,0,0:0:0:0:
256,188,118749,1,8,0:0:0:0:
256,188,119021,1,8,0:0:0:0:
256,188,119294,1,0,0:0:0:0:
256,188,119703,1,8,0:0:0:0:
256,188,119839,1,0,0:0:0:0:
256,188,120112,1,0,0:0:0:0:
256,188,120385,1,8,0:0:0:0:
256,188,120794,1,0,0:0:0:0:
256,188,120930,1,8,0:0:0:0:
256,188,121203,1,0,0:0:0:0:
256,188,121476,1,8,0:0:0:0:
256,188,121885,1,0,0:0:0:0:
256,188,122158,1,8,0:0:0:0:
256,188,122294,1,8,0:0:0:0:
256,188,122430,1,8,0:0:0:0:
256,188,122567,1,0,0:0:0:0:
256,188,122703,1,4,0:0:0:0:
256,188,122976,1,0,0:0:0:0:
256,188,123249,1,0,0:0:0:0:
256,188,123385,1,0,0:0:0:0:
256,188,123521,1,8,0:0:0:0:
256,188,123658,1,0,0:0:0:0:
256,188,123931,1,0,0:0:0:0:
256,188,124068,1,0,0:0:0:0:
256,188,124203,1,8,0:0:0:0:
256,188,124340,1,8,0:0:0:0:
256,188,124408,1,8,0:0:0:0:
256,188,124476,1,8,0:0:0:0:
256,188,124612,1,8,0:0:0:0:
256,188,124749,1,0,0:0:0:0:
256,188,125021,1,8,0:0:0:0:
256,188,125158,1,0,0:0:0:0:
256,188,125294,1,8,0:0:0:0:
256,188,125430,1,0,0:0:0:0:
256,188,125567,1,8,0:0:0:0:
256,188,125703,1,8,0:0:0:0:
256,188,125839,1,0,0:0:0:0:
256,188,126112,1,0,0:0:0:0:
256,188,126249,1,0,0:0:0:0:
256,188,126385,1,0,0:0:0:0:
256,188,126521,1,8,0:0:0:0:
256,188,126658,1,0,0:0:0:0:
256,188,126794,1,8,0:0:0:0:
256,188,126930,1,8,0:0:0:0:
256,188,127067,1,12,0:0:0:0:
256,188,127339,1,8,0:0:0:0:
256,188,127476,1,0,0:0:0:0:
256,188,127612,1,0,0:0:0:0:
256,188,127749,1,8,0:0:0:0:
256,188,127885,1,0,0:0:0:0:
256,188,128021,1,0,0:0:0:0:
256,188,128294,1,0,0:0:0:0:
256,188,128430,1,8,0:0:0:0:
256,188,128567,1,0,0:0:0:0:
256,188,128703,1,0,0:0:0:0:
256,188,128839,1,8,0:0:0:0:
256,188,128976,1,0,0:0:0:0:
256,188,129112,1,0,0:0:0:0:
256,188,129385,1,0,0:0:0:0:
256,188,129521,1,8,0:0:0:0:
256,188,129658,1,0,0:0:0:0:
256,188,129794,1,0,0:0:0:0:
256,188,129930,1,8,0:0:0:0:
256,188,130067,1,0,0:0:0:0:
256,188,130203,1,0,0:0:0:0:
256,188,130476,1,0,0:0:0:0:
256,188,130544,1,0,0:0:0:0:
256,188,130612,1,0,0:0:0:0:
256,188,130749,1,0,0:0:0:0:
256,188,130885,1,8,0:0:0:0:
256,188,131021,1,0,0:0:0:0:
256,188,131158,1,8,0:0:0:0:
256,188,131294,1,8,0:0:0:0:
256,188,131430,1,8,0:0:0:0:
256,188,131703,1,8,0:0:0:0:
256,188,131976,1,8,0:0:0:0:
256,188,132112,1,0,0:0:0:0:
256,188,132249,1,8,0:0:0:0:
256,188,132385,1,0,0:0:0:0:
256,188,132658,1,0,0:0:0:0:
256,188,132794,1,8,0:0:0:0:
256,188,132930,1,0,0:0:0:0:
256,188,133067,1,0,0:0:0:0:
256,188,133203,1,0,0:0:0:0:
256,188,133339,1,8,0:0:0:0:
256,188,133476,1,0,0:0:0:0:
256,188,133749,1,0,0:0:0:0:
256,188,133885,1,8,0:0:0:0:
256,188,134158,1,8,0:0:0:0:
256,188,134294,1,0,0:0:0:0:
256,188,134430,1,8,0:0:0:0:
256,188,134567,1,0,0:0:0:0:
256,188,134839,1,0,0:0:0:0:
256,188,134976,1,8,0:0:0:0:
256,188,135112,1,0,0:0:0:0:
256,188,135249,1,0,0:0:0:0:
256,188,135385,1,0,0:0:0:0:
256,188,135521,1,8,0:0:0:0:
256,188,135658,1,0,0:0:0:0:
256,188,135794,1,8,0:0:0:0:
256,188,135930,1,0,0:0:0:0:
256,188,136067,1,8,0:0:0:0:
256,188,136339,1,0,0:0:0:0:
256,188,136476,1,0,0:0:0:0:
256,188,136612,1,8,0:0:0:0:
256,188,136749,1,0,0:0:0:0:
256,188,137021,1,8,0:0:0:0:
256,188,137158,1,0,0:0:0:0:
256,188,137430,1,8,0:0:0:0:
256,188,137567,1,0,0:0:0:0:
256,188,137703,1,8,0:0:0:0:
256,188,137839,1,8,0:0:0:0:
256,188,137976,1,0,0:0:0:0:
256,188,138249,1,8,0:0:0:0:
256,188,138521,1,0,0:0:0:0:
256,188,138658,1,0,0:0:0:0:
256,188,138794,1,8,0:0:0:0:
256,188,138930,1,8,0:0:0:0:
256,188,139203,1,0,0:0:0:0:
256,188,139339,1,8,0:0:0:0:
256,188,139476,1,0,0:0:0:0:
256,188,139612,1,8,0:0:0:0:
256,188,139749,1,8,0:0:0:0:
256,188,139885,1,0,0:0:0:0:
256,188,140158,1,8,0:0:0:0:
256,188,140294,1,0,0:0:0:0:
256,188,140430,1,0,0:0:0:0:
256,188,140567,1,8,0:0:0:0:
256,188,140839,1,0,0:0:0:0:
256,188,140976,1,8,0:0:0:0:
256,188,141112,1,0,0:0:0:0:
256,188,141249,1,0,0:0:0:0:
256,188,141385,1,8,0:0:0:0:
256,188,141658,1,0,0:0:0:0:
256,188,141794,1,8,0:0:0:0:
256,188,141930,1,0,0:0:0:0:
256,188,142067,1,0,0:0:0:0:
256,188,142203,1,0,0:0:0:0:
256,188,142339,1,8,0:0:0:0:
256,188,142476,1,0,0:0:0:0:
256,188,142612,1,0,0:0:0:0:
256,188,142749,1,8,0:0:0:0:
256,188,143021,1,0,0:0:0:0:
256,188,143158,1,8,0:0:0:0:
256,188,143294,1,0,0:0:0:0:
256,188,143430,1,8,0:0:0:0:
256,188,143703,1,0,0:0:0:0:
256,188,143976,1,0,0:0:0:0:
256,188,144249,1,0,0:0:0:0:
256,188,144521,1,8,0:0:0:0:
256,188,144658,1,0,0:0:0:0:
256,188,144794,1,8,0:0:0:0:
256,188,144930,1,0,0:0:0:0:
256,188,145067,1,8,0:0:0:0:
256,188,145203,1,0,0:0:0:0:
256,188,145339,1,0,0:0:0:0:
256,188,145612,1,8,0:0:0:0:
256,188,145749,1,0,0:0:0:0:
256,188,145885,1,8,0:0:0:0:
256,188,146021,1,0,0:0:0:0:
256,188,146158,1,8,0:0:0:0:
256,188,146294,1,8,0:0:0:0:
256,188,146430,1,0,0:0:0:0:
256,188,146703,1,8,0:0:0:0:
256,188,146839,1,0,0:0:0:0:
256,188,146976,1,8,0:0:0:0:
256,188,147112,1,0,0:0:0:0:
256,188,147249,1,8,0:0:0:0:
256,188,147385,1,0,0:0:0:0:
256,188,147521,1,0,0:0:0:0:
256,188,147658,1,0,0:0:0:0:
256,188,147794,1,8,0:0:0:0:
256,188,148067,1,0,0:0:0:0:
256,188,148203,1,8,0:0:0:0:
256,188,148476,1,0,0:0:0:0:
256,188,148612,1,8,0:0:0:0:
256,188,148885,1,12,0:0:0:0:
256,188,149158,1,8,0:0:0:0:
256,188,149294,1,0,0:0:0:0:
256,188,149430,1,8,0:0:0:0:
256,188,149567,1,0,0:0:0:0:
256,188,149703,1,0,0:0:0:0:
256,188,149976,1,8,0:0:0:0:
256,188,150112,1,8,0:0:0:0:
256,188,150249,1,8,0:0:0:0:
256,188,150385,1,0,0:0:0:0:
256,188,150521,1,8,0:0:0:0:
256,188,150658,1,0,0:0:0:0:
256,188,150794,1,0,0:0:0:0:
256,188,151067,1,8,0:0:0:0:
256,188,151203,1,0,0:0:0:0:
256,188,151339,1,0,0:0:0:0:
256,188,151476,1,0,0:0:0:0:
256,188,151612,1,8,0:0:0:0:
256,188,151749,1,0,0:0:0:0:
256,188,151885,1,0,0:0:0:0:
256,188,152021,1,0,0:0:0:0:
256,188,152158,1,8,0:0:0:0:
256,188,152430,1,8,0:0:0:0:
256,188,152703,1,8,0:0:0:0:
256,188,152839,1,0,0:0:0:0:
256,188,152976,1,4,0:0:0:0:
256,188,153249,1,8,0:0:0:0:
256,188,153385,1,0,0:0:0:0:
256,188,153521,1,0,0:0:0:0:
256,188,153658,1,8,0:0:0:0:
256,188,153794,1,0,0:0:0:0:
256,188,153930,1,0,0:0:0:0:
256,188,154067,1,8,0:0:0:0:
256,188,154339,1,8,0:0:0:0:
256,188,154476,1,0,0:0:0:0:
256,188,154612,1,0,0:0:0:0:
256,188,154749,1,8,0:0:0:0:
256,188,154885,1,0,0:0:0:0:
256,188,155021,1,0,0:0:0:0:
256,188,155158,1,8,0:0:0:0:
256,188,155430,1,8,0:0:0:0:
256,188,155703,1,8,0:0:0:0:
256,188,155839,1,0,0:0:0:0:
256,188,155976,1,8,0:0:0:0:
256,188,156249,1,8,0:0:0:0:
256,188,156385,1,8,0:0:0:0:
256,188,156521,1,8,0:0:0:0:
256,188,156658,1,0,0:0:0:0:
256,188,156794,1,8,0:0:0:0:
256,188,156930,1,8,0:0:0:0:
256,188,157067,1,4,0:0:0:0:
256,188,157203,1,4,0:0:0:0:
256,188,157612,1,8,0:0:0:0:
256,188,157885,1,0,0:0:0:0:
256,188,158158,1,0,0:0:0:0:
256,188,158430,1,0,0:0:0:0:
256,188,158703,1,8,0:0:0:0:
256,188,158976,1,0,0:0:0:0:
256,188,159249,1,0,0:0:0:0:
256,188,159521,1,0,0:0:0:0:
256,188,159794,1,8,0:0:0:0:
256,188,160067,1,0,0:0:0:0:
256,188,160339,1,0,0:0:0:0:
256,188,160612,1,0,0:0:0:0:
256,188,160885,1,8,0:0:0:0:
256,188,161158,1,0,0:0:0:0:
256,188,161430,1,0,0:0:0:0:
256,188,161703,1,0,0:0:0:0:
256,192,161976,12,0,164976,0:0:0:0:
256,192,165249,5,12,0:0:0:0:
256,192,165521,1,4,0:0:0:0:
256,192,165794,1,12,0:0:0:0:
256,192,166067,1,12,0:0:0:0:
256,188,166339,5,8,0:0:0:0:
256,188,166476,1,8,0:0:0:0:
256,188,166612,1,8,0:0:0:0:
256,188,166749,1,8,0:0:0:0:
256,188,166885,1,0,0:0:0:0:
256,188,167021,1,0,0:0:0:0:
256,188,167158,1,8,0:0:0:0:
256,188,167294,1,8,0:0:0:0:
256,188,167567,1,8,0:0:0:0:
256,188,167703,1,0,0:0:0:0:
256,188,167839,1,8,0:0:0:0:
256,188,167976,1,0,0:0:0:0:
256,188,168249,1,8,0:0:0:0:
256,188,168521,1,0,0:0:0:0:
256,188,168658,1,0,0:0:0:0:
256,188,168794,1,8,0:0:0:0:
256,188,168930,1,0,0:0:0:0:
256,188,169067,1,8,0:0:0:0:
256,188,169339,1,0,0:0:0:0:
256,188,169476,1,8,0:0:0:0:
256,188,169749,1,8,0:0:0:0:
256,188,169885,1,8,0:0:0:0:
256,188,170021,1,0,0:0:0:0:
256,188,170158,1,0,0:0:0:0:
256,188,170430,1,0,0:0:0:0:
256,188,170703,1,8,0:0:0:0:
256,188,170839,1,0,0:0:0:0:
256,188,170976,1,8,0:0:0:0:
256,188,171249,1,0,0:0:0:0:
256,188,171385,1,0,0:0:0:0:
256,188,171521,1,8,0:0:0:0:
256,188,171794,1,8,0:0:0:0:
256,188,171930,1,0,0:0:0:0:
256,188,172067,1,8,0:0:0:0:
256,188,172339,1,8,0:0:0:0:
256,188,172476,1,8,0:0:0:0:
256,188,172612,1,8,0:0:0:0:
256,188,172885,1,8,0:0:0:0:
256,188,173021,1,0,0:0:0:0:
256,188,173158,1,8,0:0:0:0:
256,188,173294,1,0,0:0:0:0:
256,188,173430,1,8,0:0:0:0:
256,188,173567,1,0,0:0:0:0:
256,188,173703,1,8,0:0:0:0:
256,188,173839,1,0,0:0:0:0:
256,188,173976,1,8,0:0:0:0:
256,188,174112,1,8,0:0:0:0:
256,188,174249,1,0,0:0:0:0:
256,188,174385,1,8,0:0:0:0:
256,188,174521,1,4,0:0:0:0:
256,188,174658,1,4,0:0:0:0:
256,188,175067,1,0,0:0:0:0:
256,188,175339,1,0,0:0:0:0:
256,188,175612,1,0,0:0:0:0:
256,188,175885,1,0,0:0:0:0:
256,188,176158,1,0,0:0:0:0:
256,188,176430,1,0,0:0:0:0:
256,188,176703,1,0,0:0:0:0:
256,188,176976,1,0,0:0:0:0:
256,188,177249,1,0,0:0:0:0:
256,188,177521,1,0,0:0:0:0:
256,188,177794,1,0,0:0:0:0:
256,188,178067,1,0,0:0:0:0:
256,188,178339,1,0,0:0:0:0:
256,188,178612,1,0,0:0:0:0:
256,188,178885,1,0,0:0:0:0:
256,188,179158,1,0,0:0:0:0:
256,188,179294,1,8,0:0:0:0:
256,188,179430,1,0,0:0:0:0:
256,188,179703,1,12,0:0:0:0:
256,188,179976,1,0,0:0:0:0:
256,188,180249,1,0,0:0:0:0:
256,188,180521,1,0,0:0:0:0:
256,188,180794,1,0,0:0:0:0:
256,188,181067,1,0,0:0:0:0:
256,188,181339,1,0,0:0:0:0:
256,188,181612,1,0,0:0:0:0:
256,188,181885,1,8,0:0:0:0:
256,188,182158,1,0,0:0:0:0:
256,188,182430,1,0,0:0:0:0:
256,188,182703,1,0,0:0:0:0:
256,188,182976,1,8,0:0:0:0:
256,188,183249,1,0,0:0:0:0:
256,188,183521,1,0,0:0:0:0:
256,188,183794,1,0,0:0:0:0:
256,188,184067,1,0,0:0:0:0:
256,188,184339,1,0,0:0:0:0:
256,188,184476,1,0,0:0:0:0:
256,188,184612,1,8,0:0:0:0:
256,188,184749,1,0,0:0:0:0:
256,188,185021,1,0,0:0:0:0:
256,188,185158,1,8,0:0:0:0:
256,188,185294,1,0,0:0:0:0:
256,188,185567,1,0,0:0:0:0:
256,188,185703,1,8,0:0:0:0:
256,188,185839,1,0,0:0:0:0:
256,188,186112,1,0,0:0:0:0:
256,188,186249,1,8,0:0:0:0:
256,188,186385,1,0,0:0:0:0:
256,188,186658,1,0,0:0:0:0:
256,188,186794,1,8,0:0:0:0:
256,188,186930,1,0,0:0:0:0:
256,188,187203,1,0,0:0:0:0:
256,188,187339,1,8,0:0:0:0:
256,188,187476,1,0,0:0:0:0:
256,188,187612,1,0,0:0:0:0:
256,188,187749,1,0,0:0:0:0:
256,188,187885,1,8,0:0:0:0:
256,188,188021,1,0,0:0:0:0:
256,188,188158,1,12,0:0:0:0:
256,188,188430,1,8,0:0:0:0:
256,188,188703,1,8,0:0:0:0:
256,188,188976,1,8,0:0:0:0:
256,188,189249,1,8,0:0:0:0:
256,188,189521,1,8,0:0:0:0:
256,188,189794,1,8,0:0:0:0:
256,188,190067,1,8,0:0:0:0:
256,188,190203,1,0,0:0:0:0:
256,188,190339,1,8,0:0:0:0:
256,188,190612,1,8,0:0:0:0:
256,188,190885,1,8,0:0:0:0:
256,188,191158,1,8,0:0:0:0:
256,192,191294,12,0,192249,0:0:0:0:
256,188,192521,5,0,0:0:0:0:
256,188,192794,5,12,0:0:0:0:
256,188,193067,1,0,0:0:0:0:
256,188,193203,1,0,0:0:0:0:
256,188,193339,1,8,0:0:0:0:
256,188,193476,1,0,0:0:0:0:
256,188,193749,1,0,0:0:0:0:
256,188,193885,1,8,0:0:0:0:
256,188,194021,1,8,0:0:0:0:
256,188,194158,1,0,0:0:0:0:
256,188,194430,1,8,0:0:0:0:
256,188,194567,1,0,0:0:0:0:
256,188,194839,1,0,0:0:0:0:
256,188,194976,1,8,0:0:0:0:
256,188,195112,1,8,0:0:0:0:
256,188,195249,1,0,0:0:0:0:
256,188,195521,1,8,0:0:0:0:
256,188,195658,1,0,0:0:0:0:
256,188,195930,1,8,0:0:0:0:
256,188,196067,1,0,0:0:0:0:
256,188,196203,1,0,0:0:0:0:
256,188,196339,1,8,0:0:0:0:
256,188,196476,1,0,0:0:0:0:
256,188,196612,1,8,0:0:0:0:
256,188,196885,1,4,0:0:0:0:
256,188,197158,1,0,0:0:0:0:
256,188,197226,1,0,0:0:0:0:
256,188,197294,1,0,0:0:0:0:
256,188,197430,1,8,0:0:0:0:
256,188,197567,1,0,0:0:0:0:
256,188,197703,1,8,0:0:0:0:
256,188,197839,1,0,0:0:0:0:
256,188,198112,1,8,0:0:0:0:
256,188,198249,1,8,0:0:0:0:
256,188,198521,1,0,0:0:0:0:
256,188,198658,1,0,0:0:0:0:
256,188,198794,1,8,0:0:0:0:
256,188,198930,1,0,0:0:0:0:
256,188,199203,1,8,0:0:0:0:
256,188,199339,1,0,0:0:0:0:
256,188,199476,1,0,0:0:0:0:
256,188,199612,1,8,0:0:0:0:
256,188,199885,1,8,0:0:0:0:
256,188,200021,1,0,0:0:0:0:
256,188,200294,1,0,0:0:0:0:
256,188,200430,1,8,0:0:0:0:
256,188,200567,1,0,0:0:0:0:
256,188,200703,1,8,0:0:0:0:
256,188,200839,1,0,0:0:0:0:
256,188,200976,1,8,0:0:0:0:
256,188,201112,1,0,0:0:0:0:
256,188,201249,1,12,0:0:0:0:
256,188,201521,1,8,0:0:0:0:
256,188,201794,1,0,0:0:0:0:
256,188,201930,1,8,0:0:0:0:
256,188,202067,1,8,0:0:0:0:
256,188,202203,1,0,0:0:0:0:
256,188,202476,1,8,0:0:0:0:
256,188,202612,1,8,0:0:0:0:
256,188,202749,1,8,0:0:0:0:
256,188,202885,1,0,0:0:0:0:
256,188,203158,1,8,0:0:0:0:
256,188,203294,1,0,0:0:0:0:
256,188,203567,1,0,0:0:0:0:
256,188,203703,1,8,0:0:0:0:
256,188,203839,1,0,0:0:0:0:
256,188,204112,1,0,0:0:0:0:
256,188,204249,1,8,0:0:0:0:
256,188,204385,1,8,0:0:0:0:
256,188,204658,1,0,0:0:0:0:
256,188,204794,1,8,0:0:0:0:
256,188,204930,1,0,0:0:0:0:
256,188,205067,1,8,0:0:0:0:
256,188,205203,1,0,0:0:0:0:
256,188,205339,1,8,0:0:0:0:
256,188,205476,1,0,0:0:0:0:
256,188,205612,1,4,0:0:0:0:
256,188,205885,1,8,0:0:0:0:
256,188,206158,1,0,0:0:0:0:
256,188,206294,1,0,0:0:0:0:
256,188,206430,1,8,0:0:0:0:
256,188,206567,1,0,0:0:0:0:
256,188,206839,1,0,0:0:0:0:
256,188,206976,1,0,0:0:0:0:
256,188,207112,1,8,0:0:0:0:
256,188,207249,1,0,0:0:0:0:
256,188,207385,1,0,0:0:0:0:
256,188,207521,1,8,0:0:0:0:
256,188,207658,1,0,0:0:0:0:
256,188,207930,1,0,0:0:0:0:
256,188,208067,1,8,0:0:0:0:
256,188,208339,1,0,0:0:0:0:
256,188,208476,1,0,0:0:0:0:
256,188,208612,1,8,0:0:0:0:
256,188,208749,1,8,0:0:0:0:
256,188,209021,1,0,0:0:0:0:
256,188,209294,1,8,0:0:0:0:
256,188,209430,1,0,0:0:0:0:
256,188,209703,1,8,0:0:0:0:
256,188,209976,1,4,0:0:0:0:
256,188,210112,1,0,0:0:0:0:
256,188,210249,1,8,0:0:0:0:
256,188,210385,1,0,0:0:0:0:
256,188,210658,1,0,0:0:0:0:
256,188,210794,1,8,0:0:0:0:
256,188,210930,1,0,0:0:0:0:
256,188,211203,1,0,0:0:0:0:
256,188,211339,1,8,0:0:0:0:
256,188,211612,1,0,0:0:0:0:
256,188,211749,1,0,0:0:0:0:
256,188,211885,1,8,0:0:0:0:
256,188,212021,1,0,0:0:0:0:
256,188,212294,1,0,0:0:0:0:
256,188,212430,1,8,0:0:0:0:
256,188,212567,1,0,0:0:0:0:
256,188,212703,1,0,0:0:0:0:
256,188,212839,1,0,0:0:0:0:
256,188,212976,1,8,0:0:0:0:
256,188,213112,1,0,0:0:0:0:
256,188,213385,1,8,0:0:0:0:
256,188,213521,1,0,0:0:0:0:
256,188,213794,1,0,0:0:0:0:
256,188,213930,1,0,0:0:0:0:
256,188,214067,1,0,0:0:0:0:
256,188,214203,1,12,0:0:0:0:
256,188,214612,1,8,0:0:0:0:
256,188,214749,1,0,0:0:0:0:
256,188,215021,1,0,0:0:0:0:
256,188,215294,1,8,0:0:0:0:
256,188,215703,1,8,0:0:0:0:
256,188,215839,1,0,0:0:0:0:
256,188,216112,1,0,0:0:0:0:
256,188,216385,1,8,0:0:0:0:
256,188,216794,1,0,0:0:0:0:
256,188,216930,1,8,0:0:0:0:
256,188,217203,1,0,0:0:0:0:
256,188,217476,1,8,0:0:0:0:
256,188,217885,1,8,0:0:0:0:
256,188,218021,1,0,0:0:0:0:
256,188,218158,1,8,0:0:0:0:
256,188,218294,1,0,0:0:0:0:
256,188,218430,1,0,0:0:0:0:
256,188,218567,1,0,0:0:0:0:
256,188,218703,1,12,0:0:0:0:
256,188,218976,1,0,0:0:0:0:
256,188,219112,1,8,0:0:0:0:
256,188,219385,1,0,0:0:0:0:
256,188,219658,1,8,0:0:0:0:
256,188,219930,1,0,0:0:0:0:
256,188,220203,1,8,0:0:0:0:
256,188,220476,1,0,0:0:0:0:
256,188,220749,1,0,0:0:0:0:
256,188,220817,1,0,0:0:0:0:
256,188,220885,1,0,0:0:0:0:
256,188,221021,1,0,0:0:0:0:
256,188,221294,1,8,0:0:0:0:
256,188,221567,1,0,0:0:0:0:
256,188,221839,1,8,0:0:0:0:
256,188,222249,1,0,0:0:0:0:
256,188,222385,1,0,0:0:0:0:
256,188,222521,1,0,0:0:0:0:
256,188,222658,1,8,0:0:0:0:
256,188,222794,1,0,0:0:0:0:
256,188,222930,1,12,0:0:0:0:
256,188,223203,1,0,0:0:0:0:
256,188,223476,1,8,0:0:0:0:
256,188,223749,1,0,0:0:0:0:
256,188,224021,1,0,0:0:0:0:
256,188,224158,1,0,0:0:0:0:
256,188,224294,1,0,0:0:0:0:
256,188,224567,1,8,0:0:0:0:
256,188,224839,1,0,0:0:0:0:
256,188,225112,1,0,0:0:0:0:
256,188,225249,1,8,0:0:0:0:
256,188,225385,1,0,0:0:0:0:
256,188,225658,1,8,0:0:0:0:
256,188,225930,1,0,0:0:0:0:
256,188,226067,1,0,0:0:0:0:
256,188,226203,1,0,0:0:0:0:
256,188,226339,1,8,0:0:0:0:
256,188,226612,1,8,0:0:0:0:
256,188,226885,1,4,0:0:0:0:
256,188,227021,1,4,0:0:0:0:
256,188,227158,1,4,0:0:0:0:
256,188,227294,1,12,0:0:0:0:
