osu file format v14

[General]
AudioFilename: Give me Chocolate .mp3
AudioLeadIn: 0
PreviewTime: 52885
Countdown: 0
SampleSet: Normal
StackLeniency: 0.7
Mode: 1
LetterboxInBreaks: 0
WidescreenStoryboard: 0

[Editor]
DistanceSpacing: 1
BeatDivisor: 4
GridSize: 32
TimelineZoom: 2.7

[Metadata]
Title:Gimme Chocolate!!
TitleUnicode:ギミチョコ!!
Artist:BABYMETAL
ArtistUnicode:BABYMETAL
Creator:Rad-
Version:Nwolf's Oni
Source:
Tags:J-metal idol rock loli kitsune give me ilikecheese defused bomb nwolf
BeatmapID:482714
BeatmapSetID:162368

[Difficulty]
HPDrainRate:5
CircleSize:4
OverallDifficulty:5
ApproachRate:7
SliderMultiplier:1.4
SliderTickRate:1

[Events]
//Background and Video events
0,0,"babymetal.jpg",0,125
//Break Periods
//Storyboard Layer 0 (Background)
//Storyboard Layer 1 (Fail)
//Storyboard Layer 2 (Pass)
//Storyboard Layer 3 (Foreground)
//Storyboard Sound Samples

[TimingPoints]
9249,272.727272727273,4,1,0,100,1,0
52885,-100,4,1,0,100,0,1
69794,-100,4,1,0,100,0,0
70339,-100,4,1,0,100,0,0
96521,-100,4,1,0,100,0,1
113976,-100,4,1,0,100,0,0
158703,-90.9090909090909,4,1,0,100,0,0
159794,-83.3333333333333,4,1,0,100,0,0
160885,-76.9230769230769,4,1,0,100,0,0
161976,-71.4285714285714,4,1,0,50,0,0
162999,-100,4,1,0,100,0,0
174999,-111.111111111111,4,1,0,60,0,0
183794,-111.111111111111,4,1,0,80,0,0
183930,-100,4,1,0,80,0,0
192521,-100,4,1,0,100,0,1
209976,-100,4,1,0,100,0,0

[Colours]
Combo1 : 148,148,148
Combo2 : 0,0,193
Combo3 : 255,0,0

[HitObjects]
288,224,9249,5,12,0:0:0:0:
288,160,9521,1,8,0:0:0:0:
288,160,9794,1,8,0:0:0:0:
288,160,10067,1,8,0:0:0:0:
288,224,10203,1,12,0:0:0:0:
224,160,10476,1,0,0:0:0:0:
288,160,10612,1,8,0:0:0:0:
288,160,10885,1,8,0:0:0:0:
224,160,10953,1,0,0:0:0:0:
224,160,11021,1,0,0:0:0:0:
288,160,11158,1,8,0:0:0:0:
288,224,11294,1,12,0:0:0:0:
224,160,11567,1,0,0:0:0:0:
288,160,11703,1,8,0:0:0:0:
224,160,11839,1,0,0:0:0:0:
288,160,11976,1,8,0:0:0:0:
288,160,12249,1,8,0:0:0:0:
288,224,12385,1,12,0:0:0:0:
224,160,12658,1,0,0:0:0:0:
288,160,12794,1,8,0:0:0:0:
224,160,12930,1,0,0:0:0:0:
288,160,13067,1,8,0:0:0:0:
224,160,13203,1,0,0:0:0:0:
288,160,13339,1,8,0:0:0:0:
224,160,13476,1,0,0:0:0:0:
288,224,13612,1,12,0:0:0:0:
288,160,13885,1,8,0:0:0:0:
288,160,14158,1,8,0:0:0:0:
288,160,14430,1,8,0:0:0:0:
288,224,14567,1,12,0:0:0:0:
224,160,14839,1,0,0:0:0:0:
288,160,14976,1,8,0:0:0:0:
288,160,15249,1,8,0:0:0:0:
224,160,15317,1,0,0:0:0:0:
224,160,15385,1,0,0:0:0:0:
288,160,15521,1,8,0:0:0:0:
288,224,15658,1,12,0:0:0:0:
224,160,15930,1,0,0:0:0:0:
288,160,16067,1,8,0:0:0:0:
224,160,16203,1,0,0:0:0:0:
288,160,16339,1,8,0:0:0:0:
288,160,16476,1,8,0:0:0:0:
288,160,16612,1,8,0:0:0:0:
288,224,16749,1,12,0:0:0:0:
224,160,17021,1,0,0:0:0:0:
288,160,17158,1,8,0:0:0:0:
224,160,17294,1,0,0:0:0:0:
288,160,17430,1,8,0:0:0:0:
224,160,17567,1,0,0:0:0:0:
288,160,17703,1,8,0:0:0:0:
224,160,17839,1,0,0:0:0:0:
288,224,17976,1,12,0:0:0:0:
224,160,18249,1,0,0:0:0:0:
288,160,18521,1,8,0:0:0:0:
288,160,18794,1,8,0:0:0:0:
288,224,18930,1,12,0:0:0:0:
224,160,19203,1,0,0:0:0:0:
288,160,19339,1,8,0:0:0:0:
288,160,19612,1,8,0:0:0:0:
224,160,19749,1,0,0:0:0:0:
224,160,19817,1,0,0:0:0:0:
288,160,19885,1,8,0:0:0:0:
288,224,20021,1,12,0:0:0:0:
224,160,20430,1,0,0:0:0:0:
224,160,20567,1,0,0:0:0:0:
224,160,20635,1,0,0:0:0:0:
288,160,20703,1,8,0:0:0:0:
288,160,20839,1,8,0:0:0:0:
224,160,20976,1,0,0:0:0:0:
288,224,21112,1,12,0:0:0:0:
224,160,21385,1,0,0:0:0:0:
288,160,21521,1,8,0:0:0:0:
224,160,21658,1,0,0:0:0:0:
288,160,21794,1,8,0:0:0:0:
288,160,21930,1,8,0:0:0:0:
288,160,22067,1,8,0:0:0:0:
288,160,22203,1,8,0:0:0:0:
288,224,22339,1,12,0:0:0:0:
224,160,22612,1,0,0:0:0:0:
224,160,22749,1,0,0:0:0:0:
288,160,22885,1,8,0:0:0:0:
288,160,23158,1,8,0:0:0:0:
288,224,23294,1,12,0:0:0:0:
224,160,23567,1,0,0:0:0:0:
288,160,23703,1,8,0:0:0:0:
224,160,23839,1,0,0:0:0:0:
288,160,23976,1,8,0:0:0:0:
224,160,24044,1,0,0:0:0:0:
288,160,24112,1,8,0:0:0:0:
288,160,24249,1,8,0:0:0:0:
288,224,24385,1,12,0:0:0:0:
224,160,24658,1,0,0:0:0:0:
224,160,24794,1,0,0:0:0:0:
224,160,24930,1,0,0:0:0:0:
224,160,24999,1,0,0:0:0:0:
288,160,25067,1,8,0:0:0:0:
288,160,25203,1,8,0:0:0:0:
224,160,25339,1,0,0:0:0:0:
288,224,25476,1,12,0:0:0:0:
224,160,25749,1,0,0:0:0:0:
288,160,25885,1,8,0:0:0:0:
224,160,26021,1,0,0:0:0:0:
288,160,26158,1,8,0:0:0:0:
288,160,26294,1,8,0:0:0:0:
288,160,26430,1,8,0:0:0:0:
288,160,26567,1,8,0:0:0:0:
288,224,26703,1,12,0:0:0:0:
288,160,26976,1,8,0:0:0:0:
224,160,27112,1,0,0:0:0:0:
288,160,27249,1,8,0:0:0:0:
288,160,27385,1,8,0:0:0:0:
224,160,27521,1,0,0:0:0:0:
288,224,27658,1,12,0:0:0:0:
224,160,27930,1,0,0:0:0:0:
288,160,28067,1,8,0:0:0:0:
224,160,28203,1,0,0:0:0:0:
288,160,28339,1,8,0:0:0:0:
224,160,28408,1,0,0:0:0:0:
224,160,28476,1,0,0:0:0:0:
224,160,28544,1,0,0:0:0:0:
288,160,28612,1,8,0:0:0:0:
288,224,28749,1,12,0:0:0:0:
224,160,28885,1,0,0:0:0:0:
224,160,29158,1,0,0:0:0:0:
224,160,29294,1,0,0:0:0:0:
224,160,29362,1,0,0:0:0:0:
288,160,29430,1,8,0:0:0:0:
288,160,29567,1,8,0:0:0:0:
224,160,29703,1,0,0:0:0:0:
288,224,29839,1,12,0:0:0:0:
224,160,30112,1,0,0:0:0:0:
288,160,30249,1,8,0:0:0:0:
224,160,30385,1,0,0:0:0:0:
288,160,30521,1,8,0:0:0:0:
288,160,30658,1,8,0:0:0:0:
288,224,30794,1,12,0:0:0:0:
288,224,31067,1,12,0:0:0:0:
288,160,31339,1,8,0:0:0:0:
224,160,31476,1,0,0:0:0:0:
288,160,31612,1,8,0:0:0:0:
224,160,31749,1,0,0:0:0:0:
288,160,31885,1,8,0:0:0:0:
288,224,32021,1,12,0:0:0:0:
224,160,32294,1,0,0:0:0:0:
288,160,32430,1,8,0:0:0:0:
224,160,32567,1,0,0:0:0:0:
288,160,32703,1,8,0:0:0:0:
224,160,32771,1,0,0:0:0:0:
288,160,32839,1,8,0:0:0:0:
224,160,32908,1,0,0:0:0:0:
288,160,32976,1,8,0:0:0:0:
288,224,33112,1,12,0:0:0:0:
224,160,33249,1,0,0:0:0:0:
288,160,33521,1,8,0:0:0:0:
224,160,33658,1,0,0:0:0:0:
224,160,33726,1,0,0:0:0:0:
288,160,33794,1,8,0:0:0:0:
224,160,33930,1,0,0:0:0:0:
288,160,34067,1,8,0:0:0:0:
288,224,34203,1,12,0:0:0:0:
224,160,34476,1,0,0:0:0:0:
288,160,34612,1,8,0:0:0:0:
224,160,34749,1,0,0:0:0:0:
288,224,34885,1,12,0:0:0:0:
288,224,35021,1,12,0:0:0:0:
288,224,35158,1,12,0:0:0:0:
288,224,35294,1,12,0:0:0:0:
224,224,35430,5,4,0:0:0:0:
288,160,35703,1,8,0:0:0:0:
224,160,35839,1,0,0:0:0:0:
288,160,35976,1,8,0:0:0:0:
224,160,36112,1,0,0:0:0:0:
288,160,36249,1,8,0:0:0:0:
288,160,36521,1,8,0:0:0:0:
288,160,36794,1,8,0:0:0:0:
224,160,36930,1,0,0:0:0:0:
288,160,37067,1,8,0:0:0:0:
224,160,37203,1,0,0:0:0:0:
288,160,37339,1,8,0:0:0:0:
288,224,37612,1,12,0:0:0:0:
288,160,37885,1,8,0:0:0:0:
224,160,38021,1,0,0:0:0:0:
288,160,38158,1,8,0:0:0:0:
224,160,38294,1,0,0:0:0:0:
288,160,38430,1,8,0:0:0:0:
224,160,38703,1,0,0:0:0:0:
224,160,38839,1,0,0:0:0:0:
288,160,38976,1,8,0:0:0:0:
224,160,39112,1,0,0:0:0:0:
288,160,39249,1,8,0:0:0:0:
288,160,39385,1,8,0:0:0:0:
288,160,39521,1,8,0:0:0:0:
224,160,39658,1,0,0:0:0:0:
288,224,39794,1,12,0:0:0:0:
288,160,40067,1,8,0:0:0:0:
224,160,40203,1,0,0:0:0:0:
288,160,40339,1,8,0:0:0:0:
224,160,40476,1,0,0:0:0:0:
288,160,40612,1,8,0:0:0:0:
224,160,40749,1,0,0:0:0:0:
224,160,40885,1,0,0:0:0:0:
288,160,41158,1,8,0:0:0:0:
224,160,41294,1,0,0:0:0:0:
288,160,41430,1,8,0:0:0:0:
224,160,41567,1,0,0:0:0:0:
288,160,41703,1,8,0:0:0:0:
288,160,41839,1,8,0:0:0:0:
288,224,41976,1,12,0:0:0:0:
288,160,42249,1,8,0:0:0:0:
224,160,42385,1,0,0:0:0:0:
288,160,42521,1,8,0:0:0:0:
224,160,42658,1,0,0:0:0:0:
288,160,42794,1,8,0:0:0:0:
224,160,42930,1,0,0:0:0:0:
224,224,43067,1,4,0:0:0:0:
224,224,43339,1,4,0:0:0:0:
224,224,43612,1,4,0:0:0:0:
288,224,43749,1,8,0:0:0:0:
224,224,43885,1,4,0:0:0:0:
288,224,44158,1,12,0:0:0:0:
224,160,44294,1,0,0:0:0:0:
288,160,44430,1,8,0:0:0:0:
288,160,44567,1,8,0:0:0:0:
288,160,44703,1,8,0:0:0:0:
224,160,44976,1,0,0:0:0:0:
288,160,45112,1,8,0:0:0:0:
224,160,45385,1,0,0:0:0:0:
288,160,45521,1,8,0:0:0:0:
288,160,45658,1,8,0:0:0:0:
288,160,45794,1,8,0:0:0:0:
288,160,46067,1,8,0:0:0:0:
288,224,46339,1,12,0:0:0:0:
224,160,46476,1,0,0:0:0:0:
288,160,46612,1,8,0:0:0:0:
288,160,46749,1,8,0:0:0:0:
288,160,46885,1,8,0:0:0:0:
224,160,47158,1,0,0:0:0:0:
288,160,47294,1,8,0:0:0:0:
224,160,47567,1,0,0:0:0:0:
288,160,47703,1,8,0:0:0:0:
288,160,47839,1,8,0:0:0:0:
224,160,47976,1,0,0:0:0:0:
288,160,48249,1,8,0:0:0:0:
224,224,48521,1,4,0:0:0:0:
224,160,48658,1,0,0:0:0:0:
224,224,48794,1,0,0:0:0:0:
224,224,49067,1,0,0:0:0:0:
224,160,49203,1,0,0:0:0:0:
288,160,49339,1,8,0:0:0:0:
224,224,49612,1,0,0:0:0:0:
288,160,49749,1,8,0:0:0:0:
288,160,49885,1,8,0:0:0:0:
288,160,50158,1,8,0:0:0:0:
288,160,50294,1,8,0:0:0:0:
288,160,50430,1,8,0:0:0:0:
288,224,50703,1,12,0:0:0:0:
224,160,50839,1,0,0:0:0:0:
288,160,50976,1,8,0:0:0:0:
224,160,51112,1,0,0:0:0:0:
288,160,51249,1,8,0:0:0:0:
224,160,51385,1,0,0:0:0:0:
288,160,51521,1,8,0:0:0:0:
224,160,51658,1,0,0:0:0:0:
288,160,51794,1,8,0:0:0:0:
288,160,51930,1,8,0:0:0:0:
288,160,52067,1,8,0:0:0:0:
224,160,52203,1,0,0:0:0:0:
288,160,52339,1,8,0:0:0:0:
288,160,52476,1,8,0:0:0:0:
224,224,52885,5,4,0:0:0:0:
288,224,53158,1,12,0:0:0:0:
224,160,53430,1,0,0:0:0:0:
224,160,53567,1,0,0:0:0:0:
288,160,53703,1,8,0:0:0:0:
224,160,53839,1,0,0:0:0:0:
224,160,54112,1,0,0:0:0:0:
288,160,54249,1,8,0:0:0:0:
224,160,54385,1,0,0:0:0:0:
224,160,54521,1,0,0:0:0:0:
224,160,54658,1,0,0:0:0:0:
288,160,54794,1,8,0:0:0:0:
288,160,54930,1,8,0:0:0:0:
224,160,55203,1,0,0:0:0:0:
288,160,55339,1,8,0:0:0:0:
224,160,55476,1,0,0:0:0:0:
224,160,55749,1,0,0:0:0:0:
288,160,55885,1,8,0:0:0:0:
288,160,56021,1,8,0:0:0:0:
224,160,56294,1,0,0:0:0:0:
288,160,56430,1,8,0:0:0:0:
224,160,56567,1,0,0:0:0:0:
224,160,56635,1,0,0:0:0:0:
288,160,56703,1,8,0:0:0:0:
288,160,56839,1,8,0:0:0:0:
288,160,56976,1,8,0:0:0:0:
288,160,57112,1,8,0:0:0:0:
224,224,57249,1,4,0:0:0:0:
288,224,57521,1,12,0:0:0:0:
224,160,57794,1,0,0:0:0:0:
224,160,57930,1,0,0:0:0:0:
288,160,58067,1,8,0:0:0:0:
288,160,58203,1,8,0:0:0:0:
224,160,58476,1,0,0:0:0:0:
288,160,58612,1,8,0:0:0:0:
224,160,58749,1,0,0:0:0:0:
224,160,58885,1,0,0:0:0:0:
224,160,59021,1,0,0:0:0:0:
288,160,59158,1,8,0:0:0:0:
288,160,59294,1,8,0:0:0:0:
224,160,59567,1,0,0:0:0:0:
288,160,59703,1,8,0:0:0:0:
224,160,59839,1,0,0:0:0:0:
224,160,60112,1,0,0:0:0:0:
288,160,60249,1,8,0:0:0:0:
288,160,60385,1,8,0:0:0:0:
224,160,60658,1,0,0:0:0:0:
288,160,60794,1,8,0:0:0:0:
288,160,60930,1,8,0:0:0:0:
224,160,61067,1,0,0:0:0:0:
288,160,61203,1,8,0:0:0:0:
288,160,61339,1,8,0:0:0:0:
224,160,61476,1,0,0:0:0:0:
288,224,61612,1,12,0:0:0:0:
288,224,61885,1,12,0:0:0:0:
224,160,62158,1,0,0:0:0:0:
288,160,62294,1,8,0:0:0:0:
288,160,62430,1,8,0:0:0:0:
288,160,62567,1,8,0:0:0:0:
224,160,62839,1,0,0:0:0:0:
288,160,62976,1,8,0:0:0:0:
224,160,63112,1,0,0:0:0:0:
224,160,63249,1,0,0:0:0:0:
224,160,63385,1,0,0:0:0:0:
288,160,63521,1,8,0:0:0:0:
288,160,63658,1,8,0:0:0:0:
224,160,63930,1,0,0:0:0:0:
288,160,64067,1,8,0:0:0:0:
224,160,64203,1,0,0:0:0:0:
224,160,64476,1,0,0:0:0:0:
288,160,64612,1,8,0:0:0:0:
288,160,64749,1,8,0:0:0:0:
224,160,65021,1,0,0:0:0:0:
288,160,65158,1,8,0:0:0:0:
224,160,65294,1,0,0:0:0:0:
224,160,65362,1,0,0:0:0:0:
288,160,65430,1,8,0:0:0:0:
288,160,65567,1,8,0:0:0:0:
288,160,65703,1,8,0:0:0:0:
224,160,65839,1,0,0:0:0:0:
288,224,65976,1,12,0:0:0:0:
288,224,66249,1,12,0:0:0:0:
288,160,66521,1,8,0:0:0:0:
288,160,66658,1,8,0:0:0:0:
288,160,66794,1,8,0:0:0:0:
288,160,66930,1,8,0:0:0:0:
224,160,67203,1,0,0:0:0:0:
288,160,67339,1,8,0:0:0:0:
224,160,67476,1,0,0:0:0:0:
224,160,67749,1,0,0:0:0:0:
288,160,67885,1,8,0:0:0:0:
288,160,68021,1,8,0:0:0:0:
224,160,68294,1,0,0:0:0:0:
288,160,68430,1,8,0:0:0:0:
224,160,68567,1,0,0:0:0:0:
224,160,68839,1,0,0:0:0:0:
288,160,68976,1,8,0:0:0:0:
288,160,69112,1,8,0:0:0:0:
288,160,69385,1,8,0:0:0:0:
224,160,69521,1,0,0:0:0:0:
288,160,69658,1,8,0:0:0:0:
224,224,70339,5,4,0:0:0:0:
224,160,70612,1,0,0:0:0:0:
224,160,70885,1,0,0:0:0:0:
224,160,71158,1,0,0:0:0:0:
288,224,71294,1,12,0:0:0:0:
224,160,71567,1,0,0:0:0:0:
288,160,71703,1,8,0:0:0:0:
288,160,71976,1,8,0:0:0:0:
224,160,72044,1,0,0:0:0:0:
224,160,72112,1,0,0:0:0:0:
224,160,72249,1,0,0:0:0:0:
288,224,72385,1,12,0:0:0:0:
224,160,72658,1,0,0:0:0:0:
288,160,72794,1,8,0:0:0:0:
224,160,72930,1,0,0:0:0:0:
224,160,72999,1,0,0:0:0:0:
288,160,73067,1,8,0:0:0:0:
288,160,73203,1,8,0:0:0:0:
288,160,73339,1,8,0:0:0:0:
288,224,73476,1,12,0:0:0:0:
224,160,73749,1,0,0:0:0:0:
288,160,73885,1,8,0:0:0:0:
224,160,74021,1,0,0:0:0:0:
288,160,74158,1,8,0:0:0:0:
224,160,74294,1,0,0:0:0:0:
288,160,74430,1,8,0:0:0:0:
224,160,74567,1,0,0:0:0:0:
288,224,74703,1,12,0:0:0:0:
288,160,74976,1,8,0:0:0:0:
224,160,75112,1,0,0:0:0:0:
288,160,75249,1,8,0:0:0:0:
288,160,75521,1,8,0:0:0:0:
288,224,75658,1,12,0:0:0:0:
224,160,75930,1,0,0:0:0:0:
288,160,76067,1,8,0:0:0:0:
224,160,76203,1,0,0:0:0:0:
224,160,76271,1,0,0:0:0:0:
288,160,76339,1,8,0:0:0:0:
288,160,76408,1,8,0:0:0:0:
224,160,76476,1,0,0:0:0:0:
288,160,76612,1,8,0:0:0:0:
288,224,76749,1,12,0:0:0:0:
224,160,77021,1,0,0:0:0:0:
288,160,77158,1,8,0:0:0:0:
224,160,77294,1,0,0:0:0:0:
224,160,77362,1,0,0:0:0:0:
288,160,77430,1,8,0:0:0:0:
288,160,77567,1,8,0:0:0:0:
224,160,77703,1,0,0:0:0:0:
288,224,77839,1,12,0:0:0:0:
224,160,78112,1,0,0:0:0:0:
288,160,78249,1,8,0:0:0:0:
224,160,78385,1,0,0:0:0:0:
288,160,78521,1,8,0:0:0:0:
288,160,78658,1,8,0:0:0:0:
288,160,78794,1,8,0:0:0:0:
288,160,78930,1,8,0:0:0:0:
288,224,79067,1,12,0:0:0:0:
288,160,79339,1,8,0:0:0:0:
224,160,79476,1,0,0:0:0:0:
288,160,79612,1,8,0:0:0:0:
224,160,79749,1,0,0:0:0:0:
288,160,79885,1,8,0:0:0:0:
288,160,80158,1,8,0:0:0:0:
288,160,80430,1,8,0:0:0:0:
224,160,80567,1,0,0:0:0:0:
288,160,80703,1,8,0:0:0:0:
224,160,80839,1,0,0:0:0:0:
288,160,80976,1,8,0:0:0:0:
224,160,81112,1,0,0:0:0:0:
288,224,81249,1,12,0:0:0:0:
288,160,81521,1,8,0:0:0:0:
224,160,81658,1,0,0:0:0:0:
288,160,81794,1,8,0:0:0:0:
224,160,81930,1,0,0:0:0:0:
288,160,82067,1,8,0:0:0:0:
288,160,82339,1,8,0:0:0:0:
224,160,82476,1,0,0:0:0:0:
288,160,82612,1,8,0:0:0:0:
288,160,82749,1,8,0:0:0:0:
288,160,82885,1,8,0:0:0:0:
224,160,83021,1,0,0:0:0:0:
288,160,83158,1,8,0:0:0:0:
224,160,83294,1,0,0:0:0:0:
288,224,83430,1,12,0:0:0:0:
288,160,83703,1,8,0:0:0:0:
288,160,83839,1,8,0:0:0:0:
288,160,83976,1,8,0:0:0:0:
224,160,84112,1,0,0:0:0:0:
288,160,84249,1,8,0:0:0:0:
224,160,84385,1,0,0:0:0:0:
288,160,84521,1,8,0:0:0:0:
288,160,84794,1,8,0:0:0:0:
224,160,84930,1,0,0:0:0:0:
288,160,85067,1,8,0:0:0:0:
224,160,85203,1,0,0:0:0:0:
288,160,85339,1,8,0:0:0:0:
224,160,85476,1,0,0:0:0:0:
288,224,85612,1,12,0:0:0:0:
288,160,85885,1,8,0:0:0:0:
224,160,86021,1,0,0:0:0:0:
288,160,86158,1,8,0:0:0:0:
224,160,86294,1,0,0:0:0:0:
288,160,86430,1,8,0:0:0:0:
288,160,86567,1,8,0:0:0:0:
224,224,86703,1,4,0:0:0:0:
224,224,86976,1,4,0:0:0:0:
224,224,87249,1,4,0:0:0:0:
288,160,87385,1,8,0:0:0:0:
224,224,87521,1,4,0:0:0:0:
288,224,87794,1,12,0:0:0:0:
224,160,87930,1,0,0:0:0:0:
288,160,88067,1,8,0:0:0:0:
288,160,88135,1,8,0:0:0:0:
288,160,88203,1,8,0:0:0:0:
288,160,88339,1,8,0:0:0:0:
288,160,88476,1,8,0:0:0:0:
224,160,88612,1,0,0:0:0:0:
288,160,88749,1,8,0:0:0:0:
288,160,89021,1,8,0:0:0:0:
288,160,89158,1,8,0:0:0:0:
224,160,89294,1,0,0:0:0:0:
288,160,89430,1,8,0:0:0:0:
288,160,89703,1,8,0:0:0:0:
224,160,89839,1,0,0:0:0:0:
288,224,89976,1,12,0:0:0:0:
224,160,90112,1,0,0:0:0:0:
288,160,90249,1,8,0:0:0:0:
288,160,90317,1,8,0:0:0:0:
288,160,90385,1,8,0:0:0:0:
288,160,90521,1,8,0:0:0:0:
288,160,90794,1,8,0:0:0:0:
224,160,90930,1,0,0:0:0:0:
224,160,91203,1,0,0:0:0:0:
288,160,91339,1,8,0:0:0:0:
224,160,91476,1,0,0:0:0:0:
288,160,91612,1,8,0:0:0:0:
288,160,91885,1,8,0:0:0:0:
224,224,92158,1,4,0:0:0:0:
224,160,92294,1,0,0:0:0:0:
224,160,92430,1,0,0:0:0:0:
224,160,92703,1,0,0:0:0:0:
224,160,92839,1,0,0:0:0:0:
288,160,92976,1,8,0:0:0:0:
224,160,93249,1,0,0:0:0:0:
288,160,93385,1,8,0:0:0:0:
288,160,93521,1,8,0:0:0:0:
288,160,93794,1,8,0:0:0:0:
288,160,93930,1,8,0:0:0:0:
288,160,94067,1,8,0:0:0:0:
288,224,94339,1,12,0:0:0:0:
224,160,94476,1,0,0:0:0:0:
288,160,94612,1,8,0:0:0:0:
224,160,94749,1,0,0:0:0:0:
288,160,94885,1,8,0:0:0:0:
224,160,95021,1,0,0:0:0:0:
288,160,95158,1,8,0:0:0:0:
224,160,95294,1,0,0:0:0:0:
288,160,95430,1,8,0:0:0:0:
224,160,95499,1,0,0:0:0:0:
224,160,95567,1,0,0:0:0:0:
288,160,95703,1,8,0:0:0:0:
288,160,95771,1,8,0:0:0:0:
224,160,95839,1,0,0:0:0:0:
288,160,95976,1,8,0:0:0:0:
224,160,96112,1,0,0:0:0:0:
224,224,96521,5,4,0:0:0:0:
288,224,96794,1,12,0:0:0:0:
288,160,97067,1,8,0:0:0:0:
288,160,97203,1,8,0:0:0:0:
288,160,97339,1,8,0:0:0:0:
288,160,97476,1,8,0:0:0:0:
224,160,97749,1,0,0:0:0:0:
288,160,97885,1,8,0:0:0:0:
224,160,98021,1,0,0:0:0:0:
288,160,98158,1,8,0:0:0:0:
224,160,98294,1,0,0:0:0:0:
288,160,98430,1,8,0:0:0:0:
288,160,98567,1,8,0:0:0:0:
224,160,98839,1,0,0:0:0:0:
288,160,98976,1,8,0:0:0:0:
224,160,99112,1,0,0:0:0:0:
224,160,99249,1,0,0:0:0:0:
224,160,99385,1,0,0:0:0:0:
288,160,99521,1,8,0:0:0:0:
288,160,99658,1,8,0:0:0:0:
224,160,99930,1,0,0:0:0:0:
288,160,100067,1,8,0:0:0:0:
224,160,100203,1,0,0:0:0:0:
224,160,100271,1,0,0:0:0:0:
288,160,100339,1,8,0:0:0:0:
288,160,100476,1,8,0:0:0:0:
288,160,100612,1,8,0:0:0:0:
288,160,100749,1,8,0:0:0:0:
224,224,100885,1,4,0:0:0:0:
288,160,101158,1,12,0:0:0:0:
224,160,101430,1,0,0:0:0:0:
288,160,101567,1,8,0:0:0:0:
288,160,101703,1,8,0:0:0:0:
288,160,101839,1,8,0:0:0:0:
224,160,102112,1,0,0:0:0:0:
288,160,102249,1,8,0:0:0:0:
224,160,102385,1,0,0:0:0:0:
288,160,102521,1,8,0:0:0:0:
224,160,102658,1,0,0:0:0:0:
288,160,102794,1,8,0:0:0:0:
288,160,102930,1,8,0:0:0:0:
224,160,103203,1,0,0:0:0:0:
288,160,103339,1,8,0:0:0:0:
224,160,103476,1,0,0:0:0:0:
224,160,103749,1,0,0:0:0:0:
288,160,103885,1,8,0:0:0:0:
288,160,104021,1,8,0:0:0:0:
224,160,104294,1,0,0:0:0:0:
288,160,104430,1,8,0:0:0:0:
288,160,104567,1,8,0:0:0:0:
288,160,104635,1,8,0:0:0:0:
224,160,104703,1,0,0:0:0:0:
288,160,104839,1,8,0:0:0:0:
288,160,104976,1,8,0:0:0:0:
224,160,105112,1,0,0:0:0:0:
288,224,105249,1,12,0:0:0:0:
288,224,105521,1,12,0:0:0:0:
224,160,105794,1,0,0:0:0:0:
224,160,105930,1,0,0:0:0:0:
288,160,106067,1,8,0:0:0:0:
288,160,106203,1,8,0:0:0:0:
224,160,106476,1,0,0:0:0:0:
288,160,106612,1,8,0:0:0:0:
224,160,106749,1,0,0:0:0:0:
288,160,106885,1,8,0:0:0:0:
224,160,107021,1,0,0:0:0:0:
288,160,107158,1,8,0:0:0:0:
288,160,107294,1,8,0:0:0:0:
224,160,107567,1,0,0:0:0:0:
288,160,107703,1,8,0:0:0:0:
224,160,107839,1,0,0:0:0:0:
224,160,108112,1,0,0:0:0:0:
288,160,108249,1,8,0:0:0:0:
288,160,108385,1,8,0:0:0:0:
224,160,108658,1,0,0:0:0:0:
288,160,108794,1,8,0:0:0:0:
224,160,108930,1,0,0:0:0:0:
224,160,108999,1,0,0:0:0:0:
288,160,109067,1,8,0:0:0:0:
288,160,109203,1,8,0:0:0:0:
288,160,109339,1,8,0:0:0:0:
224,160,109476,1,0,0:0:0:0:
288,224,109612,1,12,0:0:0:0:
288,224,109885,1,12,0:0:0:0:
224,160,110158,1,0,0:0:0:0:
224,160,110294,1,0,0:0:0:0:
288,160,110430,1,8,0:0:0:0:
224,160,110567,1,0,0:0:0:0:
224,160,110839,1,0,0:0:0:0:
288,160,110976,1,8,0:0:0:0:
224,160,111112,1,0,0:0:0:0:
288,160,111249,1,8,0:0:0:0:
224,160,111385,1,0,0:0:0:0:
288,160,111521,1,8,0:0:0:0:
288,160,111658,1,8,0:0:0:0:
224,160,111930,1,0,0:0:0:0:
288,160,112067,1,8,0:0:0:0:
224,160,112203,1,0,0:0:0:0:
224,160,112339,1,0,0:0:0:0:
224,160,112476,1,0,0:0:0:0:
288,160,112612,1,8,0:0:0:0:
288,160,112749,1,8,0:0:0:0:
224,160,113021,1,0,0:0:0:0:
288,160,113158,1,8,0:0:0:0:
288,160,113294,1,8,0:0:0:0:
224,160,113430,1,0,0:0:0:0:
288,160,113703,1,8,0:0:0:0:
288,224,113976,5,12,0:0:0:0:
224,160,114112,1,0,0:0:0:0:
288,160,114249,1,8,0:0:0:0:
288,160,114385,1,8,0:0:0:0:
288,160,114658,1,8,0:0:0:0:
224,160,114794,1,0,0:0:0:0:
288,224,114930,1,12,0:0:0:0:
288,160,115203,1,8,0:0:0:0:
224,160,115339,1,0,0:0:0:0:
288,160,115476,1,8,0:0:0:0:
288,160,115749,1,8,0:0:0:0:
224,160,115885,1,0,0:0:0:0:
288,224,116021,1,12,0:0:0:0:
288,160,116294,1,8,0:0:0:0:
224,160,116430,1,0,0:0:0:0:
288,160,116567,1,8,0:0:0:0:
288,160,116839,1,8,0:0:0:0:
224,160,116976,1,0,0:0:0:0:
288,224,117112,1,12,0:0:0:0:
224,160,117385,1,0,0:0:0:0:
288,160,117521,1,8,0:0:0:0:
224,160,117658,1,0,0:0:0:0:
288,160,117794,1,8,0:0:0:0:
224,160,117930,1,0,0:0:0:0:
288,160,118067,1,8,0:0:0:0:
288,224,118203,1,12,0:0:0:0:
288,160,118612,1,8,0:0:0:0:
224,160,118749,1,0,0:0:0:0:
224,160,119021,1,0,0:0:0:0:
288,160,119158,1,8,0:0:0:0:
288,224,119294,1,12,0:0:0:0:
288,160,119703,1,8,0:0:0:0:
224,160,119839,1,0,0:0:0:0:
224,160,120112,1,0,0:0:0:0:
288,160,120249,1,8,0:0:0:0:
288,224,120385,1,12,0:0:0:0:
288,160,120794,1,8,0:0:0:0:
224,160,120930,1,0,0:0:0:0:
224,160,121203,1,0,0:0:0:0:
288,160,121339,1,8,0:0:0:0:
288,224,121476,1,12,0:0:0:0:
288,160,121885,1,8,0:0:0:0:
224,160,122021,1,0,0:0:0:0:
288,160,122158,1,8,0:0:0:0:
224,160,122294,1,0,0:0:0:0:
288,160,122430,1,8,0:0:0:0:
288,160,122567,1,8,0:0:0:0:
288,224,122703,1,12,0:0:0:0:
224,160,122976,1,0,0:0:0:0:
288,160,123249,1,8,0:0:0:0:
288,160,123385,1,8,0:0:0:0:
224,160,123521,1,0,0:0:0:0:
288,224,123658,1,12,0:0:0:0:
224,160,123930,1,0,0:0:0:0:
288,160,124067,1,8,0:0:0:0:
224,160,124203,1,0,0:0:0:0:
288,160,124339,1,8,0:0:0:0:
224,160,124408,1,0,0:0:0:0:
224,160,124476,1,0,0:0:0:0:
224,160,124544,1,0,0:0:0:0:
288,160,124612,1,8,0:0:0:0:
288,224,124749,1,12,0:0:0:0:
224,160,125021,1,0,0:0:0:0:
288,160,125158,1,8,0:0:0:0:
224,160,125294,1,0,0:0:0:0:
224,160,125362,1,0,0:0:0:0:
288,160,125430,1,8,0:0:0:0:
288,160,125567,1,8,0:0:0:0:
224,160,125703,1,0,0:0:0:0:
288,224,125839,1,12,0:0:0:0:
224,160,126112,1,0,0:0:0:0:
288,160,126249,1,8,0:0:0:0:
224,160,126385,1,0,0:0:0:0:
288,160,126521,1,8,0:0:0:0:
224,160,126658,1,0,0:0:0:0:
288,160,126726,1,8,0:0:0:0:
288,160,126794,1,8,0:0:0:0:
288,160,126930,1,8,0:0:0:0:
288,224,127067,1,12,0:0:0:0:
224,160,127203,1,0,0:0:0:0:
288,160,127339,1,8,0:0:0:0:
288,160,127612,1,8,0:0:0:0:
224,160,127749,1,0,0:0:0:0:
288,160,127885,1,8,0:0:0:0:
288,224,128021,1,12,0:0:0:0:
224,160,128294,1,0,0:0:0:0:
288,160,128430,1,8,0:0:0:0:
224,160,128567,1,0,0:0:0:0:
288,160,128703,1,8,0:0:0:0:
288,160,128771,1,8,0:0:0:0:
224,160,128839,1,0,0:0:0:0:
224,160,128908,1,0,0:0:0:0:
288,160,128976,1,8,0:0:0:0:
288,224,129112,1,12,0:0:0:0:
224,160,129385,1,0,0:0:0:0:
288,160,129521,1,8,0:0:0:0:
224,160,129658,1,0,0:0:0:0:
224,160,129726,1,0,0:0:0:0:
288,160,129794,1,8,0:0:0:0:
288,160,129930,1,8,0:0:0:0:
224,160,130067,1,0,0:0:0:0:
288,224,130203,1,12,0:0:0:0:
224,160,130476,1,0,0:0:0:0:
288,160,130612,1,8,0:0:0:0:
224,160,130749,1,0,0:0:0:0:
288,160,130885,1,8,0:0:0:0:
224,160,131021,1,0,0:0:0:0:
288,160,131158,1,8,0:0:0:0:
288,160,131294,1,8,0:0:0:0:
288,224,131430,1,12,0:0:0:0:
224,160,131567,1,0,0:0:0:0:
288,160,131703,1,8,0:0:0:0:
224,160,131839,1,0,0:0:0:0:
288,160,131976,1,8,0:0:0:0:
288,160,132112,1,8,0:0:0:0:
288,160,132249,1,8,0:0:0:0:
288,224,132385,1,12,0:0:0:0:
224,160,132658,1,0,0:0:0:0:
288,160,132794,1,8,0:0:0:0:
224,160,132930,1,0,0:0:0:0:
288,160,133067,1,8,0:0:0:0:
224,160,133135,1,0,0:0:0:0:
224,160,133203,1,0,0:0:0:0:
224,160,133271,1,0,0:0:0:0:
288,160,133339,1,8,0:0:0:0:
288,224,133476,1,12,0:0:0:0:
224,160,133612,1,0,0:0:0:0:
224,160,133749,1,0,0:0:0:0:
288,160,133885,1,8,0:0:0:0:
224,160,134021,1,0,0:0:0:0:
224,160,134089,1,0,0:0:0:0:
288,160,134158,1,8,0:0:0:0:
288,160,134294,1,8,0:0:0:0:
288,160,134430,1,8,0:0:0:0:
288,224,134567,1,12,0:0:0:0:
224,160,134839,1,0,0:0:0:0:
288,160,134976,1,8,0:0:0:0:
224,160,135112,1,0,0:0:0:0:
288,160,135249,1,8,0:0:0:0:
224,160,135385,1,0,0:0:0:0:
288,160,135521,1,8,0:0:0:0:
224,160,135658,1,0,0:0:0:0:
288,224,135794,1,12,0:0:0:0:
288,160,136067,1,8,0:0:0:0:
224,160,136203,1,0,0:0:0:0:
288,160,136339,1,8,0:0:0:0:
288,160,136476,1,8,0:0:0:0:
288,160,136612,1,8,0:0:0:0:
288,224,136749,1,12,0:0:0:0:
224,160,136885,1,0,0:0:0:0:
224,160,137021,1,0,0:0:0:0:
288,160,137158,1,8,0:0:0:0:
224,160,137294,1,0,0:0:0:0:
288,160,137430,1,8,0:0:0:0:
288,160,137567,1,8,0:0:0:0:
288,160,137703,1,8,0:0:0:0:
288,224,137839,1,12,0:0:0:0:
224,160,138112,1,0,0:0:0:0:
288,160,138249,1,8,0:0:0:0:
224,160,138385,1,0,0:0:0:0:
224,160,138453,1,0,0:0:0:0:
288,160,138521,1,8,0:0:0:0:
288,160,138658,1,8,0:0:0:0:
224,160,138794,1,0,0:0:0:0:
288,224,138930,1,12,0:0:0:0:
224,160,139203,1,0,0:0:0:0:
288,160,139339,1,8,0:0:0:0:
288,160,139476,1,8,0:0:0:0:
288,160,139612,1,8,0:0:0:0:
288,160,139749,1,8,0:0:0:0:
224,224,139885,1,4,0:0:0:0:
288,160,140158,5,8,0:0:0:0:
224,160,140226,1,0,0:0:0:0:
224,160,140294,1,0,0:0:0:0:
224,160,140362,1,0,0:0:0:0:
224,160,140430,1,0,0:0:0:0:
288,160,140567,1,8,0:0:0:0:
288,160,140635,1,8,0:0:0:0:
224,160,140703,1,0,0:0:0:0:
224,160,140771,1,0,0:0:0:0:
224,160,140839,1,0,0:0:0:0:
288,160,140976,1,8,0:0:0:0:
288,160,141044,1,8,0:0:0:0:
288,160,141112,1,8,0:0:0:0:
224,160,141180,1,0,0:0:0:0:
224,160,141249,1,0,0:0:0:0:
288,160,141385,1,8,0:0:0:0:
288,160,141453,1,8,0:0:0:0:
288,160,141521,1,8,0:0:0:0:
288,160,141589,1,8,0:0:0:0:
224,160,141658,1,0,0:0:0:0:
288,160,141794,1,8,0:0:0:0:
288,160,141862,1,8,0:0:0:0:
224,160,141930,1,0,0:0:0:0:
224,160,141999,1,0,0:0:0:0:
288,160,142067,1,8,0:0:0:0:
288,160,142135,1,8,0:0:0:0:
224,160,142203,1,0,0:0:0:0:
288,160,142339,1,8,0:0:0:0:
224,160,142408,1,0,0:0:0:0:
224,160,142476,1,0,0:0:0:0:
224,160,142544,1,0,0:0:0:0:
288,160,142612,1,8,0:0:0:0:
224,160,142680,1,0,0:0:0:0:
224,160,142749,1,0,0:0:0:0:
224,160,142817,1,0,0:0:0:0:
288,160,142885,1,8,0:0:0:0:
224,160,142953,1,0,0:0:0:0:
224,160,143021,1,0,0:0:0:0:
224,160,143089,1,0,0:0:0:0:
288,160,143158,1,8,0:0:0:0:
224,160,143226,1,0,0:0:0:0:
224,160,143294,1,0,0:0:0:0:
224,160,143362,1,0,0:0:0:0:
288,160,143430,1,8,0:0:0:0:
224,160,143567,1,0,0:0:0:0:
224,160,143635,1,0,0:0:0:0:
288,160,143703,1,8,0:0:0:0:
288,160,143771,1,8,0:0:0:0:
224,160,143839,1,0,0:0:0:0:
288,160,143976,1,8,0:0:0:0:
288,160,144249,1,8,0:0:0:0:
288,160,144521,1,8,0:0:0:0:
224,160,144589,1,0,0:0:0:0:
224,160,144658,1,0,0:0:0:0:
224,160,144726,1,0,0:0:0:0:
288,160,144794,1,8,0:0:0:0:
288,160,144930,1,8,0:0:0:0:
288,160,144999,1,8,0:0:0:0:
224,160,145067,1,0,0:0:0:0:
224,160,145135,1,0,0:0:0:0:
288,160,145203,1,8,0:0:0:0:
288,160,145271,1,8,0:0:0:0:
224,160,145339,1,0,0:0:0:0:
224,160,145408,1,0,0:0:0:0:
224,160,145476,1,0,0:0:0:0:
288,160,145612,1,8,0:0:0:0:
288,160,145680,1,8,0:0:0:0:
224,160,145749,1,0,0:0:0:0:
224,160,145817,1,0,0:0:0:0:
288,160,145885,1,8,0:0:0:0:
288,160,145953,1,8,0:0:0:0:
224,160,146021,1,0,0:0:0:0:
224,160,146089,1,0,0:0:0:0:
288,160,146158,1,8,0:0:0:0:
288,160,146226,1,8,0:0:0:0:
288,160,146294,1,8,0:0:0:0:
224,160,146430,1,0,0:0:0:0:
288,224,146703,1,12,0:0:0:0:
224,160,146839,1,0,0:0:0:0:
288,160,146976,1,8,0:0:0:0:
224,160,147044,1,0,0:0:0:0:
224,160,147112,1,0,0:0:0:0:
224,160,147180,1,0,0:0:0:0:
288,160,147249,1,8,0:0:0:0:
224,160,147317,1,0,0:0:0:0:
224,160,147385,1,0,0:0:0:0:
224,160,147453,1,0,0:0:0:0:
288,160,147521,1,8,0:0:0:0:
288,160,147589,1,8,0:0:0:0:
224,160,147658,1,0,0:0:0:0:
224,160,147726,1,0,0:0:0:0:
288,160,147794,1,8,0:0:0:0:
288,160,147862,1,8,0:0:0:0:
288,160,147930,1,8,0:0:0:0:
288,160,147999,1,8,0:0:0:0:
224,160,148067,1,0,0:0:0:0:
224,160,148135,1,0,0:0:0:0:
224,160,148203,1,0,0:0:0:0:
224,160,148271,1,0,0:0:0:0:
288,160,148339,1,8,0:0:0:0:
288,160,148408,1,8,0:0:0:0:
224,160,148476,1,0,0:0:0:0:
224,160,148544,1,0,0:0:0:0:
288,160,148612,1,8,0:0:0:0:
288,160,148885,1,8,0:0:0:0:
288,160,148953,1,8,0:0:0:0:
224,160,149021,1,0,0:0:0:0:
224,160,149089,1,0,0:0:0:0:
288,160,149158,1,8,0:0:0:0:
288,160,149430,1,8,0:0:0:0:
288,160,149703,1,8,0:0:0:0:
288,160,149771,1,8,0:0:0:0:
224,160,149839,1,0,0:0:0:0:
224,160,149908,1,0,0:0:0:0:
288,160,149976,1,8,0:0:0:0:
288,160,150249,1,8,0:0:0:0:
224,160,150385,1,0,0:0:0:0:
288,160,150521,1,8,0:0:0:0:
288,160,150658,1,8,0:0:0:0:
224,160,150930,1,0,0:0:0:0:
224,160,150999,1,0,0:0:0:0:
288,160,151067,1,8,0:0:0:0:
288,160,151135,1,8,0:0:0:0:
224,160,151203,1,0,0:0:0:0:
224,160,151271,1,0,0:0:0:0:
288,160,151339,1,8,0:0:0:0:
288,160,151408,1,8,0:0:0:0:
224,160,151476,1,0,0:0:0:0:
224,160,151544,1,0,0:0:0:0:
288,160,151612,1,8,0:0:0:0:
288,160,151680,1,8,0:0:0:0:
224,160,151749,1,0,0:0:0:0:
224,160,151817,1,0,0:0:0:0:
288,160,151885,1,8,0:0:0:0:
288,160,151953,1,8,0:0:0:0:
224,160,152021,1,0,0:0:0:0:
224,160,152089,1,0,0:0:0:0:
288,160,152158,1,8,0:0:0:0:
288,160,152430,1,8,0:0:0:0:
224,160,152567,1,0,0:0:0:0:
288,160,152703,1,8,0:0:0:0:
224,160,152839,1,0,0:0:0:0:
224,160,152976,1,0,0:0:0:0:
224,160,153112,1,0,0:0:0:0:
224,160,153180,1,0,0:0:0:0:
288,160,153249,1,8,0:0:0:0:
224,160,153521,1,0,0:0:0:0:
224,160,153589,1,0,0:0:0:0:
288,160,153658,1,8,0:0:0:0:
224,160,153930,1,0,0:0:0:0:
224,160,153999,1,0,0:0:0:0:
288,160,154067,1,8,0:0:0:0:
224,160,154203,1,0,0:0:0:0:
288,160,154339,1,8,0:0:0:0:
288,160,154408,1,8,0:0:0:0:
288,160,154476,1,8,0:0:0:0:
288,160,154749,1,8,0:0:0:0:
288,160,154817,1,8,0:0:0:0:
288,160,154885,1,8,0:0:0:0:
288,160,155158,1,8,0:0:0:0:
288,160,155226,1,8,0:0:0:0:
224,160,155294,1,0,0:0:0:0:
224,160,155430,1,0,0:0:0:0:
224,160,155499,1,0,0:0:0:0:
224,160,155567,1,0,0:0:0:0:
288,160,155703,1,8,0:0:0:0:
288,160,155771,1,8,0:0:0:0:
288,160,155839,1,8,0:0:0:0:
288,160,155976,1,8,0:0:0:0:
288,160,156044,1,8,0:0:0:0:
288,160,156112,1,8,0:0:0:0:
224,160,156249,1,0,0:0:0:0:
224,160,156317,1,0,0:0:0:0:
224,160,156385,1,0,0:0:0:0:
288,160,156521,1,8,0:0:0:0:
288,160,156794,1,8,0:0:0:0:
288,160,157067,1,8,0:0:0:0:
288,160,157203,1,8,0:0:0:0:
288,224,157612,5,12,0:0:0:0:
224,160,157885,1,0,0:0:0:0:
224,160,158158,1,0,0:0:0:0:
224,160,158430,1,0,0:0:0:0:
288,224,158703,1,12,0:0:0:0:
224,160,158976,1,0,0:0:0:0:
224,160,159249,1,0,0:0:0:0:
224,160,159521,1,0,0:0:0:0:
288,224,159794,1,12,0:0:0:0:
224,160,160067,1,0,0:0:0:0:
224,160,160339,1,0,0:0:0:0:
224,160,160612,1,0,0:0:0:0:
288,224,160885,1,12,0:0:0:0:
224,160,161158,1,0,0:0:0:0:
224,160,161430,1,0,0:0:0:0:
224,160,161703,1,0,0:0:0:0:
256,192,161976,12,0,162930,0:0:0:0:
288,160,163067,5,8,0:0:0:0:
288,160,163339,1,8,0:0:0:0:
288,160,163612,1,8,0:0:0:0:
288,160,163885,1,8,0:0:0:0:
288,224,164158,1,12,0:0:0:0:
288,160,164430,1,8,0:0:0:0:
288,160,164703,1,8,0:0:0:0:
288,160,164976,1,8,0:0:0:0:
224,224,165249,1,4,0:0:0:0:
224,224,165521,1,4,0:0:0:0:
224,224,165794,1,4,0:0:0:0:
288,160,165930,1,8,0:0:0:0:
224,224,166067,1,4,0:0:0:0:
288,224,166339,1,12,0:0:0:0:
224,160,166476,1,0,0:0:0:0:
288,160,166612,1,8,0:0:0:0:
288,160,166749,1,8,0:0:0:0:
288,160,166885,1,8,0:0:0:0:
288,160,167021,1,8,0:0:0:0:
224,160,167158,1,0,0:0:0:0:
288,160,167294,1,8,0:0:0:0:
288,160,167567,1,8,0:0:0:0:
288,160,167703,1,8,0:0:0:0:
224,160,167839,1,0,0:0:0:0:
224,160,167976,1,0,0:0:0:0:
288,160,168249,1,8,0:0:0:0:
224,160,168385,1,0,0:0:0:0:
288,224,168521,1,12,0:0:0:0:
224,160,168658,1,0,0:0:0:0:
288,160,168794,1,8,0:0:0:0:
288,160,168930,1,8,0:0:0:0:
288,160,169067,1,8,0:0:0:0:
288,160,169339,1,8,0:0:0:0:
288,160,169476,1,8,0:0:0:0:
224,160,169749,1,0,0:0:0:0:
288,160,169885,1,8,0:0:0:0:
288,160,170021,1,8,0:0:0:0:
224,160,170158,1,0,0:0:0:0:
288,160,170430,1,8,0:0:0:0:
288,224,170703,1,12,0:0:0:0:
224,160,170839,1,0,0:0:0:0:
288,160,170976,1,8,0:0:0:0:
288,160,171249,1,8,0:0:0:0:
224,160,171385,1,0,0:0:0:0:
288,160,171521,1,8,0:0:0:0:
288,160,171794,1,8,0:0:0:0:
224,160,171930,1,0,0:0:0:0:
288,160,172067,1,8,0:0:0:0:
288,160,172339,1,8,0:0:0:0:
224,160,172476,1,0,0:0:0:0:
288,160,172612,1,8,0:0:0:0:
288,224,172885,1,12,0:0:0:0:
224,160,173021,1,0,0:0:0:0:
288,160,173158,1,8,0:0:0:0:
224,160,173294,1,0,0:0:0:0:
288,160,173430,1,8,0:0:0:0:
288,160,173567,1,8,0:0:0:0:
288,160,173703,1,8,0:0:0:0:
224,160,173839,1,0,0:0:0:0:
288,160,173976,1,8,0:0:0:0:
224,160,174112,1,0,0:0:0:0:
288,160,174249,1,8,0:0:0:0:
224,160,174385,1,0,0:0:0:0:
288,160,174521,1,8,0:0:0:0:
288,160,174658,1,8,0:0:0:0:
288,224,175067,1,12,0:0:0:0:
288,160,175339,1,8,0:0:0:0:
288,160,175612,1,8,0:0:0:0:
224,160,175749,1,0,0:0:0:0:
288,160,175885,1,8,0:0:0:0:
288,160,176021,1,8,0:0:0:0:
224,160,176294,1,0,0:0:0:0:
288,160,176430,1,8,0:0:0:0:
224,160,176567,1,0,0:0:0:0:
224,160,176839,1,0,0:0:0:0:
288,160,176976,1,8,0:0:0:0:
288,160,177112,1,8,0:0:0:0:
288,160,177385,1,8,0:0:0:0:
224,160,177521,1,0,0:0:0:0:
288,160,177658,1,8,0:0:0:0:
224,160,177930,1,0,0:0:0:0:
288,160,178067,1,8,0:0:0:0:
288,160,178203,1,8,0:0:0:0:
288,160,178612,1,8,0:0:0:0:
288,160,178885,1,8,0:0:0:0:
224,160,179021,1,0,0:0:0:0:
288,160,179158,1,8,0:0:0:0:
224,160,179294,1,0,0:0:0:0:
288,224,179430,1,12,0:0:0:0:
288,160,179703,1,8,0:0:0:0:
224,160,179976,1,0,0:0:0:0:
224,160,180112,1,0,0:0:0:0:
288,160,180249,1,8,0:0:0:0:
288,160,180385,1,8,0:0:0:0:
288,160,180658,1,8,0:0:0:0:
224,160,180794,1,0,0:0:0:0:
288,160,180930,1,8,0:0:0:0:
224,160,181203,1,0,0:0:0:0:
288,160,181339,1,8,0:0:0:0:
288,160,181476,1,8,0:0:0:0:
288,160,181749,1,8,0:0:0:0:
224,160,181885,1,0,0:0:0:0:
288,160,182021,1,8,0:0:0:0:
224,160,182294,1,0,0:0:0:0:
288,160,182430,1,8,0:0:0:0:
288,160,182567,1,8,0:0:0:0:
288,160,182839,1,8,0:0:0:0:
288,160,182976,1,8,0:0:0:0:
224,160,183112,1,0,0:0:0:0:
288,160,183249,1,8,0:0:0:0:
224,160,183385,1,0,0:0:0:0:
288,160,183521,1,8,0:0:0:0:
224,160,183658,1,0,0:0:0:0:
288,224,183794,1,12,0:0:0:0:
224,160,184067,1,0,0:0:0:0:
224,160,184339,1,0,0:0:0:0:
288,160,184476,1,8,0:0:0:0:
288,160,184612,1,8,0:0:0:0:
288,160,184749,1,8,0:0:0:0:
288,160,185021,1,8,0:0:0:0:
224,160,185158,1,0,0:0:0:0:
288,160,185294,1,8,0:0:0:0:
224,160,185567,1,0,0:0:0:0:
288,160,185703,1,8,0:0:0:0:
288,160,185839,1,8,0:0:0:0:
288,160,186112,1,8,0:0:0:0:
224,160,186249,1,0,0:0:0:0:
288,160,186385,1,8,0:0:0:0:
224,160,186658,1,0,0:0:0:0:
224,160,186794,1,0,0:0:0:0:
288,160,186930,1,8,0:0:0:0:
288,160,187203,1,8,0:0:0:0:
288,160,187339,1,8,0:0:0:0:
224,160,187476,1,0,0:0:0:0:
288,160,187612,1,8,0:0:0:0:
224,160,187749,1,0,0:0:0:0:
288,160,187885,1,8,0:0:0:0:
224,160,188021,1,0,0:0:0:0:
288,224,188158,1,12,0:0:0:0:
224,160,188430,1,0,0:0:0:0:
224,160,188703,1,0,0:0:0:0:
288,160,188839,1,8,0:0:0:0:
288,160,188976,1,8,0:0:0:0:
288,160,189112,1,8,0:0:0:0:
288,160,189385,1,8,0:0:0:0:
224,160,189521,1,0,0:0:0:0:
288,160,189658,1,8,0:0:0:0:
224,160,189930,1,0,0:0:0:0:
288,160,190067,1,8,0:0:0:0:
288,160,190203,1,8,0:0:0:0:
288,160,190476,1,8,0:0:0:0:
224,160,190612,1,0,0:0:0:0:
288,160,190749,1,8,0:0:0:0:
224,160,191021,1,0,0:0:0:0:
224,160,191158,1,0,0:0:0:0:
288,224,191294,1,12,0:0:0:0:
224,224,192521,5,4,0:0:0:0:
288,224,192794,1,12,0:0:0:0:
224,160,192930,1,0,0:0:0:0:
224,160,193067,1,0,0:0:0:0:
288,160,193203,1,8,0:0:0:0:
288,160,193339,1,8,0:0:0:0:
288,160,193476,1,8,0:0:0:0:
224,160,193749,1,0,0:0:0:0:
288,160,193885,1,8,0:0:0:0:
288,160,194021,1,8,0:0:0:0:
224,160,194158,1,0,0:0:0:0:
288,160,194294,1,8,0:0:0:0:
224,160,194430,1,0,0:0:0:0:
288,160,194567,1,8,0:0:0:0:
224,160,194839,1,0,0:0:0:0:
288,160,194976,1,8,0:0:0:0:
224,160,195112,1,0,0:0:0:0:
224,160,195249,1,0,0:0:0:0:
224,160,195385,1,0,0:0:0:0:
288,160,195521,1,8,0:0:0:0:
288,160,195658,1,8,0:0:0:0:
288,160,195930,1,8,0:0:0:0:
288,160,196067,1,8,0:0:0:0:
224,160,196203,1,0,0:0:0:0:
224,160,196271,1,0,0:0:0:0:
288,160,196339,1,8,0:0:0:0:
224,160,196476,1,0,0:0:0:0:
288,160,196612,1,8,0:0:0:0:
288,160,196749,1,8,0:0:0:0:
224,224,196885,1,4,0:0:0:0:
288,224,197158,1,12,0:0:0:0:
224,160,197294,1,0,0:0:0:0:
288,160,197430,1,8,0:0:0:0:
288,160,197567,1,8,0:0:0:0:
288,160,197703,1,8,0:0:0:0:
288,160,197839,1,8,0:0:0:0:
288,160,198112,1,8,0:0:0:0:
224,160,198249,1,0,0:0:0:0:
288,160,198385,1,8,0:0:0:0:
224,160,198521,1,0,0:0:0:0:
288,160,198658,1,8,0:0:0:0:
288,160,198794,1,8,0:0:0:0:
288,160,198930,1,8,0:0:0:0:
288,160,199203,1,8,0:0:0:0:
224,160,199339,1,0,0:0:0:0:
288,160,199476,1,8,0:0:0:0:
224,160,199612,1,0,0:0:0:0:
224,160,199749,1,0,0:0:0:0:
288,160,199885,1,8,0:0:0:0:
288,160,200021,1,8,0:0:0:0:
224,160,200294,1,0,0:0:0:0:
288,160,200430,1,8,0:0:0:0:
288,160,200567,1,8,0:0:0:0:
288,160,200635,1,8,0:0:0:0:
224,160,200703,1,0,0:0:0:0:
288,160,200839,1,8,0:0:0:0:
288,160,200976,1,8,0:0:0:0:
224,160,201112,1,0,0:0:0:0:
288,224,201249,1,12,0:0:0:0:
288,224,201521,1,12,0:0:0:0:
224,160,201658,1,0,0:0:0:0:
224,160,201794,1,0,0:0:0:0:
224,160,201930,1,0,0:0:0:0:
288,160,202067,1,8,0:0:0:0:
224,160,202203,1,0,0:0:0:0:
224,160,202476,1,0,0:0:0:0:
288,160,202612,1,8,0:0:0:0:
288,160,202749,1,8,0:0:0:0:
224,160,202885,1,0,0:0:0:0:
288,160,203021,1,8,0:0:0:0:
224,160,203158,1,0,0:0:0:0:
288,160,203294,1,8,0:0:0:0:
288,160,203567,1,8,0:0:0:0:
288,160,203703,1,8,0:0:0:0:
224,160,203839,1,0,0:0:0:0:
224,160,203976,1,0,0:0:0:0:
288,160,204112,1,8,0:0:0:0:
224,160,204249,1,0,0:0:0:0:
288,160,204385,1,8,0:0:0:0:
224,160,204658,1,0,0:0:0:0:
288,160,204794,1,8,0:0:0:0:
224,160,204930,1,0,0:0:0:0:
224,160,204999,1,0,0:0:0:0:
288,160,205067,1,8,0:0:0:0:
224,160,205203,1,0,0:0:0:0:
288,160,205339,1,8,0:0:0:0:
224,160,205476,1,0,0:0:0:0:
288,224,205612,1,12,0:0:0:0:
288,224,205885,1,12,0:0:0:0:
224,160,206021,1,0,0:0:0:0:
224,160,206158,1,0,0:0:0:0:
224,160,206294,1,0,0:0:0:0:
288,160,206430,1,8,0:0:0:0:
288,160,206567,1,8,0:0:0:0:
224,160,206839,1,0,0:0:0:0:
288,160,206976,1,8,0:0:0:0:
288,160,207112,1,8,0:0:0:0:
224,160,207249,1,0,0:0:0:0:
288,160,207385,1,8,0:0:0:0:
224,160,207521,1,0,0:0:0:0:
288,160,207658,1,8,0:0:0:0:
288,160,207930,1,8,0:0:0:0:
224,160,208067,1,0,0:0:0:0:
288,160,208203,1,8,0:0:0:0:
224,160,208339,1,0,0:0:0:0:
224,160,208476,1,0,0:0:0:0:
288,160,208612,1,8,0:0:0:0:
288,160,208749,1,8,0:0:0:0:
224,160,209021,1,0,0:0:0:0:
288,160,209158,1,8,0:0:0:0:
288,160,209294,1,8,0:0:0:0:
224,160,209430,1,0,0:0:0:0:
288,160,209703,1,8,0:0:0:0:
288,224,209976,5,12,0:0:0:0:
224,160,210112,1,0,0:0:0:0:
288,160,210249,1,8,0:0:0:0:
288,160,210385,1,8,0:0:0:0:
288,160,210658,1,8,0:0:0:0:
224,160,210794,1,0,0:0:0:0:
288,224,210930,1,12,0:0:0:0:
288,160,211203,1,8,0:0:0:0:
224,160,211339,1,0,0:0:0:0:
288,160,211476,1,8,0:0:0:0:
288,160,211749,1,8,0:0:0:0:
224,160,211885,1,0,0:0:0:0:
288,224,212021,1,12,0:0:0:0:
288,160,212294,1,8,0:0:0:0:
224,160,212430,1,0,0:0:0:0:
288,160,212567,1,8,0:0:0:0:
288,160,212839,1,8,0:0:0:0:
224,160,212976,1,0,0:0:0:0:
288,224,213112,1,12,0:0:0:0:
224,160,213385,1,0,0:0:0:0:
288,160,213521,1,8,0:0:0:0:
224,160,213658,1,0,0:0:0:0:
288,160,213794,1,8,0:0:0:0:
224,160,213930,1,0,0:0:0:0:
288,160,214067,1,8,0:0:0:0:
288,224,214203,1,12,0:0:0:0:
288,160,214612,1,8,0:0:0:0:
224,160,214749,1,0,0:0:0:0:
224,160,215021,1,0,0:0:0:0:
288,160,215158,1,8,0:0:0:0:
288,224,215294,1,12,0:0:0:0:
288,160,215703,1,8,0:0:0:0:
224,160,215839,1,0,0:0:0:0:
224,160,216112,1,0,0:0:0:0:
288,160,216249,1,8,0:0:0:0:
288,224,216385,1,12,0:0:0:0:
288,160,216794,1,8,0:0:0:0:
224,160,216930,1,0,0:0:0:0:
224,160,217203,1,0,0:0:0:0:
288,160,217339,1,8,0:0:0:0:
288,224,217476,1,12,0:0:0:0:
288,160,217885,1,8,0:0:0:0:
224,160,218021,1,0,0:0:0:0:
288,160,218158,1,8,0:0:0:0:
224,160,218294,1,0,0:0:0:0:
288,160,218430,1,8,0:0:0:0:
288,160,218567,1,8,0:0:0:0:
288,224,218703,1,12,0:0:0:0:
224,160,218839,1,0,0:0:0:0:
288,160,218976,1,8,0:0:0:0:
288,160,219112,1,8,0:0:0:0:
288,160,219385,1,8,0:0:0:0:
224,160,219521,1,0,0:0:0:0:
288,160,219658,1,8,0:0:0:0:
224,160,219794,1,0,0:0:0:0:
288,160,219930,1,8,0:0:0:0:
224,160,220067,1,0,0:0:0:0:
288,160,220203,1,8,0:0:0:0:
288,160,220476,1,8,0:0:0:0:
224,160,220612,1,0,0:0:0:0:
224,160,220680,1,0,0:0:0:0:
288,160,220749,1,8,0:0:0:0:
288,224,220885,1,12,0:0:0:0:
224,160,221021,1,0,0:0:0:0:
224,160,221158,1,0,0:0:0:0:
288,160,221294,1,8,0:0:0:0:
288,160,221567,1,8,0:0:0:0:
224,160,221703,1,0,0:0:0:0:
288,160,221839,1,8,0:0:0:0:
224,160,221976,1,0,0:0:0:0:
224,160,222112,1,0,0:0:0:0:
288,160,222249,1,8,0:0:0:0:
288,160,222385,1,8,0:0:0:0:
224,160,222521,1,0,0:0:0:0:
224,160,222658,1,0,0:0:0:0:
288,160,222794,1,8,0:0:0:0:
288,160,222930,1,8,0:0:0:0:
288,224,223067,1,12,0:0:0:0:
288,160,223339,1,8,0:0:0:0:
288,160,223476,1,8,0:0:0:0:
224,160,223612,1,0,0:0:0:0:
288,160,223749,1,8,0:0:0:0:
224,160,223885,1,0,0:0:0:0:
288,160,224021,1,8,0:0:0:0:
224,160,224294,1,0,0:0:0:0:
224,160,224430,1,0,0:0:0:0:
288,160,224567,1,8,0:0:0:0:
224,160,224703,1,0,0:0:0:0:
288,160,224839,1,8,0:0:0:0:
224,160,224976,1,0,0:0:0:0:
224,160,225044,1,0,0:0:0:0:
288,160,225112,1,8,0:0:0:0:
224,224,225249,1,4,0:0:0:0:
224,160,225521,1,0,0:0:0:0:
288,160,225658,1,8,0:0:0:0:
224,160,225794,1,0,0:0:0:0:
288,160,225930,1,8,0:0:0:0:
224,160,226067,1,0,0:0:0:0:
288,160,226203,1,8,0:0:0:0:
224,160,226339,1,0,0:0:0:0:
224,160,226476,1,0,0:0:0:0:
288,160,226612,1,8,0:0:0:0:
224,160,226749,1,0,0:0:0:0:
288,224,226885,1,12,0:0:0:0:
288,224,227021,1,12,0:0:0:0:
224,224,227158,1,4,0:0:0:0:
288,224,227294,1,12,0:0:0:0:
