osu file format v14

[General]
AudioFilename: Give me Chocolate .mp3
AudioLeadIn: 0
PreviewTime: 52885
Countdown: 0
SampleSet: Soft
StackLeniency: 0.7
Mode: 0
LetterboxInBreaks: 0
EpilepsyWarning: 1
WidescreenStoryboard: 1

[Editor]
Bookmarks: 35430,140158
DistanceSpacing: 1.4
BeatDivisor: 4
GridSize: 4
TimelineZoom: 1.6

[Metadata]
Title:Gimme Chocolate!!
TitleUnicode:ギミチョコ!!
Artist:BABYMETAL
ArtistUnicode:BABYMETAL
Creator:Rad-
Version:Extreme
Source:
Tags:J-metal idol rock loli kitsune give me ilikecheese defused bomb nwolf
BeatmapID:922600
BeatmapSetID:162368

[Difficulty]
HPDrainRate:6.8
CircleSize:4.2
OverallDifficulty:9
ApproachRate:9.6
SliderMultiplier:1.8
SliderTickRate:2

[Events]
//Background and Video events
0,0,"babymetal.jpg",0,0
Video,0,"gimme.flv"
//Break Periods
//Storyboard Layer 0 (Background)
//Storyboard Layer 1 (Fail)
//Storyboard Layer 2 (Pass)
//Storyboard Layer 3 (Foreground)
//Storyboard Sound Samples

[TimingPoints]
9249,272.727272727273,4,2,1,90,1,0
51794,-66.6666666666667,4,2,1,90,0,0
52339,-142.857142857143,4,2,1,90,0,0
52885,-90.9090909090909,4,2,1,95,0,1
53090,-90.9090909090909,4,2,1,25,0,1
53158,-90.9090909090909,4,2,1,95,0,1
57453,-90.9090909090909,4,2,1,25,0,1
57521,-90.9090909090909,4,2,1,95,0,1
61817,-90.9090909090909,4,2,1,25,0,1
61885,-90.9090909090909,4,2,1,95,0,1
66180,-90.9090909090909,4,2,1,25,0,1
66249,-90.9090909090909,4,2,1,95,0,1
69794,-100,4,2,0,75,0,0
70339,-100,4,2,1,90,0,0
95976,-142.857142857143,4,2,1,90,0,0
96521,-90.9090909090909,4,2,1,95,0,1
96726,-90.9090909090909,4,2,1,25,0,1
96794,-90.9090909090909,4,2,1,95,0,1
101089,-90.9090909090909,4,2,1,25,0,1
101158,-90.9090909090909,4,2,1,95,0,1
105453,-90.9090909090909,4,2,1,25,0,1
105521,-90.9090909090909,4,2,1,95,0,1
109817,-90.9090909090909,4,2,1,25,0,1
109885,-90.9090909090909,4,2,1,95,0,1
113976,-100,4,2,1,90,0,0
140158,-100,4,2,2,75,0,0
143567,-133.333333333333,4,2,2,75,0,0
144521,-100,4,2,2,75,0,0
148749,-90.9090909090909,4,2,2,75,0,0
148885,-100,4,2,2,75,0,0
152158,-133.333333333333,4,2,2,75,0,0
153249,-100,4,2,2,75,0,0
155294,-83.3333333333333,4,2,2,75,0,0
155430,-100,4,2,2,75,0,0
156521,-125,4,2,2,75,0,0
157067,-142.857142857143,4,2,2,75,0,0
157476,-125,4,2,2,20,0,0
157612,-125,4,2,2,75,0,0
158703,-111.111111111111,4,2,2,75,0,0
159794,-100,4,2,2,75,0,0
160885,-90.9090909090909,4,2,2,75,0,0
161976,-125,4,2,2,20,0,0
164021,-100,4,2,2,20,0,0
164158,-100,4,2,2,75,0,0
165249,-100,4,2,1,90,0,0
174658,-142.857142857143,4,2,1,90,0,0
175067,-166.666666666667,4,2,1,65,0,0
183794,-125,4,2,1,90,0,0
192521,-90.9090909090909,4,2,1,95,0,1
192726,-90.9090909090909,4,2,1,25,0,1
192794,-90.9090909090909,4,2,1,95,0,1
197089,-90.9090909090909,4,2,1,25,0,1
197158,-90.9090909090909,4,2,1,95,0,1
201453,-90.9090909090909,4,2,1,25,0,1
201521,-90.9090909090909,4,2,1,95,0,1
205817,-90.9090909090909,4,2,1,25,0,1
205885,-90.9090909090909,4,2,1,95,0,1
209430,-125,4,2,1,95,0,1
209976,-100,4,2,1,90,0,0

[Colours]
Combo1 : 148,148,148
Combo2 : 0,0,193
Combo3 : 255,0,0

[HitObjects]
352,236,9249,6,0,B|344:192|344:192|317:155,1,90,4|0,0:0|0:0,0:0:0:0:
148,28,9521,1,0,0:0:0:0:
360,56,9658,1,0,0:0:0:0:
216,184,9794,1,0,0:0:0:0:
48,16,9930,1,0,0:0:0:0:
232,88,10067,1,0,0:0:0:0:
112,215,10203,6,0,P|29:189|2:107,1,180,4|0,0:0|0:0,0:0:0:0:
216,88,10612,1,0,0:0:0:0:
104,0,10749,1,0,0:0:0:0:
184,188,10885,1,0,0:0:0:0:
208,224,10953,1,0,0:0:0:0:
244,248,11021,1,0,0:0:0:0:
288,260,11089,1,0,0:0:0:0:
332,252,11158,1,0,0:0:0:0:
195,87,11294,6,0,P|113:117|83:199,1,180,4|0,0:0|0:0,0:0:0:0:
200,348,11703,2,0,B|256:348|256:348|285:331,1,90,0|0,0:0|0:0,0:0:0:0:
300,316,11908,1,0,0:0:0:0:
312,296,11976,1,0,0:0:0:0:
300,120,12112,1,0,0:0:0:0:
232,264,12249,1,0,0:0:0:0:
184,67,12385,6,0,B|214:56|216:28|216:28|236:44|260:48|260:48|296:16|331:28,1,180,4|0,0:0|0:0,0:0:0:0:
472,72,12794,1,0,0:0:0:0:
448,268,12930,1,0,0:0:0:0:
376,104,13067,1,0,0:0:0:0:
336,300,13203,1,0,0:0:0:0:
268,136,13339,1,0,0:0:0:0:
228,324,13476,1,0,0:0:0:0:
71,183,13612,6,0,P|72:139|96:101,1,90,4|0,0:0|0:0,0:0:0:0:
280,36,13885,1,0,0:0:0:0:
144,160,14021,1,0,0:0:0:0:
384,240,14158,2,0,L|334:165,1,90,0|0,0:0|0:0,0:0:0:0:
200,8,14430,1,0,0:0:0:0:
75,110,14567,6,0,B|48:138|48:138|108:214|25:250,1,180,4|0,0:0|0:0,0:0:0:0:
232,316,14976,1,0,0:0:0:0:
25,250,15112,1,0,0:0:0:0:
256,163,15249,1,0,0:0:0:0:
290,133,15317,1,0,0:0:0:0:
333,122,15385,1,0,0:0:0:0:
376,133,15453,1,0,0:0:0:0:
410,163,15521,1,0,0:0:0:0:
102,163,15658,6,0,P|179:122|256:163,1,180,4|0,0:0|0:0,0:0:0:0:
336,316,16067,1,0,0:0:0:0:
180,212,16203,1,0,0:0:0:0:
180,168,16271,1,0,0:0:0:0:
180,124,16339,1,0,0:0:0:0:
332,80,16476,1,0,0:0:0:0:
180,36,16612,1,0,0:0:0:0:
303,4,16749,6,0,P|384:35|401:119,1,180,4|0,0:0|0:0,0:0:0:0:
188,284,17158,2,0,L|245:214,1,90,0|0,0:0|0:0,0:0:0:0:
384,36,17430,1,0,0:0:0:0:
152,32,17567,1,0,0:0:0:0:
372,188,17703,2,0,B|328:188|328:188|291:160,1,90,0|0,0:0|0:0,0:0:0:0:
152,32,17976,5,4,0:0:0:0:
24,216,18112,1,0,0:0:0:0:
288,84,18249,1,0,0:0:0:0:
28,80,18385,1,0,0:0:0:0:
152,256,18521,1,0,0:0:0:0:
232,24,18658,1,0,0:0:0:0:
100,192,18794,1,0,0:0:0:0:
304,192,18930,6,0,L|484:192,1,180,4|0,0:0|0:0,0:0:0:0:
288,40,19339,2,0,B|312:80|312:80|345:107,1,90,0|0,0:0|0:0,0:0:0:0:
482,274,19612,1,0,0:0:0:0:
467,316,19680,1,0,0:0:0:0:
436,348,19749,1,0,0:0:0:0:
394,364,19817,1,0,0:0:0:0:
350,362,19885,1,0,0:0:0:0:
160,324,20021,6,0,P|120:246|155:167,1,180,4|0,0:0|0:0,0:0:0:0:
368,48,20430,1,0,0:0:0:0:
176,48,20567,1,0,0:0:0:0:
132,48,20635,1,0,0:0:0:0:
88,48,20703,1,0,0:0:0:0:
35,201,20839,1,0,0:0:0:0:
192,244,20976,1,0,0:0:0:0:
253,93,21112,6,0,B|228:56|176:48|176:48|88:48,1,180,4|0,0:0|0:0,0:0:0:0:
8,132,21521,2,0,L|98:132,1,90,0|0,0:0|0:0,0:0:0:0:
332,160,21794,1,0,0:0:0:0:
172,312,21930,1,0,0:0:0:0:
196,152,22067,1,0,0:0:0:0:
280,364,22203,1,0,0:0:0:0:
100,176,22339,6,0,B|100:132|100:132|119:90,1,90,4|0,0:0|0:0,0:0:0:0:
300,8,22612,1,0,0:0:0:0:
260,212,22749,1,0,0:0:0:0:
184,64,22885,1,0,0:0:0:0:
388,24,23021,1,0,0:0:0:0:
112,28,23158,1,0,0:0:0:0:
308,140,23294,6,0,B|380:192|380:192|444:192|444:192|444:164,1,180,4|0,0:0|0:0,0:0:0:0:
296,56,23703,1,0,0:0:0:0:
260,212,23839,1,0,0:0:0:0:
352,308,23976,1,0,0:0:0:0:
316,336,24044,1,0,0:0:0:0:
276,352,24112,1,0,0:0:0:0:
232,352,24180,1,0,0:0:0:0:
192,332,24249,1,0,0:0:0:0:
64,165,24385,6,0,B|44:116|44:116|113:105|111:24,1,180,4|0,0:0|0:0,0:0:0:0:
28,36,24794,1,0,0:0:0:0:
184,164,24930,1,0,0:0:0:0:
216,196,24999,1,0,0:0:0:0:
260,212,25067,1,0,0:0:0:0:
452,164,25203,1,0,0:0:0:0:
296,56,25339,1,0,0:0:0:0:
84,140,25476,6,0,B|121:111|128:64|128:64|172:84|216:74,1,180,4|0,0:0|0:0,0:0:0:0:
416,96,25885,1,0,0:0:0:0:
384,328,26021,1,0,0:0:0:0:
324,132,26158,1,0,0:0:0:0:
204,324,26294,1,0,0:0:0:0:
232,164,26430,1,0,0:0:0:0:
48,284,26567,1,0,0:0:0:0:
264,92,26703,6,0,B|296:64|296:64|343:64,1,90,4|0,0:0|0:0,0:0:0:0:
133,210,26976,2,0,B|97:182|97:182|83:139,1,90,0|0,0:0|0:0,0:0:0:0:
360,180,27249,1,0,0:0:0:0:
204,324,27385,1,0,0:0:0:0:
188,96,27521,1,0,0:0:0:0:
276,284,27658,6,0,B|320:312|320:312|380:288|452:320,1,180,4|0,0:0|0:0,0:0:0:0:
320,92,28067,1,0,0:0:0:0:
166,230,28203,1,0,0:0:0:0:
360,304,28339,1,0,0:0:0:0:
400,280,28408,1,0,0:0:0:0:
424,244,28476,1,0,0:0:0:0:
440,204,28544,1,0,0:0:0:0:
440,160,28612,1,0,0:0:0:0:
392,44,28749,6,0,B|352:76|352:76|352:156|352:156|321:194,1,180,4|0,0:0|0:0,0:0:0:0:
140,288,29158,2,0,P|101:268|80:229,1,90,0|0,0:0|0:0,0:0:0:0:
69,185,29362,1,0,0:0:0:0:
77,141,29430,1,0,0:0:0:0:
324,120,29567,1,0,0:0:0:0:
132,0,29703,1,0,0:0:0:0:
239,207,29839,6,0,P|305:267|393:268,1,180,4|0,0:0|0:0,0:0:0:0:
480,104,30249,1,0,0:0:0:0:
393,268,30385,1,0,0:0:0:0:
404,68,30521,1,0,0:0:0:0:
192,140,30658,1,0,0:0:0:0:
472,28,30794,1,0,0:0:0:0:
328,204,30930,1,0,0:0:0:0:
152,108,31067,6,0,P|119:77|108:34,1,90,4|0,0:0|0:0,0:0:0:0:
363,235,31339,2,0,P|396:266|406:309,1,90,0|0,0:0|0:0,0:0:0:0:
180,344,31612,1,0,0:0:0:0:
276,100,31749,1,0,0:0:0:0:
112,268,31885,1,0,0:0:0:0:
347,168,32021,6,0,P|370:83|326:8,1,180,4|0,0:0|0:0,0:0:0:0:
292,260,32430,1,0,0:0:0:0:
76,176,32567,1,0,0:0:0:0:
276,100,32703,1,0,0:0:0:0:
316,76,32771,1,0,0:0:0:0:
360,72,32839,1,0,0:0:0:0:
400,92,32908,1,0,0:0:0:0:
432,124,32976,1,0,0:0:0:0:
432,348,33112,6,0,B|432:276|496:276|496:276|496:206,1,180,4|0,0:0|0:0,0:0:0:0:
448,28,33521,1,0,0:0:0:0:
344,164,33658,1,0,0:0:0:0:
320,200,33726,1,0,0:0:0:0:
296,236,33794,1,0,0:0:0:0:
68,224,33930,1,0,0:0:0:0:
292,244,34067,1,0,0:0:0:0:
68,210,34203,6,0,B|68:156|68:156|20:92|79:47,1,180,4|0,0:0|0:0,0:0:0:0:
288,116,34612,2,0,L|238:190,1,90,0|0,0:0|0:0,0:0:0:0:
136,332,34885,5,2,0:0:0:0:
440,252,35021,1,0,0:0:0:0:
156,124,35158,1,2,0:0:0:0:
324,376,35294,1,0,0:0:0:0:
344,64,35430,6,0,B|380:32|380:32|421:24,1,90,4|0,0:0|0:0,0:0:0:0:
312,208,35703,1,0,0:0:0:0:
140,180,35839,1,0,0:0:0:0:
268,100,35976,1,0,0:0:0:0:
216,260,36112,1,0,0:0:0:0:
72,100,36249,1,0,0:0:0:0:
256,24,36385,1,0,0:0:0:0:
440,100,36521,6,0,B|464:140|464:140|464:183,1,90,0|0,0:0|0:0,0:0:0:0:
312,208,36794,2,0,B|288:168|288:168|288:124,2,90
216,260,37203,2,0,B|204:305|204:305|223:343,1,90,0|0,0:0|0:0,0:0:0:0:
408,344,37476,1,0,0:0:0:0:
428,292,37544,1,0,0:0:0:0:
432,239,37612,6,0,P|428:195|407:155,1,90,4|0,0:0|0:0,0:0:0:0:
184,72,37885,1,0,0:0:0:0:
343,109,38021,1,0,0:0:0:0:
122,141,38158,1,0,0:0:0:0:
278,19,38294,1,0,0:0:0:0:
256,209,38430,1,0,0:0:0:0:
97,55,38567,1,0,0:0:0:0:
4,184,38703,6,0,B|12:232|12:232|40:262,1,90,0|0,0:0|0:0,0:0:0:0:
200,344,38976,1,0,0:0:0:0:
336,260,39112,1,0,0:0:0:0:
200,344,39249,1,0,0:0:0:0:
367,239,39385,1,0,0:0:0:0:
200,344,39521,1,0,0:0:0:0:
403,218,39658,1,0,0:0:0:0:
184,356,39794,6,0,B|152:368|152:368|96:368,1,90,4|0,0:0|0:0,0:0:0:0:
212,160,40067,2,0,P|242:192|254:235,1,90,0|0,0:0|0:0,0:0:0:0:
100,96,40339,1,0,0:0:0:0:
328,84,40476,1,0,0:0:0:0:
212,0,40612,1,0,0:0:0:0:
180,232,40749,1,0,0:0:0:0:
388,140,40885,5,0,0:0:0:0:
212,160,41021,1,0,0:0:0:0:
388,268,41158,2,0,B|436:308|436:308|436:335,1,90,0|0,0:0|0:0,0:0:0:0:
492,208,41430,1,0,0:0:0:0:
456,108,41567,2,0,B|424:76|424:76|381:62,1,90,0|0,0:0|0:0,0:0:0:0:
232,24,41839,1,0,0:0:0:0:
188,12,41908,1,0,0:0:0:0:
144,12,41976,6,0,P|99:18|62:42,1,90,4|0,0:0|0:0,0:0:0:0:
152,244,42249,2,0,B|192:264|192:264|237:264,1,90,0|0,0:0|0:0,0:0:0:0:
412,184,42521,1,0,0:0:0:0:
314,90,42658,1,0,0:0:0:0:
216,184,42794,1,0,0:0:0:0:
314,300,42930,1,0,0:0:0:0:
360,140,43067,6,0,L|414:68,1,90,2|0,0:0|0:0,0:0:0:0:
152,244,43339,2,0,L|97:315,1,90,2|0,0:0|0:0,0:0:0:0:
296,160,43612,1,2,0:0:0:0:
88,120,43749,1,0,0:0:0:0:
236,264,43885,1,2,0:0:0:0:
28,220,44021,1,0,0:0:0:0:
272,136,44158,5,4,0:0:0:0:
172,328,44294,1,0,0:0:0:0:
356,176,44430,1,0,0:0:0:0:
256,370,44567,1,0,0:0:0:0:
168,131,44703,2,0,P|181:89|209:54,1,90,0|0,0:0|0:0,0:0:0:0:
360,8,44976,1,0,0:0:0:0:
431,240,45112,2,0,P|394:264|350:273,1,90,0|0,0:0|0:0,0:0:0:0:
112,256,45385,1,0,0:0:0:0:
356,176,45521,1,0,0:0:0:0:
256,370,45658,1,0,0:0:0:0:
180,92,45794,2,0,B|144:56|144:56|105:48,1,90,0|0,0:0|0:0,0:0:0:0:
376,240,46067,2,0,L|416:159,1,90,0|0,0:0|0:0,0:0:0:0:
432,118,46271,1,0,0:0:0:0:
448,76,46339,5,4,0:0:0:0:
116,68,46476,1,0,0:0:0:0:
472,28,46612,1,0,0:0:0:0:
88,28,46749,1,0,0:0:0:0:
280,192,46885,2,0,P|314:220|329:262,1,90,0|0,0:0|0:0,0:0:0:0:
200,384,47158,1,0,0:0:0:0:
204,159,47294,2,0,P|231:125|273:109,1,90,0|0,0:0|0:0,0:0:0:0:
480,192,47567,1,0,0:0:0:0:
273,360,47703,1,0,0:0:0:0:
273,109,47839,1,0,0:0:0:0:
372,272,47976,2,0,B|400:308|400:308|442:321,1,90,0|0,0:0|0:0,0:0:0:0:
339,82,48249,2,0,B|320:36|269:36,1,90,0|0,0:0|0:0,0:0:0:0:
132,112,48521,5,4,0:0:0:0:
84,296,48658,1,0,0:0:0:0:
228,208,48794,1,0,0:0:0:0:
28,136,48930,1,0,0:0:0:0:
228,64,49067,5,0,0:0:0:0:
124,208,49203,1,0,0:0:0:0:
50,52,49339,1,0,0:0:0:0:
184,144,49476,1,0,0:0:0:0:
160,304,49612,5,0,0:0:0:0:
340,304,49749,1,0,0:0:0:0:
272,120,49885,1,0,0:0:0:0:
248,280,50021,1,0,0:0:0:0:
108,128,50158,5,0,0:0:0:0:
296,212,50294,1,0,0:0:0:0:
236,24,50430,1,0,0:0:0:0:
120,200,50567,5,0,0:0:0:0:
100,240,50635,1,0,0:0:0:0:
100,284,50703,2,0,P|114:327|151:360,1,90,4|0,0:0|0:0,0:0:0:0:
251,87,50976,1,0,0:0:0:0:
404,272,51112,1,0,0:0:0:0:
224,66,51249,1,0,0:0:0:0:
352,324,51385,1,0,0:0:0:0:
192,41,51521,1,0,0:0:0:0:
300,376,51657,1,0,0:0:0:0:
108,40,51794,5,0,0:0:0:0:
420,300,51930,1,0,0:0:0:0:
52,220,52067,1,0,0:0:0:0:
408,84,52203,1,0,0:0:0:0:
212,376,52339,1,0,0:0:0:0:
195,40,52476,6,0,P|256:24|315:42,1,125.999996154785
467,155,52885,6,0,P|499:221|481:292,1,148.50000453186,4|0,0:0|0:0,0:0:0:0:
464,320,53158,2,0,B|428:352|428:352|377:352,1,99.0000030212403,8|0,0:0|0:0,0:0:0:0:
208,260,53430,1,0,0:0:0:0:
335,140,53567,1,0,0:0:0:0:
168,96,53703,1,8,0:0:0:0:
155,327,53839,6,0,P|128:287|127:238,1,99.0000030212403,4|0,0:0|0:0,0:0:0:0:
224,40,54112,1,0,0:0:0:0:
104,144,54249,2,0,P|144:170|193:171,1,99.0000030212403,8|0,0:0|0:0,0:0:0:0:
376,48,54521,1,0,0:0:0:0:
308,244,54658,1,0,0:0:0:0:
252,116,54794,1,8,0:0:0:0:
468,172,54930,6,0,B|476:224|476:224|471:270,1,99.0000030212403,4|0,0:0|0:0,0:0:0:0:
452,368,55203,1,0,0:0:0:0:
391,144,55339,2,0,P|422:105|468:90,1,99.0000030212403,8|0,0:0|0:0,0:0:0:0:
200,200,55612,1,0,0:0:0:0:
412,272,55749,1,0,0:0:0:0:
280,20,55885,1,8,0:0:0:0:
127,160,56021,6,0,P|123:209|137:256,1,99.0000030212403,4|0,0:0|0:0,0:0:0:0:
456,187,56294,2,0,P|460:138|447:91,1,99.0000030212403,0|8,0:0|0:0,0:0:0:0:
144,44,56567,1,0,0:0:0:0:
296,172,56703,2,0,B|336:208|336:208|381:208,1,99.0000030212403,0|0,0:0|0:0,0:0:0:0:
144,280,56976,1,8,0:0:0:0:
204,100,57112,1,0,0:0:0:0:
331,315,57249,6,0,P|395:351|467:340,1,148.50000453186,4|0,0:0|0:0,0:0:0:0:
488,312,57521,2,0,L|488:213,1,99.0000030212403,8|0,0:0|0:0,0:0:0:0:
432,64,57794,1,0,0:0:0:0:
384,232,57930,1,0,0:0:0:0:
312,56,58067,1,8,0:0:0:0:
268,228,58203,6,0,B|220:244|220:244|172:232,1,99.0000030212403,4|0,0:0|0:0,0:0:0:0:
217,60,58476,2,0,B|265:44|265:44|313:56,1,99.0000030212403,0|8,0:0|0:0,0:0:0:0:
392,168,58749,1,0,0:0:0:0:
152,304,58885,1,0,0:0:0:0:
328,312,59021,1,0,0:0:0:0:
232,160,59158,1,8,0:0:0:0:
36,176,59294,6,0,B|12:132|12:132|12:83,1,99.0000030212403,4|0,0:0|0:0,0:0:0:0:
192,88,59567,1,0,0:0:0:0:
84,252,59703,2,0,L|27:333,1,99.0000030212403,8|0,0:0|0:0,0:0:0:0:
240,252,59976,1,0,0:0:0:0:
111,177,60112,1,0,0:0:0:0:
185,49,60249,1,8,0:0:0:0:
314,123,60385,6,0,P|352:154|377:196,1,99.0000030212403,4|0,0:0|0:0,0:0:0:0:
364,56,60658,2,0,P|317:40|270:50,1,99.0000030212403,0|8,0:0|0:0,0:0:0:0:
96,68,60930,1,0,0:0:0:0:
212,164,61067,1,0,0:0:0:0:
136,0,61203,1,0,0:0:0:0:
12,144,61339,1,8,0:0:0:0:
156,134,61476,1,0,0:0:0:0:
12,144,61612,6,0,B|56:136|56:136|108:148|108:148|156:134,1,148.50000453186,4|0,0:0|0:0,0:0:0:0:
180,107,61885,2,0,P|207:67|210:18,1,99.0000030212403,8|0,0:0|0:0,0:0:0:0:
384,120,62158,1,0,0:0:0:0:
272,244,62294,1,0,0:0:0:0:
288,72,62430,1,8,0:0:0:0:
347,243,62567,6,0,P|332:290|293:318,1,99.0000030212403,4|0,0:0|0:0,0:0:0:0:
148,340,62839,1,0,0:0:0:0:
248,232,62976,2,0,B|284:196|284:196|287:148,1,99.0000030212403,8|0,0:0|0:0,0:0:0:0:
72,176,63249,2,0,P|37:141|27:94,1,99.0000030212403,0|0,0:0|0:0,0:0:0:0:
28,8,63521,1,8,0:0:0:0:
113,100,63658,6,0,B|148:100|148:100|172:128|206:117,1,99.0000030212403,4|0,0:0|0:0,0:0:0:0:
364,104,63930,1,0,0:0:0:0:
436,248,64067,2,0,P|430:296|405:339,1,99.0000030212403,8|0,0:0|0:0,0:0:0:0:
279,253,64339,1,0,0:0:0:0:
79,259,64476,1,0,0:0:0:0:
256,120,64612,1,8,0:0:0:0:
359,272,64749,6,0,P|329:310|285:333,1,99.0000030212403,4|0,0:0|0:0,0:0:0:0:
79,258,65021,2,0,P|108:220|151:196,1,99.0000030212403,0|8,0:0|0:0,0:0:0:0:
359,196,65294,2,0,P|401:219|432:258,2,99.0000030212403,0|0|0,0:0|0:0|0:0,0:0:0:0:
128,124,65703,1,8,0:0:0:0:
352,64,65839,1,0,0:0:0:0:
200,243,65976,6,0,P|135:276|68:249,1,148.50000453186,4|0,0:0|0:0,0:0:0:0:
44,224,66249,2,0,B|18:183|18:183|18:132,1,99.0000030212403,8|0,0:0|0:0,0:0:0:0:
114,27,66521,1,0,0:0:0:0:
257,46,66658,1,0,0:0:0:0:
345,159,66794,1,8,0:0:0:0:
329,301,66930,6,0,P|310:345|267:369,1,99.0000030212403,4|0,0:0|0:0,0:0:0:0:
296,147,67203,2,0,P|342:133|389:148,1,99.0000030212403,0|8,0:0|0:0,0:0:0:0:
464,296,67476,1,0,0:0:0:0:
256,232,67612,1,0,0:0:0:0:
400,232,67749,1,0,0:0:0:0:
196,168,67885,1,8,0:0:0:0:
395,75,68021,6,0,P|427:113|441:160,1,99.0000030212403,4|0,0:0|0:0,0:0:0:0:
302,316,68294,2,0,P|270:278|256:231,1,99.0000030212403,0|8,0:0|0:0,0:0:0:0:
284,56,68567,1,0,0:0:0:0:
116,128,68703,1,0,0:0:0:0:
320,132,68839,1,0,0:0:0:0:
152,56,68976,1,8,0:0:0:0:
268,237,69112,6,0,P|294:279|339:297,1,99.0000030212403,4|0,0:0|0:0,0:0:0:0:
448,140,69385,2,0,L|509:62,1,99.0000030212403,0|0,0:0|0:0,0:0:0:0:
381,54,69658,2,0,L|319:131,1,99.0000030212403,0|2,0:0|0:0,0:0:0:0:
319,131,70067,1,2,0:0:0:0:
128,268,70339,5,4,0:0:0:0:
244,160,70476,1,0,0:0:0:0:
128,92,70612,1,0,0:0:0:0:
292,244,70749,1,0,0:0:0:0:
224,72,70885,1,0,0:0:0:0:
56,156,71021,1,0,0:0:0:0:
220,308,71158,1,0,0:0:0:0:
335,176,71294,6,0,P|306:94|223:70,1,180,4|0,0:0|0:0,0:0:0:0:
436,72,71703,1,0,0:0:0:0:
384,244,71839,1,0,0:0:0:0:
220,176,71976,1,0,0:0:0:0:
224,131,72044,1,0,0:0:0:0:
249,94,72112,1,0,0:0:0:0:
287,72,72180,1,0,0:0:0:0:
332,70,72249,1,0,0:0:0:0:
483,163,72385,6,0,P|511:247|482:331,1,180,4|0,2:0|0:0,0:0:0:0:
324,352,72794,1,0,0:0:0:0:
436,288,72930,1,0,0:0:0:0:
449,245,72999,1,0,0:0:0:0:
437,203,73067,1,0,0:0:0:0:
288,92,73203,1,0,0:0:0:0:
464,40,73339,1,0,0:0:0:0:
336,171,73476,6,0,P|249:177|196:109,1,180,4|0,0:0|0:0,0:0:0:0:
368,52,73885,2,0,L|417:126,1,90,0|0,0:0|0:0,0:0:0:0:
144,240,74158,1,0,0:0:0:0:
288,92,74294,1,0,0:0:0:0:
113,150,74430,1,0,0:0:0:0:
253,265,74567,1,0,0:0:0:0:
399,150,74703,5,4,0:0:0:0:
200,64,74839,1,0,0:0:0:0:
383,174,74976,1,0,0:0:0:0:
215,39,75112,1,0,0:0:0:0:
362,193,75249,1,0,0:0:0:0:
236,20,75385,1,0,0:0:0:0:
336,206,75521,1,0,0:0:0:0:
261,6,75658,6,0,B|348:8|348:8|408:24|417:63,1,180,4|0,0:0|0:0,0:0:0:0:
444,256,76067,1,0,0:0:0:0:
328,124,76203,1,0,0:0:0:0:
240,260,76339,1,0,0:0:0:0:
252,300,76408,1,0,0:0:0:0:
280,336,76476,1,0,0:0:0:0:
320,356,76544,1,0,0:0:0:0:
364,360,76612,1,0,0:0:0:0:
492,176,76749,6,0,P|405:171|352:239,1,180,4|0,0:0|0:0,0:0:0:0:
444,256,77158,1,0,0:0:0:0:
380,64,77294,1,0,0:0:0:0:
380,64,77362,1,0,0:0:0:0:
380,64,77430,1,0,0:0:0:0:
280,192,77567,1,0,0:0:0:0:
216,0,77703,1,0,0:0:0:0:
92,104,77839,6,0,B|92:192|92:192|146:266,1,180,4|0,0:0|0:0,0:0:0:0:
116,360,78249,2,0,L|26:360,1,90,0|0,0:0|0:0,0:0:0:0:
228,160,78521,5,2,0:0:0:0:
368,268,78658,1,2,0:0:0:0:
240,56,78794,1,2,0:0:0:0:
56,220,78930,1,2,0:0:0:0:
248,0,79067,6,0,P|291:9|326:37,1,90,4|0,0:0|0:0,0:0:0:0:
424,168,79339,1,0,0:0:0:0:
424,168,79476,1,0,0:0:0:0:
252,68,79612,1,0,0:0:0:0:
232,264,79749,1,0,0:0:0:0:
360,104,79885,1,0,0:0:0:0:
136,84,80021,1,0,0:0:0:0:
312,196,80158,6,0,L|385:248,1,90,0|0,0:0|0:0,0:0:0:0:
160,176,80430,1,0,0:0:0:0:
288,108,80567,1,0,0:0:0:0:
232,256,80703,1,0,0:0:0:0:
80,96,80839,1,0,0:0:0:0:
192,52,80976,1,0,0:0:0:0:
56,204,81112,1,0,0:0:0:0:
40,248,81180,1,0,0:0:0:0:
44,292,81249,6,0,P|64:331|101:355,1,90,4|0,0:0|0:0,0:0:0:0:
268,328,81521,1,0,0:0:0:0:
144,260,81658,1,0,0:0:0:0:
268,196,81794,1,0,0:0:0:0:
180,332,81930,1,0,0:0:0:0:
191,160,82067,2,0,P|217:124|259:110,1,90,0|0,0:0|0:0,0:0:0:0:
347,167,82339,6,0,P|354:211|334:251,1,90,0|0,0:0|0:0,0:0:0:0:
132,200,82612,1,0,0:0:0:0:
240,88,82749,1,0,0:0:0:0:
208,268,82885,1,0,0:0:0:0:
44,176,83021,1,0,0:0:0:0:
92,24,83158,2,0,L|182:24,1,90,0|0,0:0|0:0,0:0:0:0:
388,64,83430,6,0,P|418:96|425:140,1,90,4|0,0:0|0:0,0:0:0:0:
255,200,83703,1,0,0:0:0:0:
300,20,83839,1,0,0:0:0:0:
148,144,83976,1,0,0:0:0:0:
352,128,84112,1,0,0:0:0:0:
104,84,84249,1,0,0:0:0:0:
388,64,84385,1,0,0:0:0:0:
224,128,84521,5,0,0:0:0:0:
364,0,84658,1,0,0:0:0:0:
428,128,84794,2,0,P|415:170|381:198,1,90,0|0,0:0|0:0,0:0:0:0:
260,224,85067,1,0,0:0:0:0:
387,64,85203,2,0,P|431:55|473:71,1,90,0|0,0:0|0:0,0:0:0:0:
304,136,85476,1,0,0:0:0:0:
264,116,85544,1,0,0:0:0:0:
231,83,85612,6,0,P|215:42|228:0,1,90,4|0,0:0|0:0,0:0:0:0:
388,192,85885,1,0,0:0:0:0:
160,148,86021,1,0,0:0:0:0:
288,40,86158,1,0,0:0:0:0:
260,224,86294,1,0,0:0:0:0:
104,272,86430,1,0,0:0:0:0:
40,152,86567,1,0,0:0:0:0:
52,16,86703,6,0,L|128:63,1,90,2|0,0:0|0:0,0:0:0:0:
460,104,86976,2,0,L|383:151,1,90,2|0,0:0|0:0,0:0:0:0:
152,248,87249,1,2,0:0:0:0:
272,92,87385,1,0,0:0:0:0:
312,312,87521,1,2,0:0:0:0:
56,152,87658,1,0,0:0:0:0:
384,48,87794,5,4,0:0:0:0:
208,28,87930,1,0,0:0:0:0:
376,76,88067,1,0,0:0:0:0:
200,56,88203,1,0,0:0:0:0:
368,104,88339,1,0,0:0:0:0:
192,84,88476,1,0,0:0:0:0:
360,132,88612,1,0,0:0:0:0:
183,112,88749,2,0,P|159:149|152:193,1,90,0|0,0:0|0:0,0:0:0:0:
248,344,89021,1,0,0:0:0:0:
80,276,89158,1,0,0:0:0:0:
304,192,89294,1,0,0:0:0:0:
476,316,89430,2,0,B|436:336|436:336|395:314,1,90,0|0,0:0|0:0,0:0:0:0:
36,212,89703,2,0,B|76:192|76:192|116:213,1,90,0|0,0:0|0:0,0:0:0:0:
152,240,89908,1,0,0:0:0:0:
188,268,89976,5,4,0:0:0:0:
344,372,90112,1,0,0:0:0:0:
240,184,90249,1,0,0:0:0:0:
120,356,90385,1,0,0:0:0:0:
208,111,90521,2,0,P|252:106|292:125,1,90,0|0,0:0|0:0,0:0:0:0:
428,192,90794,1,0,0:0:0:0:
136,87,90930,2,0,P|162:52|204:36,1,90,0|0,0:0|0:0,0:0:0:0:
424,48,91203,1,0,0:0:0:0:
292,125,91339,1,0,0:0:0:0:
512,132,91476,1,0,0:0:0:0:
240,184,91612,2,0,B|224:228|224:228|236:269,1,90,0|0,0:0|0:0,0:0:0:0:
444,88,91885,2,0,B|424:45|424:45|386:25,1,90,0|0,0:0|0:0,0:0:0:0:
184,28,92158,5,4,0:0:0:0:
360,88,92294,1,0,0:0:0:0:
184,128,92430,1,0,0:0:0:0:
284,12,92567,1,0,0:0:0:0:
312,176,92703,5,0,0:0:0:0:
140,80,92839,1,0,0:0:0:0:
316,52,92976,1,0,0:0:0:0:
240,184,93112,1,0,0:0:0:0:
152,48,93249,5,0,0:0:0:0:
64,204,93385,1,0,0:0:0:0:
184,128,93521,1,0,0:0:0:0:
100,284,93658,1,0,0:0:0:0:
196,204,93794,6,0,B|232:180|232:180|259:142,1,90,0|0,0:0|0:0,0:0:0:0:
100,284,94067,1,0,0:0:0:0:
308,61,94203,1,0,0:0:0:0:
308,61,94271,1,0,0:0:0:0:
308,61,94339,5,4,0:0:0:0:
203,322,94476,1,0,0:0:0:0:
374,115,94612,1,0,0:0:0:0:
137,268,94749,1,0,0:0:0:0:
397,196,94885,1,0,0:0:0:0:
114,187,95021,1,0,0:0:0:0:
368,276,95158,1,0,0:0:0:0:
143,107,95294,1,0,0:0:0:0:
300,340,95430,5,0,0:0:0:0:
212,44,95567,1,0,0:0:0:0:
212,340,95703,1,0,0:0:0:0:
300,44,95839,1,0,0:0:0:0:
138,292,95976,1,0,0:0:0:0:
371,92,96112,6,0,P|433:99|483:137,1,125.999996154785,0|0,0:0|0:0,0:0:0:0:
440,356,96521,6,0,L|291:356,1,148.50000453186,4|0,0:0|0:0,0:0:0:0:
264,336,96794,2,0,P|241:292|243:243,1,99.0000030212403,8|0,0:0|0:0,0:0:0:0:
336,144,97067,1,0,0:0:0:0:
120,180,97203,1,0,0:0:0:0:
316,276,97339,1,8,0:0:0:0:
236,71,97476,6,0,P|270:36|316:20,1,99.0000030212403,4|0,0:0|0:0,0:0:0:0:
424,0,97749,1,0,0:0:0:0:
336,143,97885,2,0,P|306:182|261:204,1,99.0000030212403,8|0,0:0|0:0,0:0:0:0:
80,248,98158,1,0,0:0:0:0:
220,148,98294,1,0,0:0:0:0:
136,320,98430,1,8,0:0:0:0:
272,100,98567,6,0,B|312:72|312:72|362:72,1,99.0000030212403,4|0,0:0|0:0,0:0:0:0:
340,348,98839,1,0,0:0:0:0:
293,168,98976,2,0,B|332:140|332:140|382:140,1,99.0000030212403,8|0,0:0|0:0,0:0:0:0:
448,304,99249,1,0,0:0:0:0:
240,324,99385,1,0,0:0:0:0:
364,240,99521,1,8,0:0:0:0:
156,264,99658,6,0,L|56:264,1,99.0000030212403,4|0,0:0|0:0,0:0:0:0:
364,168,99930,2,0,L|463:168,1,99.0000030212403,0|8,0:0|0:0,0:0:0:0:
152,148,100203,1,0,0:0:0:0:
320,12,100339,1,0,0:0:0:0:
253,192,100476,1,0,0:0:0:0:
40,144,100612,1,8,0:0:0:0:
124,32,100749,1,0,0:0:0:0:
256,75,100885,6,0,P|323:106|363:167,1,148.50000453186,4|0,0:0|0:0,0:0:0:0:
372,204,101158,2,0,B|360:244|360:244|372:276|372:276|366:298,1,99.0000030212403,8|0,0:0|0:0,0:0:0:0:
192,264,101430,1,0,0:0:0:0:
240,128,101567,1,0,0:0:0:0:
300,336,101703,1,8,0:0:0:0:
163,100,101839,6,0,P|191:60|239:51,1,99.0000030212403,4|0,0:0|0:0,0:0:0:0:
300,176,102112,1,0,0:0:0:0:
156,204,102249,2,0,B|112:188|112:188|73:152,1,99.0000030212403,8|0,0:0|0:0,0:0:0:0:
8,40,102521,1,0,0:0:0:0:
164,100,102658,1,0,0:0:0:0:
8,228,102794,1,8,0:0:0:0:
175,280,102930,6,0,P|216:251|234:206,1,99.0000030212403,4|0,0:0|0:0,0:0:0:0:
192,32,103203,1,0,0:0:0:0:
72,152,103339,2,0,P|110:185|155:203,1,99.0000030212403,8|0,0:0|0:0,0:0:0:0:
296,168,103612,1,0,0:0:0:0:
100,264,103749,1,0,0:0:0:0:
276,344,103885,1,8,0:0:0:0:
220,127,104021,6,0,P|255:94|303:83,1,99.0000030212403,4|0,0:0|0:0,0:0:0:0:
471,176,104294,2,0,P|436:209|388:220,1,99.0000030212403,0|8,0:0|0:0,0:0:0:0:
184,208,104567,1,0,0:0:0:0:
280,64,104703,1,0,0:0:0:0:
256,272,104839,1,0,0:0:0:0:
92,180,104976,1,8,0:0:0:0:
340,156,105112,1,0,0:0:0:0:
140,95,105249,6,0,P|75:66|62:-4,1,148.50000453186,4|0,0:0|0:0,0:0:0:0:
133,21,105521,2,0,L|230:2,1,99.0000030212403,8|0,0:0|0:0,0:0:0:0:
256,188,105794,1,0,0:0:0:0:
368,60,105930,1,0,0:0:0:0:
176,168,106067,1,8,0:0:0:0:
316,11,106203,6,0,P|360:-8|407:2,1,99.0000030212403,4|0,0:0|0:0,0:0:0:0:
360,272,106476,1,0,0:0:0:0:
233,104,106612,2,0,B|190:84|190:84|139:95,1,99.0000030212403,8|0,0:0|0:0,0:0:0:0:
14,216,106885,1,0,0:0:0:0:
148,324,107021,1,0,0:0:0:0:
256,188,107158,1,8,0:0:0:0:
241,10,107294,6,0,B|221:53|221:53|232:103,1,99.0000030212403,4|0,0:0|0:0,0:0:0:0:
288,312,107567,1,0,0:0:0:0:
156,244,107703,2,0,P|117:213|96:169,1,99.0000030212403,8|0,0:0|0:0,0:0:0:0:
256,104,107976,1,0,0:0:0:0:
84,44,108112,1,0,0:0:0:0:
184,156,108249,1,8,0:0:0:0:
304,28,108385,6,0,L|205:28,1,99.0000030212403,4|0,0:0|0:0,0:0:0:0:
40,140,108658,2,0,L|40:239,1,99.0000030212403,0|8,0:0|0:0,0:0:0:0:
176,348,108930,1,0,0:0:0:0:
116,192,109067,1,0,0:0:0:0:
292,284,109203,1,0,0:0:0:0:
316,112,109339,1,8,0:0:0:0:
200,248,109476,1,0,0:0:0:0:
399,116,109612,6,0,B|431:188|431:188|406:253,1,148.50000453186,4|0,0:0|0:0,0:0:0:0:
391,284,109885,2,0,L|292:284,1,99.0000030212403,8|0,0:0|0:0,0:0:0:0:
104,280,110158,1,0,0:0:0:0:
224,164,110294,1,0,0:0:0:0:
200,336,110430,1,8,0:0:0:0:
144,143,110567,6,0,P|170:102|215:83,1,99.0000030212403,4|0,0:0|0:0,0:0:0:0:
340,208,110839,1,0,0:0:0:0:
200,248,110976,1,8,0:0:0:0:
316,112,111112,1,0,0:0:0:0:
292,284,111249,1,0,0:0:0:0:
108,216,111385,1,0,0:0:0:0:
384,316,111521,1,8,0:0:0:0:
111,288,111658,6,0,P|64:276|36:236,1,99.0000030212403,4|0,0:0|0:0,0:0:0:0:
8,100,111930,1,0,0:0:0:0:
136,40,112067,2,0,B|184:20|184:20|226:39,1,99.0000030212403,8|0,0:0|0:0,0:0:0:0:
352,140,112339,1,0,0:0:0:0:
208,224,112476,1,0,0:0:0:0:
330,63,112612,1,8,0:0:0:0:
364,236,112749,6,0,B|356:288|356:288|320:317,1,99.0000030212403,4|0,0:0|0:0,0:0:0:0:
272,135,113021,2,0,P|289:90|330:62,1,99.0000030212403,0|8,0:0|0:0,0:0:0:0:
442,187,113294,2,0,P|410:223|362:235,1,99.0000030212403,0|2,0:0|0:0,0:0:0:0:
88,172,113567,1,0,0:0:0:0:
456,56,113703,1,2,0:0:0:0:
128,92,113976,6,0,L|49:253,1,180,4|8,0:0|0:0,0:0:0:0:
364,152,114521,1,0,0:0:0:0:
304,288,114658,1,0,0:0:0:0:
188,212,114794,1,8,0:0:0:0:
303,52,114930,6,0,P|392:53|462:107,1,180,2|0,0:0|0:0,0:0:0:0:
497,243,115339,2,0,L|397:215,1,90,8|0,0:0|0:0,0:0:0:0:
168,152,115612,1,0,0:0:0:0:
364,152,115749,1,0,0:0:0:0:
120,84,115885,1,8,0:0:0:0:
411,219,116021,6,0,P|385:298|303:287,1,180,4|0,0:0|0:0,0:0:0:0:
268,204,116430,2,0,L|308:120,1,90,8|0,0:0|0:0,0:0:0:0:
168,316,116703,1,0,0:0:0:0:
168,152,116839,1,0,0:0:0:0:
84,235,116976,1,8,0:0:0:0:
84,71,117112,2,0,B|48:31|48:31|13:18,1,90,2|0,0:0|0:0,0:0:0:0:
268,204,117521,6,0,L|341:255,1,90,8|0,0:0|0:0,0:0:0:0:
120,120,117794,1,8,0:0:0:0:
284,44,117930,1,0,0:0:0:0:
172,236,118067,1,8,0:0:0:0:
176,32,118203,6,0,P|89:23|25:83,1,180,4|0,0:0|0:0,0:0:0:0:
28,240,118612,2,0,B|48:284|48:284|84:304,1,90,8|0,0:0|0:0,0:0:0:0:
276,352,118885,1,0,0:0:0:0:
172,236,119021,1,0,0:0:0:0:
8,368,119158,1,8,0:0:0:0:
171,236,119294,6,0,P|255:207|338:238,1,180,2|0,0:0|0:0,0:0:0:0:
428,324,119703,2,0,B|448:300|448:300|448:241,1,90,8|0,0:0|0:0,0:0:0:0:
440,100,119976,1,0,0:0:0:0:
256,76,120112,1,0,0:0:0:0:
396,192,120249,1,8,0:0:0:0:
172,27,120385,6,0,P|255:0|338:30,1,180,4|0,0:0|0:0,0:0:0:0:
468,172,120794,2,0,P|465:216|439:252,1,90,8|0,0:0|0:0,0:0:0:0:
312,328,121067,1,0,0:0:0:0:
192,212,121203,1,0,0:0:0:0:
360,180,121339,1,8,0:0:0:0:
244,280,121476,2,0,B|204:308|204:308|162:308,1,90,2|0,0:0|0:0,0:0:0:0:
72,304,121885,6,0,L|162:308,1,90,2|0,0:0|0:0,0:0:0:0:
339,253,122158,1,2,0:0:0:0:
256,52,122294,1,0,0:0:0:0:
56,136,122430,1,0,0:2:0:0:
139,337,122567,1,0,0:0:0:0:
327,88,122703,6,0,P|330:43|317:0,1,90,4|0,0:0|0:0,0:0:0:0:
176,136,122976,1,0,0:0:0:0:
356,292,123112,1,0,0:0:0:0:
328,88,123249,1,0,0:0:0:0:
200,236,123385,1,0,0:0:0:0:
424,176,123521,1,0,0:0:0:0:
176,136,123658,6,0,B|148:88|148:88|152:20|240:4,1,180,4|0,0:0|0:0,0:0:0:0:
328,88,124067,1,0,0:0:0:0:
288,236,124203,1,0,0:0:0:0:
140,280,124339,1,0,0:0:0:0:
100,256,124408,1,0,0:0:0:0:
68,224,124476,1,0,0:0:0:0:
48,184,124544,1,0,0:0:0:0:
40,140,124612,1,0,0:0:0:0:
147,56,124749,6,0,P|231:79|254:161,1,180,4|0,0:0|0:0,0:0:0:0:
184,292,125158,1,0,0:0:0:0:
328,240,125294,1,0,0:0:0:0:
328,240,125362,1,0,0:0:0:0:
328,240,125430,1,0,0:0:0:0:
184,184,125567,1,0,0:0:0:0:
328,132,125703,1,0,0:0:0:0:
184,80,125839,6,0,P|103:111|80:195,1,180,4|0,0:0|0:0,0:0:0:0:
256,276,126249,1,0,0:0:0:0:
16,248,126385,1,0,0:0:0:0:
256,360,126521,1,0,0:0:0:0:
80,195,126658,1,0,0:0:0:0:
80,376,126794,1,0,0:0:0:0:
152,156,126930,1,0,0:0:0:0:
315,219,127067,6,0,P|333:261|333:306,1,90,4|0,0:0|0:0,0:0:0:0:
208,100,127339,1,0,0:0:0:0:
408,148,127476,1,0,0:0:0:0:
208,252,127612,1,0,0:0:0:0:
312,64,127749,1,0,0:0:0:0:
424,256,127885,1,0,0:0:0:0:
240,32,128021,6,0,B|196:0|196:0|70:0,1,180,4|0,0:0|0:0,0:0:0:0:
152,156,128430,2,0,B|184:176|184:176|236:176,1,90,0|0,0:0|0:0,0:0:0:0:
432,132,128703,1,0,0:0:0:0:
468,160,128771,1,0,0:0:0:0:
492,196,128839,1,0,0:0:0:0:
500,240,128908,1,0,0:0:0:0:
496,284,128976,1,0,0:0:0:0:
368,368,129112,6,0,P|285:336|247:257,1,180,4|0,0:0|0:0,0:0:0:0:
292,104,129521,1,0,0:0:0:0:
396,268,129658,1,0,0:0:0:0:
420,308,129726,1,0,0:0:0:0:
444,348,129794,1,0,0:0:0:0:
368,132,129930,1,0,0:0:0:0:
296,348,130067,1,0,0:0:0:0:
216,127,130203,6,0,P|238:45|322:28,1,180,4|0,0:0|0:0,0:0:0:0:
512,168,130612,1,0,0:0:0:0:
292,104,130749,1,0,0:0:0:0:
468,96,130885,1,0,0:0:0:0:
252,200,131021,1,0,0:0:0:0:
400,48,131158,1,0,0:0:0:0:
292,288,131294,1,0,0:0:0:0:
156,84,131430,6,0,B|124:52|124:52|81:39,1,90,4|0,0:0|0:0,0:0:0:0:
348,200,131703,1,0,0:0:0:0:
156,224,131839,1,0,0:0:0:0:
256,72,131976,1,0,0:0:0:0:
216,280,132112,1,0,0:0:0:0:
88,152,132249,1,0,0:0:0:0:
360,120,132385,6,0,B|420:136|428:200|428:200|428:267,1,180,4|0,0:0|0:0,0:0:0:0:
253,158,132794,2,0,P|245:114|255:71,1,90,0|0,0:0|0:0,0:0:0:0:
456,64,133067,1,0,0:0:0:0:
480,100,133135,1,0,0:0:0:0:
496,140,133203,1,0,0:0:0:0:
496,184,133271,1,0,0:0:0:0:
496,228,133339,1,0,0:0:0:0:
389,334,133476,6,0,B|340:300|340:300|312:220|344:186,1,180,4|0,0:0|0:0,0:0:0:0:
456,64,133885,1,0,0:0:0:0:
284,16,134021,1,0,0:0:0:0:
240,28,134089,1,0,0:0:0:0:
200,52,134158,1,0,0:0:0:0:
480,100,134294,1,0,0:0:0:0:
172,168,134430,1,0,0:0:0:0:
424,184,134567,6,0,P|489:244|508:330,1,180,4|0,0:0|0:0,0:0:0:0:
320,256,134976,1,0,0:0:0:0:
412,32,135112,1,0,0:0:0:0:
240,220,135249,1,0,0:0:0:0:
480,100,135385,1,0,0:0:0:0:
172,168,135521,1,0,0:0:0:0:
512,192,135658,1,0,0:0:0:0:
223,115,135794,6,0,P|190:86|175:44,1,90,4|0,0:0|0:0,0:0:0:0:
311,170,136067,2,0,P|281:204|239:219,1,90,0|0,0:0|0:0,0:0:0:0:
64,148,136339,1,0,0:0:0:0:
256,44,136476,1,0,0:0:0:0:
160,252,136612,1,0,0:0:0:0:
171,43,136749,6,0,P|256:18|340:45,1,180,4|0,0:0|0:0,0:0:0:0:
388,192,137158,1,0,0:0:0:0:
504,80,137294,1,0,0:0:0:0:
356,304,137430,1,0,0:0:0:0:
316,284,137499,1,0,0:0:0:0:
284,252,137567,1,0,0:0:0:0:
268,208,137635,1,0,0:0:0:0:
276,164,137703,1,0,0:0:0:0:
340,45,137839,6,0,B|256:13|256:13|168:45,1,180,4|0,0:0|0:0,0:0:0:0:
46,142,138249,1,0,0:0:0:0:
144,264,138385,1,0,0:0:0:0:
176,296,138453,1,0,0:0:0:0:
208,328,138521,1,0,0:0:0:0:
440,288,138658,1,0,0:0:0:0:
296,104,138794,1,0,0:0:0:0:
143,262,138930,6,0,B|68:296|60:364|60:364|20:320,1,180,4|0,0:0|0:0,0:0:0:0:
328,160,139339,1,8,0:0:0:0:
143,262,139476,1,0,0:0:0:0:
328,160,139612,1,8,0:0:0:0:
46,142,139749,1,0,0:0:0:0:
304,312,139885,1,8,0:0:0:0:
236,40,140021,1,0,0:0:0:0:
471,138,140158,5,12,0:2:0:0:
479,152,140226,1,0,0:0:0:0:
484,169,140294,1,0,0:0:0:0:
486,186,140362,1,0,0:0:0:0:
488,204,140430,2,0,P|485:232|477:256,1,45,8|0,0:0|0:0,0:0:0:0:
409,189,140567,5,0,0:0:0:0:
412,215,140635,1,0,0:0:0:0:
411,242,140703,1,8,0:0:0:0:
407,269,140771,1,0,0:0:0:0:
399,294,140839,2,0,P|386:317|368:336,1,45
337,233,140976,5,8,0:0:0:0:
331,269,141044,1,0,0:0:0:0:
312,299,141112,1,0,0:0:0:0:
288,326,141180,1,0,0:0:0:0:
255,344,141249,2,0,P|234:352|210:351,1,45,8|0,0:0|0:0,0:0:0:0:
259,235,141385,5,0,0:0:0:0:
229,269,141453,1,0,0:0:0:0:
186,283,141521,1,8,0:0:0:0:
141,285,141589,1,0,0:0:0:0:
96,275,141658,2,0,P|75:261|58:225,1,45
190,195,141794,5,8,0:0:0:0:
145,186,141862,1,0,0:0:0:0:
113,154,141930,1,0,0:0:0:0:
103,109,141999,1,0,0:0:0:0:
122,68,142067,5,8,0:0:0:0:
163,83,142135,1,0,0:0:0:0:
207,75,142203,1,0,0:0:0:0:
235,40,142271,1,0,0:0:0:0:
278,27,142339,5,12,0:0:0:0:
323,33,142408,1,0,0:0:0:0:
349,69,142476,1,0,0:0:0:0:
354,113,142544,1,0,0:0:0:0:
343,156,142612,1,8,0:0:0:0:
308,184,142680,1,0,0:0:0:0:
264,196,142749,1,0,0:0:0:0:
219,188,142817,1,0,0:0:0:0:
174,188,142885,5,8,0:0:0:0:
130,200,142953,1,0,0:0:0:0:
92,225,143021,1,0,0:0:0:0:
72,265,143089,1,0,0:0:0:0:
73,310,143158,1,8,0:0:0:0:
90,351,143226,1,0,0:0:0:0:
130,370,143294,1,0,0:0:0:0:
174,372,143362,1,0,0:0:0:0:
217,362,143430,1,8,0:0:0:0:
242,324,143499,1,0,0:0:0:0:
241,284,143567,6,0,B|227:250|231:214|231:214|239:182|263:162|263:162|299:182|307:214|307:214|319:250|355:258|355:258|375:246|383:218|383:218|387:174|360:139,1,405.000015449525
200,16,144521,5,12,0:0:0:0:
155,24,144589,1,0,0:0:0:0:
117,49,144658,1,0,0:0:0:0:
96,88,144726,1,0,0:0:0:0:
96,132,144794,1,8,0:0:0:0:
110,174,144862,1,0,0:0:0:0:
138,208,144930,1,0,0:0:0:0:
181,221,144999,1,0,0:0:0:0:
216,248,145067,5,8,0:0:0:0:
225,291,145135,1,0,0:0:0:0:
213,334,145203,1,0,0:0:0:0:
183,367,145271,1,0,0:0:0:0:
138,370,145339,1,8,0:0:0:0:
97,349,145408,1,0,0:0:0:0:
67,315,145476,2,0,P|52:298|43:277,1,45,0|0,0:0|0:0,0:0:0:0:
20,120,145612,5,8,0:0:0:0:
38,79,145680,1,0,0:0:0:0:
74,51,145749,1,0,0:0:0:0:
117,40,145817,1,0,0:0:0:0:
161,38,145885,1,8,0:0:0:0:
202,56,145953,1,0,0:0:0:0:
231,89,146021,1,0,0:0:0:0:
244,131,146089,1,0,0:0:0:0:
241,176,146158,5,8,0:0:0:0:
239,193,146226,1,0,0:0:0:0:
238,210,146294,1,0,0:0:0:0:
239,227,146362,1,0,0:0:0:0:
249,256,146430,5,8,0:0:0:0:
251,274,146499,1,0,0:0:0:0:
252,291,146567,1,0,0:0:0:0:
251,308,146635,1,0,0:0:0:0:
247,352,146703,5,12,0:0:0:0:
294,365,146771,1,0,0:0:0:0:
342,353,146839,1,0,0:0:0:0:
383,324,146908,1,0,0:0:0:0:
394,276,146976,1,8,0:0:0:0:
383,227,147044,1,0,0:0:0:0:
350,190,147112,1,0,0:0:0:0:
306,166,147180,1,0,0:0:0:0:
285,120,147249,5,8,0:0:0:0:
285,70,147317,1,0,0:0:0:0:
320,35,147385,1,0,0:0:0:0:
368,23,147453,1,0,0:0:0:0:
415,36,147521,1,8,0:0:0:0:
447,73,147589,1,0,0:0:0:0:
456,122,147658,1,0,0:0:0:0:
435,167,147726,1,0,0:0:0:0:
477,192,147794,5,0,0:0:0:0:
496,237,147862,1,0,0:0:0:0:
507,285,147930,1,0,0:0:0:0:
494,333,147999,1,0,0:0:0:0:
453,360,148067,1,8,0:0:0:0:
403,365,148135,1,0,0:0:0:0:
354,355,148203,1,0,0:0:0:0:
316,323,148271,1,0,0:0:0:0:
299,276,148339,5,8,0:0:0:0:
256,249,148408,1,0,0:0:0:0:
211,270,148476,1,0,0:0:0:0:
172,300,148544,1,0,0:0:0:0:
122,304,148612,1,8,0:0:0:0:
85,270,148680,1,0,0:0:0:0:
70,216,148749,2,0,P|80:168|108:152,1,49.5000015106202
164,49,148885,5,12,0:0:0:0:
219,18,148953,1,0,0:0:0:0:
281,13,149021,1,0,0:0:0:0:
342,25,149089,1,0,0:0:0:0:
399,52,149158,2,0,P|422:89|424:133,1,90,8|0,0:0|0:0,0:0:0:0:
285,266,149430,2,0,P|283:221|303:182,1,90,8|0,0:0|0:0,0:0:0:0:
456,156,149703,5,8,0:0:0:0:
479,214,149771,1,0,0:0:0:0:
476,276,149839,1,0,0:0:0:0:
439,328,149908,1,0,0:0:0:0:
386,362,149976,2,0,P|344:378|301:373,1,90,8|0,0:0|0:0,0:0:0:0:
128,288,150249,1,8,0:0:0:0:
128,288,150385,1,0,0:0:0:0:
168,52,150521,5,8,0:0:0:0:
256,236,150658,1,0,0:0:0:0:
392,88,150794,1,8,0:0:0:0:
248,260,150930,1,0,0:0:0:0:
316,113,151067,5,12,0:0:0:0:
317,68,151135,1,0,0:0:0:0:
341,30,151203,1,0,0:0:0:0:
383,15,151271,1,0,0:0:0:0:
427,21,151339,1,8,0:0:0:0:
459,53,151408,1,0,0:0:0:0:
464,97,151476,1,0,0:0:0:0:
452,140,151544,1,0,0:0:0:0:
468,181,151612,5,8,0:0:0:0:
489,220,151680,1,0,0:0:0:0:
485,265,151749,1,0,0:0:0:0:
469,307,151817,1,0,0:0:0:0:
436,337,151885,1,8,0:0:0:0:
391,343,151953,1,0,0:0:0:0:
346,336,152021,1,0,0:0:0:0:
308,311,152089,1,0,0:0:0:0:
288,274,152158,6,0,B|252:231|288:170|288:170|256:154|256:154|288:138|288:138|256:122|256:122|288:106|288:106|256:94|256:94|288:78|288:78|256:62|256:62|275:23,1,405.000015449525,8|8,0:0|0:0,0:0:0:0:
380,102,153112,1,0,0:0:0:0:
88,72,153249,5,12,0:0:0:0:
88,72,153385,1,0,0:0:0:0:
144,248,153521,1,8,0:0:0:0:
148,36,153658,1,0,0:0:0:0:
148,36,153794,1,8,0:0:0:0:
84,284,153930,1,0,0:0:0:0:
208,0,154067,1,8,0:0:0:0:
380,36,154203,2,0,L|424:64,1,45
433,93,154339,5,8,0:0:0:0:
437,109,154408,1,0,0:0:0:0:
441,125,154476,1,0,0:0:0:0:
445,141,154544,1,0,0:0:0:0:
449,158,154612,2,0,L|460:201,1,45,8|0,0:0|0:0,0:0:0:0:
424,315,154749,5,0,0:0:0:0:
411,302,154817,1,0,0:0:0:0:
398,289,154885,1,8,0:0:0:0:
386,276,154953,1,0,0:0:0:0:
372,264,155021,2,0,L|340:232,1,45,0|0,0:0|0:0,0:0:0:0:
243,120,155158,5,8,0:0:0:0:
201,92,155226,1,0,0:0:0:0:
148,81,155294,2,0,P|121:82|95:91,1,53.9999983520508,0|0,0:0|0:0,0:0:0:0:
72,203,155430,5,12,0:0:0:0:
79,219,155499,1,0,0:0:0:0:
85,235,155567,1,0,0:0:0:0:
92,251,155635,1,0,0:0:0:0:
111,269,155703,5,8,0:0:0:0:
132,285,155771,1,0,0:0:0:0:
153,301,155839,1,0,0:0:0:0:
174,317,155908,1,0,0:0:0:0:
208,327,155976,5,8,0:0:0:0:
243,334,156044,1,0,0:0:0:0:
278,336,156112,1,0,0:0:0:0:
313,338,156180,1,0,0:0:0:0:
357,328,156249,5,8,0:0:0:0:
394,302,156317,1,0,0:0:0:0:
428,272,156385,1,0,0:0:0:0:
460,240,156453,1,0,0:0:0:0:
483,202,156521,6,0,B|489:167|489:167|475:159|471:139|471:139|451:125|434:126|434:126|433:109|415:81|415:81|399:88|386:65|386:65|356:75,1,216,8|0,0:0|0:0,0:0:0:0:
352,196,157067,5,8,0:0:0:0:
352,196,157203,2,0,B|305:239|305:239|242:239,1,125.999996154785
40,368,157612,6,0,L|149:274,1,144,12|8,0:0|0:0,0:0:0:0:
288,148,158021,1,0,0:0:0:0:
288,148,158158,1,8,0:0:0:0:
304,272,158294,1,0,0:0:0:0:
184,128,158430,1,8,0:0:0:0:
368,97,158567,1,0,0:0:0:0:
40,368,158703,6,0,L|161:261,1,161.999995056153,8|8,0:0|0:0,0:0:0:0:
288,148,159112,1,0,0:0:0:0:
288,148,159249,1,8,0:0:0:0:
308,292,159385,1,0,0:0:0:0:
148,132,159521,1,8,0:0:0:0:
40,368,159658,5,0,0:0:0:0:
40,368,159726,1,0,0:0:0:0:
40,368,159794,2,0,L|175:248,1,180,12|8,0:0|0:0,0:0:0:0:
288,148,160203,1,0,0:0:0:0:
288,148,160339,1,8,0:0:0:0:
316,296,160476,1,0,0:0:0:0:
140,124,160612,1,8,0:0:0:0:
379,56,160749,1,0,0:0:0:0:
40,368,160885,6,0,L|189:237,1,198.000006042481,8|8,0:0|0:0,0:0:0:0:
288,148,161294,1,0,0:0:0:0:
288,148,161430,1,8,0:0:0:0:
324,312,161567,1,0,0:0:0:0:
128,124,161703,1,8,0:0:0:0:
388,48,161839,1,0,0:0:0:0:
256,192,161976,12,0,163885,0:0:0:0:
432,168,164021,5,0,0:0:0:0:
420,212,164089,1,0,0:0:0:0:
403,256,164158,2,0,P|381:294|346:323,1,90,4|0,0:0|0:0,0:0:0:0:
270,166,164430,2,0,B|310:194|310:194|310:235,1,90,8|0,0:0|0:0,0:0:0:0:
236,316,164703,1,8,0:0:0:0:
404,256,164839,1,0,0:0:0:0:
184,224,164976,1,8,0:0:0:0:
352,164,165112,1,0,0:0:0:0:
196,127,165249,6,0,P|152:118|108:128,1,90,2|0,0:0|0:0,0:0:0:0:
315,256,165521,2,0,P|359:265|403:255,1,90,2|0,0:0|0:0,0:0:0:0:
264,183,165794,2,0,L|183:222,1,90,2|0,0:0|0:0,0:0:0:0:
248,64,166067,2,0,L|328:104,1,90,2|0,0:0|0:0,0:0:0:0:
456,188,166339,5,4,0:0:0:0:
308,340,166476,1,0,0:0:0:0:
481,226,166612,1,0,0:0:0:0:
282,301,166749,1,0,0:0:0:0:
487,271,166885,1,0,0:0:0:0:
276,256,167021,1,0,0:0:0:0:
474,315,167158,1,0,0:0:0:0:
315,179,167294,2,0,P|277:156|233:151,1,90,0|0,0:0|0:0,0:0:0:0:
56,188,167567,5,0,0:0:0:0:
204,340,167703,1,0,0:0:0:0:
20,280,167839,1,0,0:0:0:0:
236,239,167976,2,0,P|279:228|314:201,1,90,0|0,0:0|0:0,0:0:0:0:
332,23,168249,2,0,P|288:33|252:60,1,90,0|0,0:0|0:0,0:0:0:0:
224,96,168453,1,0,0:0:0:0:
208,136,168521,5,4,0:0:0:0:
300,292,168658,1,0,0:0:0:0:
208,136,168794,1,0,0:0:0:0:
120,292,168930,1,0,0:0:0:0:
180,43,169067,2,0,P|224:38|264:56,1,90,0|0,0:0|0:0,0:0:0:0:
372,120,169339,1,0,0:0:0:0:
139,119,169476,2,0,P|147:75|178:42,1,90,0|0,0:0|0:0,0:0:0:0:
288,52,169749,1,0,0:0:0:0:
372,120,169885,1,0,0:0:0:0:
400,224,170021,1,0,0:0:0:0:
355,324,170158,2,0,P|323:354|279:362,1,90,0|0,0:0|0:0,0:0:0:0:
192,219,170430,2,0,P|236:221|272:246,1,90,0|0,0:0|0:0,0:0:0:0:
356,324,170703,5,4,0:0:0:0:
492,232,170839,1,0,0:0:0:0:
272,246,170976,1,0,0:0:0:0:
456,340,171112,1,0,0:0:0:0:
388,184,171249,5,0,0:0:0:0:
264,344,171385,1,0,0:0:0:0:
308,152,171521,1,0,0:0:0:0:
184,312,171658,1,0,0:0:0:0:
229,176,171794,5,0,0:0:0:0:
91,130,171930,1,0,0:0:0:0:
47,270,172067,1,0,0:0:0:0:
184,312,172203,1,0,0:0:0:0:
352,256,172339,5,0,0:0:0:0:
260,88,172476,1,0,0:0:0:0:
260,272,172612,1,0,0:0:0:0:
344,48,172749,1,0,0:0:0:0:
384,28,172817,1,0,0:0:0:0:
427,27,172885,6,0,P|469:45|500:77,1,90,4|0,0:0|0:0,0:0:0:0:
436,304,173158,1,0,0:0:0:0:
436,304,173294,1,0,0:0:0:0:
304,68,173430,1,0,0:0:0:0:
304,68,173567,1,0,0:0:0:0:
216,360,173703,1,0,0:0:0:0:
216,360,173839,1,0,0:0:0:0:
52,132,173976,5,0,0:0:0:0:
432,135,174112,1,0,0:0:0:0:
120,256,174249,1,0,0:0:0:0:
500,259,174385,1,0,0:0:0:0:
148,28,174521,1,0,0:0:0:0:
371,31,174658,6,0,P|416:75|432:135,1,125.999996154785,0|0,0:0|0:0,0:0:0:0:
452,304,175067,6,0,L|417:345,1,53.9999983520508,6|0,0:0|0:0,0:0:0:0:
332,344,175340,2,0,L|297:302,1,53.9999983520508,0|0,0:0|0:0,0:0:0:0:
212,304,175612,2,0,L|177:345,1,53.9999983520508,0|0,0:0|0:0,0:0:0:0:
92,346,175885,2,0,L|57:304,1,53.9999983520508,0|0,0:0|0:0,0:0:0:0:
39,220,176158,6,0,P|48:194|66:174,1,53.9999983520508,0|0,0:0|0:0,0:0:0:0:
135,124,176431,2,0,P|159:111|186:109,1,53.9999983520508,0|0,0:0|0:0,0:0:0:0:
271,108,176703,2,0,P|298:109|322:121,1,53.9999983520508,0|0,0:0|0:0,0:0:0:0:
391,171,176976,2,0,P|409:192|418:217,1,53.9999983520508,0|0,0:0|0:0,0:0:0:0:
423,264,177181,1,0,0:0:0:0:
398,302,177249,6,0,P|376:318|350:325,1,53.9999983520508,0|0,0:0|0:0,0:0:0:0:
264,331,177521,2,0,P|237:327|214:314,1,53.9999983520508,0|0,0:0|0:0,0:0:0:0:
147,259,177794,2,0,P|134:236|129:210,1,53.9999983520508,0|0,0:0|0:0,0:0:0:0:
136,123,178067,2,0,P|141:97|157:76,1,53.9999983520508,0|0,0:0|0:0,0:0:0:0:
232,28,178340,6,0,L|275:60,1,53.9999983520508,0|0,0:0|0:0,0:0:0:0:
344,111,178612,2,0,L|387:143,1,53.9999983520508,0|0,0:0|0:0,0:0:0:0:
456,196,178885,2,0,B|476:224|476:224|476:243,1,53.9999983520508,0|0,0:0|0:0,0:0:0:0:
423,368,179158,1,0,0:0:0:0:
288,368,179294,1,0,0:0:0:0:
272,368,179362,1,0,0:0:0:0:
258,369,179431,6,0,L|204:368,1,53.9999983520508,0|0,0:0|0:0,0:0:0:0:
150,282,179703,2,0,L|204:282,1,53.9999983520508,0|0,0:0|0:0,0:0:0:0:
257,196,179976,2,0,L|204:196,1,53.9999983520508,0|0,0:0|0:0,0:0:0:0:
150,108,180249,2,0,L|204:108,1,53.9999983520508,0|0,0:0|0:0,0:0:0:0:
287,119,180521,6,0,P|310:134|327:155,1,53.9999983520508,0|0,0:0|0:0,0:0:0:0:
340,239,180794,2,0,P|325:262|304:279,1,53.9999983520508,0|0,0:0|0:0,0:0:0:0:
216,276,181067,2,0,P|193:261|176:240,1,53.9999983520508,0|0,0:0|0:0,0:0:0:0:
91,240,181340,2,0,P|70:255|56:278,1,53.9999983520508,0|0,0:0|0:0,0:0:0:0:
64,324,181544,1,0,0:0:0:0:
100,351,181612,6,0,P|120:335|134:312,1,53.9999983520508,0|0,0:0|0:0,0:0:0:0:
216,275,181885,2,0,P|228:251|231:225,1,53.9999983520508,0|0,0:0|0:0,0:0:0:0:
292,163,182158,2,0,P|293:137|284:111,1,53.9999983520508,0|0,0:0|0:0,0:0:0:0:
339,47,182431,2,0,P|329:23|311:3,1,53.9999983520508,0|0,0:0|0:0,0:0:0:0:
224,3,182703,6,0,P|212:28|212:55,1,53.9999983520508,0|0,0:0|0:0,0:0:0:0:
284,111,182976,2,0,P|292:136|292:163,1,53.9999983520508,0|0,0:0|0:0,0:0:0:0:
223,222,183249,2,0,P|213:248|215:275,1,53.9999983520508,0|0,0:0|0:0,0:0:0:0:
308,320,183521,1,0,0:0:0:0:
288,140,183658,1,0,0:0:0:0:
248,136,183726,1,0,0:0:0:0:
207,144,183794,6,0,P|174:156|148:180,1,72,4|0,0:0|0:0,0:0:0:0:
292,36,184067,2,0,P|325:48|351:72,1,72,0|0,0:0|0:0,0:0:0:0:
351,240,184339,2,0,P|324:263|290:273,1,72,0|0,0:0|0:0,0:0:0:0:
147,179,184612,2,0,P|139:145|146:110,1,72,0|0,0:0|0:0,0:0:0:0:
416,111,184885,6,0,P|424:77|417:42,1,72,0|0,0:0|0:0,0:0:0:0:
231,116,185158,2,0,P|223:150|233:185,1,72,0|0,0:0|0:0,0:0:0:0:
412,275,185430,2,0,P|419:241|413:206,1,72,0|0,0:0|0:0,0:0:0:0:
219,296,185703,2,0,P|211:330|221:365,1,72,0|0,0:0|0:0,0:0:0:0:
288,212,185976,5,0,0:0:0:0:
359,175,186112,1,0,0:0:0:0:
223,171,186249,5,0,0:0:0:0:
152,208,186385,1,0,0:0:0:0:
359,175,186521,5,0,0:0:0:0:
429,138,186658,1,0,0:0:0:0:
152,208,186794,5,0,0:0:0:0:
81,244,186930,1,0,0:0:0:0:
240,72,187067,6,0,P|272:87|298:111,1,72,0|0,0:0|0:0,0:0:0:0:
209,246,187339,2,0,P|177:231|151:207,1,72,0|0,0:0|0:0,0:0:0:0:
336,176,187612,2,0,P|348:209|348:245,1,72,0|0,0:0|0:0,0:0:0:0:
108,144,187885,1,0,0:0:0:0:
256,28,188021,1,0,0:0:0:0:
404,144,188158,6,0,L|461:186,1,72,4|0,0:0|0:0,0:0:0:0:
340,344,188430,2,0,L|329:272,1,72,0|0,0:0|0:0,0:0:0:0:
200,112,188703,2,0,L|189:183,1,72,0|0,0:0|0:0,0:0:0:0:
52,336,188976,2,0,L|103:286,1,72,0|0,0:0|0:0,0:0:0:0:
280,192,189249,6,0,L|352:192,1,72,0|0,0:0|0:0,0:0:0:0:
96,64,189521,2,0,L|24:64,1,72,0|0,0:0|0:0,0:0:0:0:
280,64,189794,2,0,L|352:64,1,72,0|0,0:0|0:0,0:0:0:0:
96,192,190067,2,0,L|24:192,1,72,0|0,0:0|0:0,0:0:0:0:
183,263,190339,5,0,0:0:0:0:
328,120,190476,1,0,0:0:0:0:
254,293,190612,1,0,0:0:0:0:
256,90,190749,1,0,0:0:0:0:
327,264,190885,1,0,0:0:0:0:
183,119,191021,1,0,0:0:0:0:
400,192,191158,5,0,0:0:0:0:
112,192,191294,1,0,0:0:0:0:
256,192,191430,12,4,192521,0:0:0:0:
388,176,192794,6,0,L|325:252,1,99.0000030212403,8|0,0:0|0:0,0:0:0:0:
224,360,193067,1,0,0:0:0:0:
428,336,193203,1,0,0:0:0:0:
232,184,193339,1,8,0:0:0:0:
475,159,193476,6,0,P|469:208|443:250,1,99.0000030212403,4|0,0:0|0:0,0:0:0:0:
324,332,193749,1,0,0:0:0:0:
355,92,193885,2,0,P|382:50|423:24,1,99.0000030212403,8|0,0:0|0:0,0:0:0:0:
424,240,194158,1,0,0:0:0:0:
272,112,194294,1,0,0:0:0:0:
164,276,194430,1,8,0:0:0:0:
272,136,194567,6,0,L|272:36,1,99.0000030212403,4|0,0:0|0:0,0:0:0:0:
324,240,194839,1,0,0:0:0:0:
232,319,194976,2,0,P|194:350|145:353,1,99.0000030212403,8|0,0:0|0:0,0:0:0:0:
36,280,195249,1,0,0:0:0:0:
244,228,195385,1,0,0:0:0:0:
16,196,195521,1,8,0:0:0:0:
148,88,195658,6,0,B|188:56|188:56|234:45,1,99.0000030212403,4|0,0:0|0:0,0:0:0:0:
330,185,195930,2,0,B|290:217|290:217|243:227,1,99.0000030212403,0|8,0:0|0:0,0:0:0:0:
132,216,196203,1,0,0:0:0:0:
320,324,196339,2,0,B|349:347|349:347|382:342|382:342|407:356,2,99.0000030212403,0|0|8,0:0|0:0|0:0,0:0:0:0:
244,228,196749,1,0,0:0:0:0:
328,84,196885,6,0,P|393:117|424:182,1,148.50000453186,4|0,0:0|0:0,0:0:0:0:
432,216,197158,2,0,B|432:288|432:288|416:309,1,99.0000030212403,8|0,0:0|0:0,0:0:0:0:
224,348,197430,1,0,0:0:0:0:
336,216,197567,1,0,0:0:0:0:
448,348,197703,1,8,0:0:0:0:
280,152,197839,6,0,P|231:144|184:164,1,99.0000030212403,4|0,0:0|0:0,0:0:0:0:
84,284,198112,1,0,0:0:0:0:
186,162,198249,2,0,L|264:44,1,99.0000030212403,8|0,0:0|0:0,0:0:0:0:
378,4,198521,1,0,0:0:0:0:
132,68,198658,1,0,0:0:0:0:
336,216,198794,1,8,0:0:0:0:
304,20,198930,6,0,B|256:4|256:4|176:4,1,99.0000030212403,4|0,0:0|0:0,0:0:0:0:
32,84,199203,1,0,0:0:0:0:
136,224,199339,2,0,B|160:264|160:264|156:336,1,99.0000030212403,0|0,0:0|0:0,0:0:0:0:
24,192,199612,1,0,0:0:0:0:
216,68,199749,1,0,0:0:0:0:
12,200,199885,1,8,0:0:0:0:
232,60,200021,6,0,P|316:48|400:180,1,198.000006042481,4|0,0:0|0:0,0:0:0:0:
280,228,200430,2,0,P|300:300|376:320,1,99.0000030212403,8|0,0:0|0:0,0:0:0:0:
432,356,200703,1,0,0:0:0:0:
180,272,200839,1,0,0:0:0:0:
404,264,200976,1,8,0:0:0:0:
152,180,201112,1,0,0:0:0:0:
316,312,201249,6,0,B|299:359|256:368|256:368|192:368,1,148.50000453186,4|0,0:0|0:0,0:0:0:0:
159,368,201521,2,0,P|111:352|87:312,1,99.0000030212403,8|0,0:0|0:0,0:0:0:0:
8,172,201794,1,0,0:0:0:0:
180,272,201930,1,0,0:0:0:0:
8,364,202067,1,8,0:0:0:0:
132,188,202203,6,0,B|176:160|176:160|240:160,1,99.0000030212403,4|0,0:0|0:0,0:0:0:0:
376,144,202476,1,0,0:0:0:0:
232,280,202612,2,0,B|200:320|200:320|200:380,1,99.0000030212403,8|0,0:0|0:0,0:0:0:0:
360,324,202885,2,0,B|360:276|360:276|332:172,1,99.0000030212403,0|0,0:0|0:0,0:0:0:0:
296,108,203158,1,8,0:0:0:0:
192,220,203294,6,0,P|156:252|68:204,1,99.0000030212403,4|0,0:0|0:0,0:0:0:0:
0,220,203567,1,0,0:0:0:0:
167,115,203703,2,0,B|219:113|219:113|275:147,1,99.0000030212403,8|0,0:0|0:0,0:0:0:0:
107,251,203976,1,0,0:0:0:0:
60,84,204112,1,0,0:0:0:0:
36,300,204249,1,8,0:0:0:0:
60,84,204385,6,0,B|95:46|95:46|160:30,1,99.0000030212403,4|0,0:0|0:0,0:0:0:0:
316,104,204658,2,0,B|340:144|340:144|338:196,1,99.0000030212403,0|8,0:0|0:0,0:0:0:0:
280,292,204930,1,0,0:0:0:0:
240,44,205067,1,0,0:0:0:0:
196,232,205203,1,0,0:0:0:0:
316,104,205339,1,8,0:0:0:0:
112,168,205476,1,0,0:0:0:0:
240,44,205612,6,0,P|332:16|408:56,1,148.50000453186,4|0,0:0|0:0,0:0:0:0:
404,56,205885,2,0,B|428:96|428:96|428:168,1,99.0000030212403,8|0,0:0|0:0,0:0:0:0:
280,292,206158,1,0,0:0:0:0:
320,184,206294,1,0,0:0:0:0:
424,356,206430,1,8,0:0:0:0:
232,216,206567,6,0,P|184:224|136:272,1,99.0000030212403,4|0,0:0|0:0,0:0:0:0:
84,352,206839,1,0,0:0:0:0:
176,144,206976,2,0,B|209:108|209:108|274:89,1,99.0000030212403,8|0,0:0|0:0,0:0:0:0:
68,268,207249,1,0,0:0:0:0:
96,116,207385,1,0,0:0:0:0:
4,324,207521,1,8,0:0:0:0:
176,144,207658,6,0,P|256:126|308:164,1,99.0000030212403,4|0,0:0|0:0,0:0:0:0:
28,184,207930,1,0,0:0:0:0:
276,212,208067,2,0,P|345:166|355:103,1,99.0000030212403,8|0,0:0|0:0,0:0:0:0:
388,48,208339,1,0,0:0:0:0:
376,268,208476,1,0,0:0:0:0:
269,131,208612,1,8,0:0:0:0:
460,236,208749,6,0,P|440:340|410:361,1,99.0000030212403,4|0,0:0|0:0,0:0:0:0:
360,184,209021,2,0,P|447:124|483:130,1,99.0000030212403,0|0,0:0|0:0,0:0:0:0:
328,360,209294,5,0,0:0:0:0:
328,360,209430,2,0,B|256:368|256:368|156:360,1,144,0|8,0:0|0:0,0:0:0:0:
156,132,209976,6,0,P|116:224|36:244,1,180,4|8,0:0|0:0,0:0:0:0:
88,56,210521,1,0,0:0:0:0:
224,272,210658,1,0,0:0:0:0:
64,156,210794,1,0,0:0:0:0:
184,20,210930,6,0,P|260:85|256:167,1,180,2|0,0:0|0:0,0:0:0:0:
224,272,211339,2,0,L|152:164,1,90,8|0,0:0|0:0,0:0:0:0:
88,56,211612,1,0,0:0:0:0:
45,245,211749,1,0,0:0:0:0:
259,158,211885,1,0,0:0:0:0:
45,245,212021,6,0,P|76:336|152:368,1,180,4|0,0:0|0:0,0:0:0:0:
268,372,212430,2,0,B|328:372|328:372|352:336,1,90,8|0,0:0|0:0,0:0:0:0:
328,148,212703,1,0,0:0:0:0:
172,191,212839,1,0,0:0:0:0:
296,296,212976,1,0,0:0:0:0:
268,60,213112,6,0,P|360:48|432:128,1,180,2|0,0:0|0:0,0:0:0:0:
466,244,213521,2,0,L|330:244,1,90,8|0,0:0|0:0,0:0:0:0:
208,168,213794,1,8,0:0:0:0:
372,324,213930,1,0,0:0:0:0:
148,368,214067,1,8,0:0:0:0:
356,152,214203,1,4,0:0:0:0:
356,152,214612,6,0,P|332:200|284:232,1,90,8|0,0:0|0:0,0:0:0:0:
185,295,214885,1,0,0:0:0:0:
48,104,215021,1,0,0:0:0:0:
44,276,215158,1,8,0:0:0:0:
189,123,215294,6,0,P|265:135|293:255,1,180,2|0,0:0|0:0,0:0:0:0:
328,348,215703,2,0,P|404:352|424:336,1,90,8|0,0:0|0:0,0:0:0:0:
472,280,215976,1,0,0:0:0:0:
328,348,216112,1,0,0:0:0:0:
472,195,216249,1,8,0:0:0:0:
268,288,216385,6,0,P|176:280|120:184,1,180,4|0,0:0|0:0,0:0:0:0:
212,116,216794,2,0,P|228:164|212:216,1,90,8|0,0:0|0:0,0:0:0:0:
128,344,217067,1,0,0:0:0:0:
320,208,217203,1,0,0:0:0:0:
100,124,217339,1,8,0:0:0:0:
246,304,217476,2,0,B|280:336|280:336|352:336,1,90,2|0,0:0|0:0,0:0:0:0:
456,88,217885,6,0,B|422:56|422:56|350:56,1,90,8|0,0:0|0:0,0:0:0:0:
232,84,218158,1,8,0:0:0:0:
384,264,218294,1,0,0:0:0:0:
232,84,218430,2,0,B|188:102|188:102|159:167,1,90,8|0,0:0|0:0,0:0:0:0:
108,356,218703,6,0,P|72:320|68:232,1,90,4|0,0:0|0:0,0:0:0:0:
60,108,218976,1,0,0:0:0:0:
216,244,219112,1,0,0:0:0:0:
16,196,219249,1,0,0:0:0:0:
160,152,219385,1,0,0:0:0:0:
60,283,219521,1,0,0:0:0:0:
136,68,219658,1,0,0:0:0:0:
140,272,219794,5,0,0:0:0:0:
244,128,219930,1,0,0:0:0:0:
292,304,220067,1,0,0:0:0:0:
252,104,220203,1,0,0:0:0:0:
124,280,220339,1,0,0:0:0:0:
256,88,220476,1,0,0:0:0:0:
300,320,220612,1,0,0:0:0:0:
456,236,220749,5,0,0:0:0:0:
476,184,220817,1,0,0:0:0:0:
472,132,220885,2,0,P|452:84|408:48,1,90,4|0,0:0|0:0,0:0:0:0:
224,28,221158,1,0,0:0:0:0:
376,152,221294,1,0,0:0:0:0:
247,10,221430,1,0,0:0:0:0:
353,170,221566,1,0,0:0:0:0:
276,0,221703,1,0,0:0:0:0:
324,180,221839,1,0,0:0:0:0:
306,0,221976,6,0,P|344:0|396:40,1,90,0|0,0:0|0:0,0:0:0:0:
448,248,222249,2,0,P|410:248|358:208,1,90,0|0,0:0|0:0,0:0:0:0:
300,108,222521,1,0,0:0:0:0:
276,276,222658,1,0,0:0:0:0:
488,316,222794,1,0,0:0:0:0:
512,148,222931,1,0,0:0:0:0:
448,248,223067,6,0,P|421:274|356:283,1,90,4|0,0:0|0:0,0:0:0:0:
176,224,223339,1,0,0:0:0:0:
376,200,223476,1,0,0:0:0:0:
124,156,223612,1,0,0:0:0:0:
324,132,223749,1,0,0:0:0:0:
72,84,223885,1,0,0:0:0:0:
272,60,224022,1,0,0:0:0:0:
124,156,224158,6,0,B|96:200|96:200|92:259,1,90,0|0,0:0|0:0,0:0:0:0:
148,356,224430,1,0,0:0:0:0:
16,216,224567,1,0,0:0:0:0:
36,328,224703,1,0,0:0:0:0:
124,156,224839,1,0,0:0:0:0:
148,356,224976,1,0,0:0:0:0:
220,124,225112,5,0,0:0:0:0:
248,76,225180,1,0,0:0:0:0:
292,44,225249,2,0,B|336:32|336:32|416:56,1,90,4|0,0:0|0:0,0:0:0:0:
484,232,225521,2,0,B|440:244|440:244|397:231,1,90,0|0,0:0|0:0,0:0:0:0:
280,172,225794,1,0,0:0:0:0:
496,144,225930,1,0,0:0:0:0:
284,260,226067,1,0,0:0:0:0:
424,96,226203,1,0,0:0:0:0:
212,220,226339,6,0,P|208:264|220:312,1,90,0|0,0:0|0:0,0:0:0:0:
320,156,226612,2,0,P|291:122|249:96,1,90,0|0,0:0|0:0,0:0:0:0:
104,64,226885,5,8,0:0:0:0:
388,244,227021,1,8,0:0:0:0:
344,0,227158,1,8,0:0:0:0:
180,284,227294,1,4,0:0:0:0:
