osu file format v14

[General]
AudioFilename: Give me Chocolate .mp3
AudioLeadIn: 0
PreviewTime: 52885
Countdown: 0
SampleSet: Normal
StackLeniency: 0.7
Mode: 1
LetterboxInBreaks: 0
WidescreenStoryboard: 0

[Editor]
Bookmarks: 82749
DistanceSpacing: 1
BeatDivisor: 4
GridSize: 32
TimelineZoom: 3.699999

[Metadata]
Title:Gimme Chocolate!!
TitleUnicode:ギミチョコ!!
Artist:BABYMETAL
ArtistUnicode:BABYMETAL
Creator:Rad-
Version:Cheese's Inner Oni
Source:
Tags:J-metal idol rock loli kitsune give me ilikecheese defused bomb nwolf
BeatmapID:438321
BeatmapSetID:162368

[Difficulty]
HPDrainRate:6
CircleSize:4
OverallDifficulty:6
ApproachRate:9
SliderMultiplier:1.4
SliderTickRate:1

[Events]
//Background and Video events
0,0,"babymetal.jpg",0,125
//Break Periods
//Storyboard Layer 0 (Background)
//Storyboard Layer 1 (Fail)
//Storyboard Layer 2 (Pass)
//Storyboard Layer 3 (Foreground)
//Storyboard Sound Samples

[TimingPoints]
9249,272.727272727273,4,1,0,85,1,0
9249,-100,4,1,0,85,0,0
52885,-90.9090909090909,4,1,0,100,0,1
69794,-86.9565217391304,4,1,0,100,0,0
70339,-100,4,1,0,100,0,0
96521,-100,4,1,0,100,0,1
113976,-100,4,1,0,100,0,0
157612,-90.9090909090909,4,1,0,100,0,0
158703,-83.3333333333333,4,1,0,100,0,0
159794,-76.9230769230769,4,1,0,100,0,0
160885,-71.4285714285714,4,1,0,100,0,0
161976,-66.6666666666667,4,1,0,50,0,0
162112,-100,4,1,0,100,0,0
175135,-100,4,2,0,50,0,0
175271,-100,4,2,0,100,0,0
175408,-100,4,2,0,50,0,0
175544,-100,4,2,0,100,0,0
175680,-100,4,2,0,50,0,0
175817,-100,4,2,0,100,0,0
175953,-100,4,2,0,50,0,0
176089,-100,4,2,0,100,0,0
176226,-100,4,2,0,50,0,0
176362,-100,4,2,0,100,0,0
176499,-100,4,2,0,50,0,0
176635,-100,4,2,0,100,0,0
176771,-100,4,2,0,50,0,0
176908,-100,4,2,0,100,0,0
177044,-100,4,2,0,50,0,0
177180,-100,4,2,0,100,0,0
177317,-100,4,2,0,50,0,0
177453,-100,4,2,0,100,0,0
177589,-100,4,2,0,50,0,0
177726,-100,4,2,0,100,0,0
177862,-100,4,2,0,50,0,0
177999,-100,4,2,0,100,0,0
178135,-100,4,2,0,50,0,0
178271,-100,4,2,0,100,0,0
178408,-100,4,2,0,50,0,0
178544,-100,4,2,0,100,0,0
178680,-100,4,2,0,50,0,0
178817,-100,4,2,0,100,0,0
178953,-100,4,2,0,50,0,0
179089,-100,4,2,0,100,0,0
179226,-100,4,2,0,50,0,0
179362,-100,4,2,0,100,0,0
183794,-100,4,1,0,100,0,0
192521,-90.9090909090909,4,1,0,100,0,1
209976,-100,4,1,0,100,0,0

[Colours]
Combo1 : 148,148,148
Combo2 : 0,0,193
Combo3 : 255,0,0

[HitObjects]
232,248,9248,5,8,0:0:0:0:
232,248,9385,1,0,0:0:0:0:
232,248,9521,1,8,0:0:0:0:
232,248,9658,1,0,0:0:0:0:
232,248,9794,1,8,0:0:0:0:
232,248,9930,1,0,0:0:0:0:
232,248,10067,1,8,0:0:0:0:
232,248,10203,1,4,0:0:0:0:
232,248,10476,1,0,0:0:0:0:
232,248,10612,1,8,0:0:0:0:
232,248,10749,1,0,0:0:0:0:
232,248,10885,1,8,0:0:0:0:
232,248,10953,1,0,0:0:0:0:
232,248,11021,1,0,0:0:0:0:
232,248,11089,1,0,0:0:0:0:
232,248,11158,1,8,0:0:0:0:
232,248,11294,1,4,0:0:0:0:
232,248,11567,1,0,0:0:0:0:
232,248,11703,5,8,0:0:0:0:
232,248,11840,1,0,0:0:0:0:
232,248,11976,1,8,0:0:0:0:
232,248,12113,1,8,0:0:0:0:
232,248,12249,1,8,0:0:0:0:
232,248,12385,1,4,0:0:0:0:
232,248,12658,1,8,0:0:0:0:
232,248,12794,1,8,0:0:0:0:
232,248,12930,1,8,0:0:0:0:
232,248,13067,1,8,0:0:0:0:
232,248,13203,1,0,0:0:0:0:
232,248,13339,1,8,0:0:0:0:
232,248,13476,1,0,0:0:0:0:
232,248,13612,1,12,0:0:0:0:
232,248,13749,1,0,0:0:0:0:
232,248,13885,1,8,0:0:0:0:
232,248,14021,1,0,0:0:0:0:
232,248,14158,1,8,0:0:0:0:
232,248,14294,1,8,0:0:0:0:
232,248,14430,1,8,0:0:0:0:
232,248,14567,1,4,0:0:0:0:
232,248,14839,1,0,0:0:0:0:
232,248,14976,1,8,0:0:0:0:
232,248,15112,1,0,0:0:0:0:
232,248,15249,1,8,0:0:0:0:
232,248,15317,1,8,0:0:0:0:
232,248,15385,1,0,0:0:0:0:
232,248,15521,1,8,0:0:0:0:
232,248,15658,1,0,0:0:0:0:
232,248,15794,1,8,0:0:0:0:
232,248,15930,1,0,0:0:0:0:
232,248,16066,1,8,0:0:0:0:
232,248,16202,1,0,0:0:0:0:
232,248,16339,1,8,0:0:0:0:
232,248,16475,1,8,0:0:0:0:
232,248,16612,1,8,0:0:0:0:
232,248,16749,1,4,0:0:0:0:
232,248,17021,1,0,0:0:0:0:
232,248,17157,1,8,0:0:0:0:
232,248,17294,1,0,0:0:0:0:
232,248,17430,1,8,0:0:0:0:
232,248,17567,1,0,0:0:0:0:
232,248,17703,1,8,0:0:0:0:
232,248,17976,1,12,0:0:0:0:
232,248,18112,1,0,0:0:0:0:
232,248,18249,1,8,0:0:0:0:
232,248,18385,1,0,0:0:0:0:
232,248,18521,1,8,0:0:0:0:
232,248,18658,1,0,0:0:0:0:
232,248,18794,1,8,0:0:0:0:
232,248,18930,1,4,0:0:0:0:
232,248,19203,1,8,0:0:0:0:
232,248,19339,1,0,0:0:0:0:
232,248,19476,1,8,0:0:0:0:
232,248,19612,1,8,0:0:0:0:
232,248,19749,1,8,0:0:0:0:
232,248,19817,1,0,0:0:0:0:
232,248,19885,1,8,0:0:0:0:
232,248,20021,1,4,0:0:0:0:
232,248,20294,1,8,0:0:0:0:
232,248,20362,1,0,0:0:0:0:
232,248,20430,1,0,0:0:0:0:
232,248,20567,1,8,0:0:0:0:
232,248,20703,1,8,0:0:0:0:
232,248,20839,1,8,0:0:0:0:
232,248,20976,1,8,0:0:0:0:
232,248,21112,1,0,0:0:0:0:
232,248,21249,1,0,0:0:0:0:
232,248,21385,1,8,0:0:0:0:
232,248,21521,1,0,0:0:0:0:
232,248,21658,1,8,0:0:0:0:
232,248,21794,1,0,0:0:0:0:
232,248,21930,1,8,0:0:0:0:
232,248,22067,1,0,0:0:0:0:
232,248,22203,1,8,0:0:0:0:
232,248,22339,1,4,0:0:0:0:
232,248,22476,1,8,0:0:0:0:
232,248,22612,1,0,0:0:0:0:
232,248,22748,1,8,0:0:0:0:
232,248,22885,1,0,0:0:0:0:
232,248,23021,1,8,0:0:0:0:
232,248,23158,1,0,0:0:0:0:
232,248,23294,1,12,0:0:0:0:
232,248,23567,1,0,0:0:0:0:
232,248,23703,1,8,0:0:0:0:
232,248,23839,1,0,0:0:0:0:
232,248,23976,1,8,0:0:0:0:
232,248,24044,1,8,0:0:0:0:
232,248,24112,1,8,0:0:0:0:
232,248,24249,1,0,0:0:0:0:
232,248,24385,1,8,0:0:0:0:
232,248,24521,1,0,0:0:0:0:
232,248,24658,1,8,0:0:0:0:
232,248,24794,1,8,0:0:0:0:
232,248,24930,1,0,0:0:0:0:
232,248,24999,1,0,0:0:0:0:
232,248,25067,1,0,0:0:0:0:
232,248,25203,1,8,0:0:0:0:
232,248,25339,1,0,0:0:0:0:
232,248,25476,1,12,0:0:0:0:
232,248,25749,1,8,0:0:0:0:
232,248,25884,1,0,0:0:0:0:
232,248,26021,1,0,0:0:0:0:
232,248,26158,1,8,0:0:0:0:
232,248,26294,1,0,0:0:0:0:
232,248,26430,1,8,0:0:0:0:
232,248,26567,1,8,0:0:0:0:
232,248,26703,1,0,0:0:0:0:
232,248,26840,1,8,0:0:0:0:
232,248,26976,1,0,0:0:0:0:
232,248,27112,1,8,0:0:0:0:
232,248,27249,1,0,0:0:0:0:
232,248,27385,1,8,0:0:0:0:
232,248,27521,1,0,0:0:0:0:
232,248,27658,1,12,0:0:0:0:
256,190,27930,1,0,0:0:0:0:
256,190,28067,1,8,0:0:0:0:
256,190,28203,1,0,0:0:0:0:
256,190,28339,1,0,0:0:0:0:
256,190,28408,1,0,0:0:0:0:
256,190,28476,1,0,0:0:0:0:
256,190,28612,1,8,0:0:0:0:
256,190,28749,1,12,0:0:0:0:
256,190,29021,1,0,0:0:0:0:
256,190,29158,1,8,0:0:0:0:
256,190,29294,1,0,0:0:0:0:
256,190,29362,1,0,0:0:0:0:
256,190,29430,1,8,0:0:0:0:
256,190,29567,1,0,0:0:0:0:
256,190,29635,1,0,0:0:0:0:
256,190,29703,1,8,0:0:0:0:
256,190,29771,1,0,0:0:0:0:
256,190,29839,1,0,0:0:0:0:
256,190,30112,1,0,0:0:0:0:
256,190,30249,1,8,0:0:0:0:
256,190,30385,1,0,0:0:0:0:
256,190,30521,1,8,0:0:0:0:
232,248,30658,1,0,0:0:0:0:
232,248,30794,1,8,0:0:0:0:
232,248,30931,1,0,0:0:0:0:
232,248,31067,1,12,0:0:0:0:
232,248,31204,1,0,0:0:0:0:
232,248,31340,1,8,0:0:0:0:
256,190,31476,1,8,0:0:0:0:
256,190,31612,1,0,0:0:0:0:
256,190,31749,1,8,0:0:0:0:
232,248,31885,1,0,0:0:0:0:
232,248,32021,1,12,0:0:0:0:
232,248,32294,1,8,0:0:0:0:
232,248,32431,1,0,0:0:0:0:
232,248,32567,1,8,0:0:0:0:
256,190,32703,1,8,0:0:0:0:
256,190,32771,1,8,0:0:0:0:
256,190,32839,1,0,0:0:0:0:
256,190,32908,1,0,0:0:0:0:
256,190,32976,1,8,0:0:0:0:
256,190,33112,1,8,0:0:0:0:
256,190,33249,1,0,0:0:0:0:
256,190,33385,1,8,0:0:0:0:
256,190,33521,1,0,0:0:0:0:
256,190,33589,1,0,0:0:0:0:
256,190,33658,1,8,0:0:0:0:
256,190,33726,1,0,0:0:0:0:
256,190,33794,1,0,0:0:0:0:
256,190,33930,1,8,0:0:0:0:
256,190,34067,1,8,0:0:0:0:
256,190,34203,1,12,0:0:0:0:
256,190,34476,1,0,0:0:0:0:
256,190,34612,1,0,0:0:0:0:
256,190,34749,1,8,0:0:0:0:
256,190,34885,1,8,0:0:0:0:
256,190,35021,1,0,0:0:0:0:
256,190,35158,1,8,0:0:0:0:
256,190,35294,1,0,0:0:0:0:
256,190,35430,1,8,0:0:0:0:
256,190,35703,1,8,0:0:0:0:
256,190,35771,1,8,0:0:0:0:
256,190,35839,1,0,0:0:0:0:
256,190,35976,1,8,0:0:0:0:
256,190,36112,1,0,0:0:0:0:
256,190,36249,1,8,0:0:0:0:
256,190,36385,1,0,0:0:0:0:
256,190,36453,1,0,0:0:0:0:
256,190,36521,1,8,0:0:0:0:
256,190,36658,1,0,0:0:0:0:
256,190,36794,1,8,0:0:0:0:
256,190,36930,1,0,0:0:0:0:
256,190,36999,1,0,0:0:0:0:
256,190,37067,1,8,0:0:0:0:
256,190,37203,1,0,0:0:0:0:
256,190,37339,1,8,0:0:0:0:
256,190,37476,1,0,0:0:0:0:
256,190,37544,1,0,0:0:0:0:
256,190,37612,1,8,0:0:0:0:
256,190,37749,1,0,0:0:0:0:
256,190,37885,1,8,0:0:0:0:
256,190,38021,1,0,0:0:0:0:
256,190,38157,1,8,0:0:0:0:
256,190,38294,1,0,0:0:0:0:
256,190,38430,1,8,0:0:0:0:
256,190,38567,1,0,0:0:0:0:
256,190,38703,1,8,0:0:0:0:
256,190,38771,1,0,0:0:0:0:
256,190,38839,1,0,0:0:0:0:
256,190,38908,1,0,0:0:0:0:
256,190,38975,1,8,0:0:0:0:
256,190,39112,1,0,0:0:0:0:
256,190,39248,1,8,0:0:0:0:
256,190,39385,1,0,0:0:0:0:
256,190,39521,1,8,0:0:0:0:
256,190,39658,1,0,0:0:0:0:
256,190,39794,1,12,0:0:0:0:
256,190,39930,1,8,0:0:0:0:
256,190,40067,1,8,0:0:0:0:
256,190,40203,1,8,0:0:0:0:
256,190,40339,1,8,0:0:0:0:
256,190,40476,1,4,0:0:0:0:
256,190,40612,1,0,0:0:0:0:
256,190,40748,1,8,0:0:0:0:
256,190,40885,1,0,0:0:0:0:
256,190,41021,1,8,0:0:0:0:
256,190,41158,1,0,0:0:0:0:
256,190,41294,1,0,0:0:0:0:
256,190,41430,1,8,0:0:0:0:
256,190,41567,1,0,0:0:0:0:
256,190,41703,1,8,0:0:0:0:
256,190,41839,1,0,0:0:0:0:
256,190,41908,1,0,0:0:0:0:
256,190,41976,1,8,0:0:0:0:
256,190,42112,1,0,0:0:0:0:
256,190,42249,1,8,0:0:0:0:
256,190,42385,1,0,0:0:0:0:
256,190,42521,1,8,0:0:0:0:
256,190,42658,1,0,0:0:0:0:
256,190,42794,1,8,0:0:0:0:
256,190,42930,1,0,0:0:0:0:
256,190,43067,1,8,0:0:0:0:
256,190,43135,1,8,0:0:0:0:
256,190,43203,1,0,0:0:0:0:
256,190,43271,1,0,0:0:0:0:
256,190,43339,1,0,0:0:0:0:
256,190,43408,1,0,0:0:0:0:
256,190,43476,1,0,0:0:0:0:
256,190,43544,1,0,0:0:0:0:
256,190,43612,1,8,0:0:0:0:
256,190,43680,1,8,0:0:0:0:
256,190,43749,1,8,0:0:0:0:
256,190,43817,1,8,0:0:0:0:
256,190,43885,1,8,0:0:0:0:
256,190,43953,1,0,0:0:0:0:
256,190,44021,1,8,0:0:0:0:
256,190,44089,1,0,0:0:0:0:
256,190,44158,1,8,0:0:0:0:
256,190,44294,1,0,0:0:0:0:
256,190,44362,1,0,0:0:0:0:
256,190,44430,1,8,0:0:0:0:
256,190,44567,1,0,0:0:0:0:
256,190,44703,1,8,0:0:0:0:
256,190,44839,1,0,0:0:0:0:
256,190,44976,1,8,0:0:0:0:
256,190,45112,1,0,0:0:0:0:
256,190,45249,1,8,0:0:0:0:
256,190,45385,1,0,0:0:0:0:
256,190,45453,1,8,0:0:0:0:
256,190,45521,1,0,0:0:0:0:
256,190,45658,1,8,0:0:0:0:
256,190,45794,1,0,0:0:0:0:
256,190,45930,1,8,0:0:0:0:
256,190,45999,1,8,0:0:0:0:
256,190,46067,1,0,0:0:0:0:
256,190,46203,1,0,0:0:0:0:
256,190,46271,1,0,0:0:0:0:
256,190,46339,1,8,0:0:0:0:
256,190,46476,1,0,0:0:0:0:
256,190,46612,1,8,0:0:0:0:
256,190,46749,1,0,0:0:0:0:
256,190,46885,1,8,0:0:0:0:
256,190,47021,1,0,0:0:0:0:
256,190,47158,1,8,0:0:0:0:
256,190,47294,1,8,0:0:0:0:
256,190,47430,1,0,0:0:0:0:
256,190,47567,1,0,0:0:0:0:
256,190,47635,1,0,0:0:0:0:
256,190,47703,1,8,0:0:0:0:
256,190,47839,1,8,0:0:0:0:
256,190,47976,1,0,0:0:0:0:
256,190,48112,1,8,0:0:0:0:
256,190,48180,1,8,0:0:0:0:
256,190,48249,1,0,0:0:0:0:
256,190,48385,1,0,0:0:0:0:
256,190,48521,1,8,0:0:0:0:
256,190,48589,1,0,0:0:0:0:
256,190,48658,1,0,0:0:0:0:
256,190,48794,1,8,0:0:0:0:
256,190,48930,1,0,0:0:0:0:
256,190,49067,1,8,0:0:0:0:
256,190,49135,1,8,0:0:0:0:
256,190,49203,1,0,0:0:0:0:
256,190,49339,1,8,0:0:0:0:
256,190,49476,1,0,0:0:0:0:
256,190,49612,1,8,0:0:0:0:
256,190,49680,1,0,0:0:0:0:
256,190,49749,1,0,0:0:0:0:
256,190,49817,1,0,0:0:0:0:
256,190,49885,1,8,0:0:0:0:
256,190,50021,1,0,0:0:0:0:
256,190,50157,1,8,0:0:0:0:
256,190,50226,1,8,0:0:0:0:
256,190,50294,1,0,0:0:0:0:
256,190,50362,1,0,0:0:0:0:
256,190,50430,1,8,0:0:0:0:
256,190,50567,1,0,0:0:0:0:
256,190,50635,1,0,0:0:0:0:
256,190,50703,1,8,0:0:0:0:
256,190,50839,1,0,0:0:0:0:
256,190,50908,1,0,0:0:0:0:
256,190,50976,1,8,0:0:0:0:
256,190,51112,1,0,0:0:0:0:
256,190,51180,1,0,0:0:0:0:
256,190,51249,1,8,0:0:0:0:
256,190,51385,1,0,0:0:0:0:
256,190,51453,1,0,0:0:0:0:
256,190,51521,1,8,0:0:0:0:
256,190,51658,1,0,0:0:0:0:
256,190,51794,1,8,0:0:0:0:
256,190,51930,1,0,0:0:0:0:
256,190,52067,1,8,0:0:0:0:
256,190,52135,1,0,0:0:0:0:
256,190,52203,1,0,0:0:0:0:
256,190,52271,1,0,0:0:0:0:
256,190,52339,1,8,0:0:0:0:
256,190,52476,1,8,0:0:0:0:
256,192,52885,5,4,0:0:0:0:
256,192,53158,1,8,0:0:0:0:
256,192,53294,1,0,0:0:0:0:
256,192,53362,1,0,0:0:0:0:
256,192,53430,1,0,0:0:0:0:
256,192,53567,1,0,0:0:0:0:
256,192,53703,1,8,0:0:0:0:
256,192,53839,1,4,0:0:0:0:
256,192,54112,1,0,0:0:0:0:
256,192,54180,1,0,0:0:0:0:
256,192,54249,1,8,0:0:0:0:
256,192,54385,1,0,0:0:0:0:
256,192,54521,1,8,0:0:0:0:
256,192,54589,1,8,0:0:0:0:
256,192,54658,1,0,0:0:0:0:
256,192,54794,1,8,0:0:0:0:
256,192,54930,1,12,0:0:0:0:
256,192,55203,1,0,0:0:0:0:
256,192,55271,1,0,0:0:0:0:
256,192,55339,1,0,0:0:0:0:
256,192,55476,1,8,0:0:0:0:
256,192,55612,1,8,0:0:0:0:
256,192,55680,1,8,0:0:0:0:
256,192,55749,1,0,0:0:0:0:
256,192,55885,1,0,0:0:0:0:
256,192,56021,1,12,0:0:0:0:
256,192,56294,1,0,0:0:0:0:
256,192,56362,1,0,0:0:0:0:
256,192,56430,1,8,0:0:0:0:
256,192,56567,1,0,0:0:0:0:
256,192,56703,1,8,0:0:0:0:
256,192,56839,1,0,0:0:0:0:
256,192,56976,1,8,0:0:0:0:
256,192,57112,1,8,0:0:0:0:
256,192,57180,1,8,0:0:0:0:
256,192,57249,1,0,0:0:0:0:
256,192,57521,1,8,0:0:0:0:
256,192,57794,1,0,0:0:0:0:
256,192,57862,1,0,0:0:0:0:
256,192,57930,1,0,0:0:0:0:
256,192,58067,1,8,0:0:0:0:
256,192,58203,1,4,0:0:0:0:
256,192,58476,1,0,0:0:0:0:
256,192,58612,1,8,0:0:0:0:
256,192,58749,1,0,0:0:0:0:
256,192,58817,1,0,0:0:0:0:
256,192,58885,1,8,0:0:0:0:
256,192,58953,1,0,0:0:0:0:
256,192,59021,1,0,0:0:0:0:
256,192,59158,1,0,0:0:0:0:
256,192,59294,1,12,0:0:0:0:
256,192,59567,1,0,0:0:0:0:
256,192,59703,1,8,0:0:0:0:
256,192,59839,1,0,0:0:0:0:
256,192,59976,1,0,0:0:0:0:
256,192,60044,1,0,0:0:0:0:
256,192,60112,1,8,0:0:0:0:
256,192,60249,1,0,0:0:0:0:
256,192,60385,1,12,0:0:0:0:
256,192,60658,1,0,0:0:0:0:
256,192,60726,1,0,0:0:0:0:
256,192,60794,1,8,0:0:0:0:
256,192,60930,1,8,0:0:0:0:
256,192,61067,1,0,0:0:0:0:
256,192,61135,1,0,0:0:0:0:
256,192,61203,1,8,0:0:0:0:
256,192,61339,1,0,0:0:0:0:
256,192,61476,1,8,0:0:0:0:
256,192,61612,1,4,0:0:0:0:
256,192,61885,1,12,0:0:0:0:
256,192,62158,1,0,0:0:0:0:
256,192,62226,1,0,0:0:0:0:
256,192,62294,1,0,0:0:0:0:
256,192,62430,1,8,0:0:0:0:
256,192,62567,1,0,0:0:0:0:
256,192,62839,1,0,0:0:0:0:
256,192,62976,1,8,0:0:0:0:
256,192,63112,1,0,0:0:0:0:
256,192,63180,1,0,0:0:0:0:
256,192,63249,1,8,0:0:0:0:
256,192,63317,1,0,0:0:0:0:
256,192,63385,1,0,0:0:0:0:
256,192,63521,1,0,0:0:0:0:
256,192,63658,1,12,0:0:0:0:
256,192,63930,1,0,0:0:0:0:
256,192,63999,1,0,0:0:0:0:
256,192,64067,1,8,0:0:0:0:
256,192,64203,1,8,0:0:0:0:
256,192,64339,1,0,0:0:0:0:
256,192,64408,1,8,0:0:0:0:
256,192,64476,1,0,0:0:0:0:
256,192,64612,1,0,0:0:0:0:
256,192,64749,1,12,0:0:0:0:
256,192,65021,1,0,0:0:0:0:
256,192,65089,1,0,0:0:0:0:
256,192,65158,1,8,0:0:0:0:
256,192,65294,1,8,0:0:0:0:
256,192,65430,1,0,0:0:0:0:
256,192,65499,1,8,0:0:0:0:
256,192,65567,1,0,0:0:0:0:
256,192,65703,1,8,0:0:0:0:
256,192,65839,1,8,0:0:0:0:
256,192,65908,1,8,0:0:0:0:
256,192,65976,1,0,0:0:0:0:
256,192,66249,1,12,0:0:0:0:
256,192,66521,1,0,0:0:0:0:
256,192,66658,1,0,0:0:0:0:
256,192,66726,1,8,0:0:0:0:
256,192,66794,1,0,0:0:0:0:
256,192,66930,1,4,0:0:0:0:
256,192,67203,1,0,0:0:0:0:
256,192,67271,1,0,0:0:0:0:
256,192,67339,1,8,0:0:0:0:
256,192,67476,1,0,0:0:0:0:
256,192,67612,1,8,0:0:0:0:
256,192,67680,1,0,0:0:0:0:
256,192,67749,1,0,0:0:0:0:
256,192,67817,1,8,0:0:0:0:
256,192,67885,1,0,0:0:0:0:
256,192,68021,1,12,0:0:0:0:
256,192,68294,1,0,0:0:0:0:
256,192,68362,1,0,0:0:0:0:
256,192,68430,1,8,0:0:0:0:
256,192,68567,1,8,0:0:0:0:
256,192,68703,1,8,0:0:0:0:
256,192,68771,1,8,0:0:0:0:
256,192,68839,1,0,0:0:0:0:
256,192,68976,1,0,0:0:0:0:
256,192,69112,1,12,0:0:0:0:
256,192,69385,1,0,0:0:0:0:
256,192,69453,1,0,0:0:0:0:
256,192,69521,1,0,0:0:0:0:
256,192,69658,1,8,0:0:0:0:
256,192,69794,5,4,0:0:0:0:
256,192,70067,1,4,0:0:0:0:
256,190,70339,5,4,0:0:0:0:
256,190,70476,1,8,0:0:0:0:
256,190,70612,1,0,0:0:0:0:
256,190,70749,1,8,0:0:0:0:
256,190,70885,1,0,0:0:0:0:
256,190,71021,1,8,0:0:0:0:
256,190,71157,1,0,0:0:0:0:
256,190,71294,1,12,0:0:0:0:
256,190,71567,1,8,0:0:0:0:
256,190,71703,1,0,0:0:0:0:
256,190,71839,1,8,0:0:0:0:
256,190,71976,1,0,0:0:0:0:
256,190,72044,1,0,0:0:0:0:
256,190,72112,1,0,0:0:0:0:
256,190,72249,1,8,0:0:0:0:
256,190,72385,1,4,0:0:0:0:
256,190,72521,1,8,0:0:0:0:
256,190,72658,1,0,0:0:0:0:
256,190,72794,1,8,0:0:0:0:
256,190,72930,1,8,0:0:0:0:
256,190,73067,1,0,0:0:0:0:
256,190,73203,1,8,0:0:0:0:
256,190,73339,1,0,0:0:0:0:
256,190,73476,1,12,0:0:0:0:
256,190,73749,1,8,0:0:0:0:
256,190,73885,1,0,0:0:0:0:
256,190,74021,1,8,0:0:0:0:
256,190,74158,1,0,0:0:0:0:
256,190,74294,1,8,0:0:0:0:
256,190,74430,1,8,0:0:0:0:
256,190,74567,1,0,0:0:0:0:
256,190,74703,1,0,0:0:0:0:
256,190,74839,1,8,0:0:0:0:
256,190,74976,1,0,0:0:0:0:
256,190,75112,1,8,0:0:0:0:
256,190,75249,1,8,0:0:0:0:
256,190,75385,1,8,0:0:0:0:
256,190,75521,1,0,0:0:0:0:
256,190,75658,1,8,0:0:0:0:
256,190,75794,1,0,0:0:0:0:
256,190,75930,1,8,0:0:0:0:
256,190,76067,1,0,0:0:0:0:
256,190,76203,1,8,0:0:0:0:
256,188,76339,1,0,0:0:0:0:
256,188,76408,1,0,0:0:0:0:
256,188,76476,1,0,0:0:0:0:
256,188,76544,1,0,0:0:0:0:
256,188,76612,1,8,0:0:0:0:
256,190,76749,1,4,0:0:0:0:
256,190,77021,1,0,0:0:0:0:
256,190,77089,1,0,0:0:0:0:
256,190,77157,1,0,0:0:0:0:
256,188,77294,1,8,0:0:0:0:
256,188,77430,1,0,0:0:0:0:
256,188,77499,1,0,0:0:0:0:
256,188,77567,1,8,0:0:0:0:
256,188,77635,1,8,0:0:0:0:
256,188,77703,1,0,0:0:0:0:
256,188,77839,1,4,0:0:0:0:
256,188,78112,1,8,0:0:0:0:
256,188,78180,1,8,0:0:0:0:
256,190,78249,1,0,0:0:0:0:
256,190,78385,1,8,0:0:0:0:
256,190,78521,1,0,0:0:0:0:
256,190,78658,1,8,0:0:0:0:
256,188,78794,1,8,0:0:0:0:
256,188,78930,1,8,0:0:0:0:
256,188,79067,1,4,0:0:0:0:
256,188,79203,1,0,0:0:0:0:
256,188,79339,1,8,0:0:0:0:
256,188,79476,1,0,0:0:0:0:
256,188,79612,1,0,0:0:0:0:
256,188,79749,1,0,0:0:0:0:
256,190,79885,1,8,0:0:0:0:
256,188,80021,1,0,0:0:0:0:
256,188,80157,1,0,0:0:0:0:
256,188,80294,1,0,0:0:0:0:
256,190,80430,1,8,0:0:0:0:
256,188,80567,1,0,0:0:0:0:
256,188,80703,1,8,0:0:0:0:
256,188,80840,1,0,0:0:0:0:
256,190,80976,1,8,0:0:0:0:
256,188,81112,1,0,0:0:0:0:
256,188,81180,1,0,0:0:0:0:
256,188,81248,1,8,0:0:0:0:
256,188,81385,1,0,0:0:0:0:
256,190,81521,1,8,0:0:0:0:
256,188,81658,1,0,0:0:0:0:
256,188,81794,1,0,0:0:0:0:
256,188,81931,1,0,0:0:0:0:
256,190,82067,1,8,0:0:0:0:
256,188,82203,1,0,0:0:0:0:
256,188,82339,1,0,0:0:0:0:
256,188,82476,1,0,0:0:0:0:
256,190,82612,1,8,0:0:0:0:
256,188,82749,1,0,0:0:0:0:
256,188,82885,1,8,0:0:0:0:
256,188,83022,1,0,0:0:0:0:
256,190,83158,1,8,0:0:0:0:
256,188,83294,1,0,0:0:0:0:
256,188,83430,1,8,0:0:0:0:
256,188,83567,1,0,0:0:0:0:
256,190,83703,1,8,0:0:0:0:
256,188,83839,1,0,0:0:0:0:
256,188,83975,1,8,0:0:0:0:
256,188,84112,1,0,0:0:0:0:
256,190,84248,1,8,0:0:0:0:
256,188,84385,1,0,0:0:0:0:
256,188,84521,1,0,0:0:0:0:
256,188,84658,1,0,0:0:0:0:
256,190,84794,1,8,0:0:0:0:
256,188,84930,1,0,0:0:0:0:
256,188,85066,1,0,0:0:0:0:
256,188,85203,1,0,0:0:0:0:
256,190,85339,1,8,0:0:0:0:
256,188,85476,1,0,0:0:0:0:
256,188,85544,1,0,0:0:0:0:
256,188,85612,1,8,0:0:0:0:
256,188,85749,1,0,0:0:0:0:
256,190,85885,1,8,0:0:0:0:
256,188,86021,1,0,0:0:0:0:
256,188,86157,1,0,0:0:0:0:
256,188,86294,1,0,0:0:0:0:
256,190,86430,1,8,0:0:0:0:
256,188,86567,1,0,0:0:0:0:
256,188,86703,1,0,0:0:0:0:
256,188,86840,1,0,0:0:0:0:
256,190,86976,1,8,0:0:0:0:
256,188,87112,1,0,0:0:0:0:
256,188,87249,1,8,0:0:0:0:
256,190,87385,1,8,0:0:0:0:
256,188,87521,1,8,0:0:0:0:
256,188,87658,1,8,0:0:0:0:
256,188,87794,1,0,0:0:0:0:
256,190,87930,1,0,0:0:0:0:
256,190,87998,1,0,0:0:0:0:
256,190,88067,1,8,0:0:0:0:
256,190,88203,1,0,0:0:0:0:
256,190,88339,1,8,0:0:0:0:
256,190,88476,1,0,0:0:0:0:
256,190,88612,1,8,0:0:0:0:
256,190,88748,1,0,0:0:0:0:
256,190,88885,1,8,0:0:0:0:
256,190,89021,1,0,0:0:0:0:
256,190,89089,1,0,0:0:0:0:
256,190,89157,1,0,0:0:0:0:
256,190,89294,1,8,0:0:0:0:
256,190,89430,1,0,0:0:0:0:
256,190,89567,1,8,0:0:0:0:
256,190,89703,1,0,0:0:0:0:
256,190,89771,1,8,0:0:0:0:
256,190,89839,1,0,0:0:0:0:
256,190,89976,1,8,0:0:0:0:
256,190,90112,1,0,0:0:0:0:
256,190,90248,1,8,0:0:0:0:
256,190,90385,1,0,0:0:0:0:
256,190,90521,1,8,0:0:0:0:
256,190,90657,1,0,0:0:0:0:
256,190,90794,1,8,0:0:0:0:
256,190,90930,1,8,0:0:0:0:
256,190,91067,1,0,0:0:0:0:
256,190,91203,1,0,0:0:0:0:
256,190,91271,1,0,0:0:0:0:
256,190,91339,1,8,0:0:0:0:
256,190,91476,1,8,0:0:0:0:
256,190,91612,1,0,0:0:0:0:
256,190,91748,1,8,0:0:0:0:
256,190,91885,1,0,0:0:0:0:
256,190,91953,1,8,0:0:0:0:
256,190,92021,1,0,0:0:0:0:
256,190,92157,1,8,0:0:0:0:
256,192,92226,1,0,0:0:0:0:
256,190,92294,1,0,0:0:0:0:
256,190,92362,1,0,0:0:0:0:
256,190,92430,1,8,0:0:0:0:
256,190,92567,1,0,0:0:0:0:
256,190,92703,1,8,0:0:0:0:
256,190,92771,1,8,0:0:0:0:
256,190,92839,1,0,0:0:0:0:
256,190,92976,1,8,0:0:0:0:
256,190,93112,1,0,0:0:0:0:
256,190,93249,1,0,0:0:0:0:
256,190,93317,1,0,0:0:0:0:
256,190,93385,1,8,0:0:0:0:
256,190,93453,1,0,0:0:0:0:
256,190,93521,1,0,0:0:0:0:
256,190,93658,1,8,0:0:0:0:
256,190,93794,1,8,0:0:0:0:
256,190,93862,1,8,0:0:0:0:
256,190,93930,1,0,0:0:0:0:
256,190,94067,1,8,0:0:0:0:
256,190,94203,1,0,0:0:0:0:
256,190,94271,1,0,0:0:0:0:
256,190,94339,1,8,0:0:0:0:
256,190,94476,1,0,0:0:0:0:
256,190,94612,1,8,0:0:0:0:
256,190,94749,1,0,0:0:0:0:
256,190,94885,1,8,0:0:0:0:
256,190,95021,1,0,0:0:0:0:
256,190,95158,1,8,0:0:0:0:
256,190,95294,1,0,0:0:0:0:
256,190,95430,1,8,0:0:0:0:
256,190,95499,1,8,0:0:0:0:
256,190,95567,1,8,0:0:0:0:
256,190,95635,1,8,0:0:0:0:
256,190,95703,1,0,0:0:0:0:
256,190,95771,1,0,0:0:0:0:
256,190,95839,1,0,0:0:0:0:
256,190,95908,1,0,0:0:0:0:
256,190,95976,1,8,0:0:0:0:
256,190,96112,1,8,0:0:0:0:
256,192,96521,5,4,0:0:0:0:
256,192,96794,1,12,0:0:0:0:
256,192,97067,1,0,0:0:0:0:
224,192,97135,1,0,0:0:0:0:
256,192,97203,1,0,0:0:0:0:
256,192,97339,1,8,0:0:0:0:
256,192,97476,1,4,0:0:0:0:
256,192,97749,1,0,0:0:0:0:
256,192,97885,1,8,0:0:0:0:
256,192,98021,1,0,0:0:0:0:
256,192,98158,1,0,0:0:0:0:
256,192,98226,1,0,0:0:0:0:
256,192,98294,1,0,0:0:0:0:
256,192,98430,1,8,0:0:0:0:
256,192,98567,1,12,0:0:0:0:
256,192,98839,1,0,0:0:0:0:
256,192,98976,1,8,0:0:0:0:
256,192,99112,1,0,0:0:0:0:
256,192,99249,1,8,0:0:0:0:
256,192,99317,1,0,0:0:0:0:
256,192,99385,1,0,0:0:0:0:
256,192,99521,1,8,0:0:0:0:
256,192,99658,1,12,0:0:0:0:
256,192,99930,1,0,0:0:0:0:
256,192,100067,1,8,0:0:0:0:
256,192,100203,1,8,0:0:0:0:
256,192,100339,1,8,0:0:0:0:
256,192,100408,1,8,0:0:0:0:
256,192,100476,1,0,0:0:0:0:
256,192,100612,1,8,0:0:0:0:
256,192,100749,1,8,0:0:0:0:
256,192,100885,1,4,0:0:0:0:
256,192,101158,1,8,0:0:0:0:
256,192,101430,1,0,0:0:0:0:
256,192,101567,1,0,0:0:0:0:
256,192,101635,1,0,0:0:0:0:
256,192,101703,1,8,0:0:0:0:
256,192,101839,1,4,0:0:0:0:
256,192,102112,1,0,0:0:0:0:
256,192,102249,1,8,0:0:0:0:
256,192,102521,1,0,0:0:0:0:
256,192,102589,1,0,0:0:0:0:
256,192,102658,1,0,0:0:0:0:
256,192,102794,1,8,0:0:0:0:
256,192,102930,1,12,0:0:0:0:
256,192,103203,1,0,0:0:0:0:
256,192,103339,1,8,0:0:0:0:
256,192,103612,1,0,0:0:0:0:
256,192,103749,1,0,0:0:0:0:
256,192,103817,1,0,0:0:0:0:
256,192,103885,1,8,0:0:0:0:
256,192,104021,1,12,0:0:0:0:
256,192,104294,1,0,0:0:0:0:
256,192,104430,1,8,0:0:0:0:
256,192,104567,1,8,0:0:0:0:
256,192,104703,1,0,0:0:0:0:
256,192,104771,1,8,0:0:0:0:
256,192,104839,1,0,0:0:0:0:
256,192,104976,1,8,0:0:0:0:
256,192,105112,1,8,0:0:0:0:
256,192,105180,1,8,0:0:0:0:
256,192,105249,1,0,0:0:0:0:
256,192,105521,1,8,0:0:0:0:
256,192,105794,1,0,0:0:0:0:
256,192,105930,1,0,0:0:0:0:
256,224,105999,1,0,0:0:0:0:
256,192,106067,1,8,0:0:0:0:
256,192,106203,1,4,0:0:0:0:
256,192,106476,1,0,0:0:0:0:
256,192,106612,1,8,0:0:0:0:
256,192,106885,1,0,0:0:0:0:
256,192,106953,1,0,0:0:0:0:
256,192,107021,1,0,0:0:0:0:
256,192,107158,1,8,0:0:0:0:
256,192,107294,1,12,0:0:0:0:
256,192,107567,1,0,0:0:0:0:
256,192,107703,1,8,0:0:0:0:
256,192,107839,1,0,0:0:0:0:
256,192,107976,1,8,0:0:0:0:
256,192,108044,1,8,0:0:0:0:
256,192,108112,1,0,0:0:0:0:
256,192,108249,1,0,0:0:0:0:
256,192,108385,1,12,0:0:0:0:
256,192,108658,1,0,0:0:0:0:
256,192,108726,1,0,0:0:0:0:
256,192,108794,1,8,0:0:0:0:
256,192,108930,1,0,0:0:0:0:
256,192,108999,1,8,0:0:0:0:
256,192,109067,1,0,0:0:0:0:
256,192,109203,1,0,0:0:0:0:
256,192,109339,1,8,0:0:0:0:
256,192,109612,1,4,0:0:0:0:
256,192,109885,1,8,0:0:0:0:
256,192,110158,1,0,0:0:0:0:
256,192,110226,1,0,0:0:0:0:
256,192,110294,1,0,0:0:0:0:
256,192,110430,1,8,0:0:0:0:
256,192,110567,1,4,0:0:0:0:
256,192,110839,1,0,0:0:0:0:
256,192,110976,1,8,0:0:0:0:
256,192,111112,1,0,0:0:0:0:
256,192,111249,1,8,0:0:0:0:
256,192,111317,1,8,0:0:0:0:
256,192,111385,1,0,0:0:0:0:
256,192,111521,1,8,0:0:0:0:
256,192,111658,1,8,0:0:0:0:
256,192,111930,1,0,0:0:0:0:
256,192,112067,1,8,0:0:0:0:
256,192,112203,1,8,0:0:0:0:
256,192,112339,1,0,0:0:0:0:
256,192,112476,1,0,0:0:0:0:
256,192,112544,1,0,0:0:0:0:
256,192,112612,1,8,0:0:0:0:
256,192,112749,1,12,0:0:0:0:
256,192,113021,1,0,0:0:0:0:
256,192,113158,1,8,0:0:0:0:
256,192,113294,1,8,0:0:0:0:
256,192,113430,1,0,0:0:0:0:
256,192,113567,1,8,0:0:0:0:
256,192,113635,1,0,0:0:0:0:
256,192,113703,1,8,0:0:0:0:
256,192,113976,1,4,0:0:0:0:
256,190,114249,1,8,0:0:0:0:
256,190,114385,1,8,0:0:0:0:
256,190,114521,1,0,0:0:0:0:
256,190,114658,1,0,0:0:0:0:
256,190,114794,1,0,0:0:0:0:
256,190,114930,1,8,0:0:0:0:
256,190,115203,1,8,0:0:0:0:
256,190,115339,1,8,0:0:0:0:
256,190,115476,1,0,0:0:0:0:
256,190,115612,1,8,0:0:0:0:
256,190,115749,1,8,0:0:0:0:
256,190,115885,1,0,0:0:0:0:
256,190,116021,1,4,0:0:0:0:
256,190,116294,1,0,0:0:0:0:
256,190,116430,1,8,0:0:0:0:
256,190,116567,1,0,0:0:0:0:
256,190,116635,1,0,0:0:0:0:
256,190,116703,1,0,0:0:0:0:
256,190,116839,1,0,0:0:0:0:
256,190,116907,1,8,0:0:0:0:
256,190,116976,1,8,0:0:0:0:
256,190,117112,1,12,0:0:0:0:
256,190,117521,1,8,0:0:0:0:
256,190,117794,1,0,0:0:0:0:
256,190,117930,1,8,0:0:0:0:
256,190,118067,1,8,0:0:0:0:
256,190,118203,1,12,0:0:0:0:
256,190,118612,1,8,0:0:0:0:
256,190,118749,1,8,0:0:0:0:
256,190,118885,1,0,0:0:0:0:
256,190,119021,1,0,0:0:0:0:
256,190,119158,1,0,0:0:0:0:
256,190,119294,1,8,0:0:0:0:
256,190,119703,1,8,0:0:0:0:
256,190,119839,1,8,0:0:0:0:
256,190,119976,1,0,0:0:0:0:
256,190,120112,1,0,0:0:0:0:
256,190,120249,1,8,0:0:0:0:
256,190,120385,1,8,0:0:0:0:
256,190,120794,1,8,0:0:0:0:
256,190,120930,1,0,0:0:0:0:
256,190,121067,1,8,0:0:0:0:
256,190,121203,1,0,0:0:0:0:
256,190,121339,1,8,0:0:0:0:
256,190,121476,1,8,0:0:0:0:
256,190,121885,1,8,0:0:0:0:
256,190,122021,1,0,0:0:0:0:
256,190,122157,1,8,0:0:0:0:
256,190,122294,1,8,0:0:0:0:
256,190,122430,1,8,0:0:0:0:
256,190,122567,1,0,0:0:0:0:
256,190,122703,1,12,0:0:0:0:
256,190,122840,1,0,0:0:0:0:
256,190,122976,1,8,0:0:0:0:
256,190,123112,1,0,0:0:0:0:
256,190,123249,1,8,0:0:0:0:
256,190,123385,1,0,0:0:0:0:
256,190,123521,1,8,0:0:0:0:
256,190,123658,1,4,0:0:0:0:
256,190,123931,1,8,0:0:0:0:
256,190,124067,1,8,0:0:0:0:
256,190,124203,1,8,0:0:0:0:
256,190,124340,1,0,0:0:0:0:
256,190,124408,1,0,0:0:0:0:
256,190,124476,1,8,0:0:0:0:
248,168,124544,1,0,0:0:0:0:
256,192,124612,1,0,0:0:0:0:
256,192,124749,1,8,0:0:0:0:
256,192,124885,1,0,0:0:0:0:
256,192,125021,1,8,0:0:0:0:
256,192,125090,1,0,0:0:0:0:
256,192,125158,1,0,0:0:0:0:
256,192,125294,1,8,0:0:0:0:
248,168,125362,1,0,0:0:0:0:
256,192,125431,1,8,0:0:0:0:
256,192,125567,1,8,0:0:0:0:
232,248,125703,1,0,0:0:0:0:
232,248,125839,1,4,0:0:0:0:
232,248,126112,1,0,0:0:0:0:
232,248,126249,1,8,0:0:0:0:
232,248,126385,1,0,0:0:0:0:
232,248,126521,1,8,0:0:0:0:
232,248,126658,1,0,0:0:0:0:
232,248,126794,1,8,0:0:0:0:
232,248,126931,1,0,0:0:0:0:
232,248,127067,1,12,0:0:0:0:
232,248,127203,1,0,0:0:0:0:
232,248,127340,1,8,0:0:0:0:
232,248,127476,1,0,0:0:0:0:
232,248,127612,1,8,0:0:0:0:
232,248,127749,1,0,0:0:0:0:
232,248,127885,1,8,0:0:0:0:
232,248,128021,1,4,0:0:0:0:
232,248,128294,1,0,0:0:0:0:
232,248,128431,1,8,0:0:0:0:
232,248,128567,1,0,0:0:0:0:
232,248,128703,1,8,0:0:0:0:
232,248,128771,1,8,0:0:0:0:
232,248,128840,1,8,0:0:0:0:
232,248,128908,1,0,0:0:0:0:
232,248,128976,1,0,0:0:0:0:
232,248,129112,1,8,0:0:0:0:
232,248,129249,1,0,0:0:0:0:
232,248,129385,1,8,0:0:0:0:
232,248,129521,1,8,0:0:0:0:
232,248,129658,1,0,0:0:0:0:
232,248,129726,1,0,0:0:0:0:
232,248,129794,1,0,0:0:0:0:
232,248,129931,1,8,0:0:0:0:
232,248,130067,1,0,0:0:0:0:
232,248,130203,1,12,0:0:0:0:
232,248,130340,1,0,0:0:0:0:
232,248,130476,1,8,0:0:0:0:
232,248,130612,1,0,0:0:0:0:
232,248,130749,1,0,0:0:0:0:
232,248,130885,1,8,0:0:0:0:
232,248,131021,1,0,0:0:0:0:
232,248,131158,1,8,0:0:0:0:
232,248,131294,1,8,0:0:0:0:
232,248,131431,1,4,0:0:0:0:
232,248,131567,1,8,0:0:0:0:
232,248,131703,1,0,0:0:0:0:
232,248,131840,1,8,0:0:0:0:
232,248,131976,1,0,0:0:0:0:
232,248,132112,1,8,0:0:0:0:
232,248,132249,1,0,0:0:0:0:
232,248,132385,1,12,0:0:0:0:
256,190,132658,1,0,0:0:0:0:
256,190,132794,1,8,0:0:0:0:
256,190,132931,1,0,0:0:0:0:
256,190,133067,1,0,0:0:0:0:
256,190,133135,1,0,0:0:0:0:
256,190,133203,1,0,0:0:0:0:
256,192,133271,1,0,0:0:0:0:
256,190,133340,1,8,0:0:0:0:
256,190,133476,1,12,0:0:0:0:
256,190,133749,1,0,0:0:0:0:
256,190,133885,1,8,0:0:0:0:
256,190,134021,1,0,0:0:0:0:
256,190,134090,1,0,0:0:0:0:
256,190,134158,1,8,0:0:0:0:
256,190,134294,1,0,0:0:0:0:
256,190,134362,1,0,0:0:0:0:
256,190,134431,1,8,0:0:0:0:
256,190,134499,1,0,0:0:0:0:
256,190,134567,1,0,0:0:0:0:
256,190,134840,1,0,0:0:0:0:
256,190,134976,1,8,0:0:0:0:
256,190,135112,1,0,0:0:0:0:
256,190,135249,1,8,0:0:0:0:
232,248,135385,1,0,0:0:0:0:
232,248,135521,1,8,0:0:0:0:
232,248,135658,1,0,0:0:0:0:
232,248,135794,1,12,0:0:0:0:
232,248,135931,1,0,0:0:0:0:
232,248,136067,1,8,0:0:0:0:
256,190,136203,1,8,0:0:0:0:
256,190,136340,1,0,0:0:0:0:
256,190,136476,1,8,0:0:0:0:
232,248,136612,1,0,0:0:0:0:
232,248,136749,1,12,0:0:0:0:
232,248,137021,1,8,0:0:0:0:
232,248,137158,1,0,0:0:0:0:
232,248,137294,1,8,0:0:0:0:
256,190,137431,1,8,0:0:0:0:
256,190,137499,1,0,0:0:0:0:
256,190,137567,1,0,0:0:0:0:
256,190,137635,1,0,0:0:0:0:
256,190,137703,1,8,0:0:0:0:
256,190,137771,1,0,0:0:0:0:
256,190,137840,1,8,0:0:0:0:
256,190,137976,1,0,0:0:0:0:
256,190,138044,1,0,0:0:0:0:
256,190,138112,1,0,0:0:0:0:
256,190,138249,1,8,0:0:0:0:
256,190,138317,1,0,0:0:0:0:
256,190,138385,1,0,0:0:0:0:
256,190,138453,1,0,0:0:0:0:
256,190,138521,1,0,0:0:0:0:
256,190,138658,1,8,0:0:0:0:
256,190,138794,1,8,0:0:0:0:
256,190,138931,1,12,0:0:0:0:
256,190,139203,1,0,0:0:0:0:
256,190,139340,1,0,0:0:0:0:
256,190,139476,1,8,0:0:0:0:
256,190,139612,1,8,0:0:0:0:
256,190,139749,1,0,0:0:0:0:
256,190,139885,1,8,0:0:0:0:
256,190,140021,1,0,0:0:0:0:
256,190,140158,5,8,0:0:0:0:
256,190,140226,1,8,0:0:0:0:
256,190,140294,1,8,0:0:0:0:
256,190,140362,1,8,0:0:0:0:
256,190,140430,1,0,0:0:0:0:
256,190,140499,1,0,0:0:0:0:
256,190,140567,1,8,0:0:0:0:
256,190,140635,1,8,0:0:0:0:
256,190,140703,1,8,0:0:0:0:
256,190,140771,1,8,0:0:0:0:
256,190,140839,1,0,0:0:0:0:
256,190,140908,1,0,0:0:0:0:
256,190,140976,1,8,0:0:0:0:
256,190,141044,1,8,0:0:0:0:
256,190,141112,1,8,0:0:0:0:
256,190,141180,1,8,0:0:0:0:
256,190,141249,1,0,0:0:0:0:
256,190,141317,1,0,0:0:0:0:
256,190,141385,1,8,0:0:0:0:
256,190,141453,1,8,0:0:0:0:
256,190,141521,1,8,0:0:0:0:
256,190,141589,1,8,0:0:0:0:
256,190,141658,1,0,0:0:0:0:
256,190,141726,1,0,0:0:0:0:
256,190,141794,1,8,0:0:0:0:
256,190,141862,1,8,0:0:0:0:
256,190,141930,1,8,0:0:0:0:
256,190,141999,1,8,0:0:0:0:
256,190,142067,1,0,0:0:0:0:
256,190,142135,1,0,0:0:0:0:
256,190,142203,1,8,0:0:0:0:
256,190,142271,1,8,0:0:0:0:
256,190,142339,1,8,0:0:0:0:
256,190,142408,1,8,0:0:0:0:
256,190,142476,1,0,0:0:0:0:
256,190,142544,1,0,0:0:0:0:
256,190,142612,1,8,0:0:0:0:
256,190,142680,1,0,0:0:0:0:
256,190,142749,1,0,0:0:0:0:
256,190,142817,1,0,0:0:0:0:
256,190,142885,1,8,0:0:0:0:
256,190,142953,1,0,0:0:0:0:
256,190,143021,1,0,0:0:0:0:
256,190,143089,1,0,0:0:0:0:
256,190,143158,1,8,0:0:0:0:
256,190,143226,1,8,0:0:0:0:
256,190,143294,1,0,0:0:0:0:
256,190,143362,1,0,0:0:0:0:
256,190,143430,1,8,0:0:0:0:
256,190,143499,1,0,0:0:0:0:
256,190,143567,1,0,0:0:0:0:
256,190,143635,1,0,0:0:0:0:
256,190,143703,1,8,0:0:0:0:
256,192,143771,12,8,144385,0:0:0:0:
256,190,144521,5,0,0:0:0:0:
256,190,144589,5,0,0:0:0:0:
256,190,144658,1,8,0:0:0:0:
256,190,144726,1,8,0:0:0:0:
256,190,144794,1,8,0:0:0:0:
256,190,144862,1,0,0:0:0:0:
256,190,144930,1,8,0:0:0:0:
256,190,144999,1,8,0:0:0:0:
256,190,145067,1,0,0:0:0:0:
256,190,145135,1,0,0:0:0:0:
256,190,145203,1,8,0:0:0:0:
256,190,145271,1,8,0:0:0:0:
256,190,145339,1,0,0:0:0:0:
256,190,145408,1,0,0:0:0:0:
256,190,145476,1,8,0:0:0:0:
256,190,145612,1,0,0:0:0:0:
0,184,145680,1,0,0:0:0:0:
0,184,145749,1,8,0:0:0:0:
0,184,145817,1,8,0:0:0:0:
16,188,145885,1,0,0:0:0:0:
16,188,145953,1,8,0:0:0:0:
16,188,146021,1,8,0:0:0:0:
104,224,146089,1,8,0:0:0:0:
104,224,146158,1,0,0:0:0:0:
104,224,146226,1,0,0:0:0:0:
104,224,146294,1,0,0:0:0:0:
104,224,146362,1,0,0:0:0:0:
104,224,146430,1,8,0:0:0:0:
104,224,146499,1,0,0:0:0:0:
104,224,146567,1,0,0:0:0:0:
104,224,146635,1,0,0:0:0:0:
104,224,146703,1,8,0:0:0:0:
104,224,146771,1,0,0:0:0:0:
104,224,146839,1,0,0:0:0:0:
104,224,146908,1,0,0:0:0:0:
104,224,146976,1,8,0:0:0:0:
104,224,147044,1,0,0:0:0:0:
104,224,147112,1,8,0:0:0:0:
104,224,147180,1,8,0:0:0:0:
104,224,147249,1,0,0:0:0:0:
128,224,147317,1,8,0:0:0:0:
160,224,147385,1,0,0:0:0:0:
192,224,147453,1,0,0:0:0:0:
224,192,147521,1,8,0:0:0:0:
0,140,147589,1,0,0:0:0:0:
0,140,147658,1,8,0:0:0:0:
0,140,147726,1,8,0:0:0:0:
0,140,147794,1,0,0:0:0:0:
32,160,147862,1,8,0:0:0:0:
64,160,147930,1,0,0:0:0:0:
96,160,147999,1,0,0:0:0:0:
128,160,148067,1,8,0:0:0:0:
0,140,148135,1,0,0:0:0:0:
0,140,148203,1,8,0:0:0:0:
0,140,148271,1,8,0:0:0:0:
0,140,148339,1,0,0:0:0:0:
0,140,148408,1,0,0:0:0:0:
0,140,148476,1,8,0:0:0:0:
0,140,148544,1,8,0:0:0:0:
0,140,148612,1,0,0:0:0:0:
0,140,148680,1,0,0:0:0:0:
0,140,148749,1,8,0:0:0:0:
0,140,148817,1,8,0:0:0:0:
0,140,148885,1,0,0:0:0:0:
256,192,148953,1,8,0:0:0:0:
0,140,149021,1,8,0:0:0:0:
0,140,149089,1,0,0:0:0:0:
0,140,149158,1,8,0:0:0:0:
256,192,149294,12,8,149635,0:0:0:0:
88,164,149771,5,8,0:0:0:0:
88,164,149839,1,0,0:0:0:0:
88,164,149908,1,0,0:0:0:0:
128,160,149976,1,8,0:0:0:0:
256,192,150044,12,0,150385,0:0:0:0:
88,164,150521,5,8,0:0:0:0:
0,152,150658,1,0,0:0:0:0:
0,152,150794,1,0,0:0:0:0:
0,152,150930,1,8,0:0:0:0:
0,152,151067,1,0,0:0:0:0:
0,152,151135,1,8,0:0:0:0:
0,152,151203,1,0,0:0:0:0:
0,152,151271,1,0,0:0:0:0:
0,152,151339,1,8,0:0:0:0:
0,152,151408,1,0,0:0:0:0:
0,152,151476,1,0,0:0:0:0:
0,152,151544,1,8,0:0:0:0:
0,152,151612,1,0,0:0:0:0:
0,152,151680,1,8,0:0:0:0:
0,152,151749,1,0,0:0:0:0:
0,152,151817,1,0,0:0:0:0:
0,152,151885,1,8,0:0:0:0:
0,152,151953,1,0,0:0:0:0:
0,152,152021,1,0,0:0:0:0:
0,140,152089,1,8,0:0:0:0:
256,192,152158,12,0,153112,0:0:0:0:
0,152,153249,5,8,0:0:0:0:
32,160,153317,1,8,0:0:0:0:
84,140,153385,1,8,0:0:0:0:
32,160,153521,1,0,0:0:0:0:
32,160,153658,1,8,0:0:0:0:
64,160,153726,1,8,0:0:0:0:
80,140,153794,1,8,0:0:0:0:
160,160,153930,1,0,0:0:0:0:
108,48,153999,1,0,0:0:0:0:
108,48,154067,1,8,0:0:0:0:
108,48,154203,1,0,0:0:0:0:
108,48,154339,1,8,0:0:0:0:
108,48,154408,1,8,0:0:0:0:
108,48,154476,1,8,0:0:0:0:
108,48,154612,1,0,0:0:0:0:
108,48,154680,1,0,0:0:0:0:
108,48,154749,1,8,0:0:0:0:
108,48,154817,1,8,0:0:0:0:
136,80,154885,1,8,0:0:0:0:
208,336,154953,1,0,0:0:0:0:
208,336,155021,1,8,0:0:0:0:
208,336,155089,1,0,0:0:0:0:
232,300,155158,1,8,0:0:0:0:
208,336,155226,1,8,0:0:0:0:
208,336,155294,1,0,0:0:0:0:
208,336,155362,1,0,0:0:0:0:
208,336,155430,1,8,0:0:0:0:
256,192,155499,1,0,0:0:0:0:
260,268,155567,1,0,0:0:0:0:
256,192,155635,1,0,0:0:0:0:
224,268,155703,1,8,0:0:0:0:
256,192,155771,1,0,0:0:0:0:
0,168,155839,1,0,0:0:0:0:
0,168,155908,1,0,0:0:0:0:
0,168,155976,1,8,0:0:0:0:
256,192,156044,1,0,0:0:0:0:
0,168,156112,1,0,0:0:0:0:
256,192,156180,1,0,0:0:0:0:
0,168,156249,1,8,0:0:0:0:
256,192,156317,1,8,0:0:0:0:
256,192,156385,1,8,0:0:0:0:
0,168,156453,1,0,0:0:0:0:
40,164,156521,1,8,0:0:0:0:
256,192,156589,12,4,157476,0:0:0:0:
256,192,157612,5,12,0:0:0:0:
256,192,157885,1,0,0:0:0:0:
256,192,158158,1,0,0:0:0:0:
256,192,158430,1,0,0:0:0:0:
256,192,158703,1,12,0:0:0:0:
256,192,158976,1,0,0:0:0:0:
256,192,159249,1,0,0:0:0:0:
256,192,159521,1,0,0:0:0:0:
256,192,159794,1,12,0:0:0:0:
256,192,160067,1,0,0:0:0:0:
256,192,160339,1,0,0:0:0:0:
256,192,160612,1,0,0:0:0:0:
256,192,160885,1,12,0:0:0:0:
256,192,161158,1,0,0:0:0:0:
256,192,161430,1,0,0:0:0:0:
256,192,161703,1,0,0:0:0:0:
256,192,161976,1,12,0:0:0:0:
256,192,162044,12,12,164158,0:0:0:0:
260,192,164430,5,0,0:0:0:0:
260,192,164703,1,0,0:0:0:0:
260,192,164975,1,0,0:0:0:0:
260,192,165248,1,8,0:0:0:0:
260,192,165385,5,0,0:0:0:0:
260,192,165521,1,8,0:0:0:0:
260,192,165658,5,0,0:0:0:0:
260,192,165794,1,8,0:0:0:0:
260,192,165930,5,0,0:0:0:0:
260,192,166066,1,8,0:0:0:0:
260,192,166339,1,8,0:0:0:0:
256,190,166476,5,0,0:0:0:0:
256,190,166544,1,0,0:0:0:0:
256,190,166612,1,8,0:0:0:0:
256,190,166748,1,0,0:0:0:0:
260,192,166817,1,0,0:0:0:0:
256,190,166885,1,8,0:0:0:0:
256,190,167021,1,0,0:0:0:0:
260,192,167089,1,0,0:0:0:0:
256,190,167157,1,8,0:0:0:0:
256,190,167294,1,8,0:0:0:0:
256,190,167567,1,0,0:0:0:0:
256,190,167635,1,0,0:0:0:0:
256,190,167703,1,8,0:0:0:0:
256,190,167839,1,8,0:0:0:0:
256,190,167976,1,0,0:0:0:0:
256,190,168112,1,8,0:0:0:0:
256,190,168248,1,0,0:0:0:0:
256,190,168385,1,0,0:0:0:0:
256,190,168453,1,0,0:0:0:0:
256,190,168521,1,8,0:0:0:0:
256,190,168657,1,0,0:0:0:0:
256,190,168794,1,8,0:0:0:0:
256,190,168930,1,0,0:0:0:0:
256,190,169067,1,8,0:0:0:0:
256,190,169203,1,0,0:0:0:0:
256,190,169339,1,8,0:0:0:0:
256,190,169476,1,8,0:0:0:0:
256,190,169612,1,0,0:0:0:0:
256,190,169748,1,0,0:0:0:0:
256,190,169817,1,0,0:0:0:0:
256,190,169885,1,8,0:0:0:0:
256,190,170021,1,8,0:0:0:0:
256,190,170157,1,0,0:0:0:0:
256,190,170294,1,8,0:0:0:0:
256,190,170362,1,8,0:0:0:0:
256,190,170430,1,0,0:0:0:0:
256,190,170567,1,0,0:0:0:0:
256,190,170703,1,8,0:0:0:0:
256,190,170771,1,0,0:0:0:0:
256,190,170839,1,0,0:0:0:0:
256,190,170976,1,8,0:0:0:0:
256,190,171112,1,0,0:0:0:0:
256,190,171248,1,8,0:0:0:0:
256,190,171317,1,8,0:0:0:0:
256,190,171385,1,0,0:0:0:0:
256,190,171521,1,8,0:0:0:0:
256,190,171657,1,0,0:0:0:0:
256,190,171794,1,8,0:0:0:0:
256,190,171862,1,0,0:0:0:0:
256,190,171930,1,0,0:0:0:0:
256,190,171998,1,0,0:0:0:0:
256,190,172067,1,8,0:0:0:0:
256,190,172203,1,0,0:0:0:0:
256,190,172339,1,8,0:0:0:0:
256,190,172407,1,8,0:0:0:0:
256,190,172476,1,0,0:0:0:0:
256,190,172612,1,8,0:0:0:0:
256,190,172748,1,0,0:0:0:0:
256,190,172817,1,0,0:0:0:0:
256,190,172885,1,8,0:0:0:0:
256,190,173021,1,0,0:0:0:0:
256,190,173089,1,0,0:0:0:0:
256,190,173157,1,8,0:0:0:0:
256,190,173294,1,0,0:0:0:0:
256,190,173362,1,0,0:0:0:0:
256,190,173430,1,8,0:0:0:0:
256,190,173567,1,0,0:0:0:0:
256,190,173635,1,0,0:0:0:0:
256,190,173703,1,8,0:0:0:0:
256,190,173839,1,0,0:0:0:0:
256,190,173976,1,8,0:0:0:0:
256,190,174112,1,0,0:0:0:0:
256,190,174248,1,8,0:0:0:0:
256,190,174317,1,0,0:0:0:0:
256,190,174385,1,0,0:0:0:0:
256,190,174453,1,0,0:0:0:0:
256,190,174521,1,8,0:0:0:0:
256,190,174657,1,8,0:0:0:0:
256,190,175067,1,4,0:0:0:0:
256,190,175203,1,8,0:0:0:0:
256,190,175339,1,0,0:0:0:0:
256,190,175476,1,8,0:0:0:0:
256,190,175612,1,0,0:0:0:0:
256,190,175749,1,8,0:0:0:0:
256,190,175885,1,0,0:0:0:0:
256,190,176021,1,8,0:0:0:0:
256,190,176158,1,0,0:0:0:0:
256,190,176294,1,8,0:0:0:0:
256,190,176430,1,0,0:0:0:0:
256,190,176567,1,8,0:0:0:0:
256,190,176703,1,0,0:0:0:0:
256,190,176839,1,8,0:0:0:0:
256,190,176976,1,0,0:0:0:0:
256,190,177112,1,8,0:0:0:0:
256,190,177249,1,0,0:0:0:0:
256,190,177385,1,8,0:0:0:0:
256,190,177521,1,0,0:0:0:0:
256,190,177658,1,8,0:0:0:0:
256,190,177794,1,0,0:0:0:0:
256,190,177930,1,8,0:0:0:0:
256,190,178067,1,0,0:0:0:0:
256,190,178203,1,8,0:0:0:0:
256,190,178339,1,0,0:0:0:0:
256,190,178476,1,8,0:0:0:0:
256,190,178612,1,0,0:0:0:0:
256,190,178749,1,8,0:0:0:0:
256,190,178885,1,0,0:0:0:0:
256,190,179021,1,8,0:0:0:0:
256,190,179158,1,0,0:0:0:0:
256,190,179294,1,8,0:0:0:0:
256,190,179362,1,0,0:0:0:0:
256,190,179430,1,0,0:0:0:0:
256,190,179567,1,8,0:0:0:0:
256,190,179703,1,0,0:0:0:0:
256,190,179839,1,8,0:0:0:0:
256,190,179976,1,0,0:0:0:0:
256,190,180112,1,8,0:0:0:0:
256,190,180249,1,0,0:0:0:0:
256,190,180385,1,8,0:0:0:0:
256,190,180521,1,0,0:0:0:0:
256,190,180658,1,8,0:0:0:0:
256,190,180794,1,0,0:0:0:0:
256,190,180930,1,8,0:0:0:0:
256,190,181067,1,0,0:0:0:0:
256,190,181203,1,8,0:0:0:0:
256,190,181339,1,0,0:0:0:0:
256,190,181476,1,8,0:0:0:0:
256,190,181612,1,0,0:0:0:0:
256,190,181749,1,8,0:0:0:0:
256,190,181885,1,0,0:0:0:0:
256,190,182021,1,8,0:0:0:0:
256,190,182158,1,0,0:0:0:0:
256,190,182294,1,8,0:0:0:0:
256,190,182430,1,0,0:0:0:0:
256,190,182567,1,8,0:0:0:0:
256,190,182703,1,0,0:0:0:0:
256,190,182839,1,8,0:0:0:0:
256,190,182976,1,8,0:0:0:0:
256,190,183112,1,8,0:0:0:0:
256,190,183249,1,0,0:0:0:0:
256,190,183317,1,0,0:0:0:0:
256,190,183385,1,8,0:0:0:0:
256,190,183521,1,0,0:0:0:0:
256,190,183589,1,0,0:0:0:0:
256,190,183658,1,8,0:0:0:0:
256,190,183726,1,0,0:0:0:0:
268,176,183794,1,0,0:0:0:0:
256,190,184067,1,4,0:0:0:0:
256,190,184339,1,4,0:0:0:0:
256,190,184612,1,4,0:0:0:0:
256,190,184885,1,4,0:0:0:0:
256,190,185158,1,4,0:0:0:0:
256,190,185430,1,4,0:0:0:0:
256,190,185703,1,4,0:0:0:0:
256,190,185976,1,4,0:0:0:0:
256,190,186249,1,4,0:0:0:0:
256,190,186521,1,4,0:0:0:0:
256,190,186794,1,4,0:0:0:0:
256,190,187067,1,4,0:0:0:0:
256,190,187339,1,4,0:0:0:0:
256,190,187612,1,4,0:0:0:0:
256,190,187885,1,4,0:0:0:0:
256,190,188021,1,8,0:0:0:0:
244,200,188158,1,0,0:0:0:0:
244,200,188294,1,0,0:0:0:0:
244,200,188430,1,0,0:0:0:0:
244,200,188567,1,0,0:0:0:0:
244,200,188703,1,0,0:0:0:0:
244,200,188839,1,0,0:0:0:0:
244,200,188976,1,0,0:0:0:0:
244,200,189112,1,0,0:0:0:0:
244,200,189249,1,0,0:0:0:0:
244,200,189385,1,0,0:0:0:0:
244,200,189521,1,0,0:0:0:0:
244,200,189658,1,0,0:0:0:0:
244,200,189794,1,0,0:0:0:0:
244,200,189930,1,0,0:0:0:0:
244,200,190067,1,0,0:0:0:0:
244,200,190203,1,0,0:0:0:0:
244,200,190339,1,8,0:0:0:0:
244,200,190408,1,8,0:0:0:0:
244,200,190476,1,0,0:0:0:0:
244,200,190544,1,0,0:0:0:0:
244,200,190612,1,0,0:0:0:0:
244,200,190680,1,0,0:0:0:0:
244,200,190749,1,0,0:0:0:0:
244,200,190817,1,0,0:0:0:0:
244,200,190885,1,8,0:0:0:0:
244,200,190953,1,0,0:0:0:0:
244,200,191021,1,8,0:0:0:0:
244,200,191089,1,0,0:0:0:0:
244,200,191158,1,8,0:0:0:0:
244,200,191226,1,0,0:0:0:0:
244,200,191294,1,8,0:0:0:0:
256,192,191430,12,0,192385,0:0:0:0:
256,190,192521,5,4,0:0:0:0:
256,190,192794,1,8,0:0:0:0:
256,190,193066,1,0,0:0:0:0:
256,190,193203,1,0,0:0:0:0:
256,190,193339,1,8,0:0:0:0:
256,190,193475,1,4,0:0:0:0:
256,190,193748,1,0,0:0:0:0:
256,190,193885,1,0,0:0:0:0:
256,190,194021,1,8,0:0:0:0:
256,190,194157,1,0,0:0:0:0:
256,192,194226,1,0,0:0:0:0:
256,190,194294,1,0,0:0:0:0:
256,190,194430,1,8,0:0:0:0:
256,190,194566,1,4,0:0:0:0:
256,190,194839,1,0,0:0:0:0:
256,190,194975,1,0,0:0:0:0:
256,190,195112,1,8,0:0:0:0:
256,190,195248,1,8,0:0:0:0:
256,190,195385,1,0,0:0:0:0:
256,192,195453,1,0,0:0:0:0:
256,190,195521,1,8,0:0:0:0:
256,190,195657,1,4,0:0:0:0:
256,190,195930,1,8,0:0:0:0:
256,190,195999,1,0,0:0:0:0:
256,190,196066,1,0,0:0:0:0:
256,190,196203,1,0,0:0:0:0:
256,190,196271,1,0,0:0:0:0:
256,190,196339,1,8,0:0:0:0:
256,190,196476,1,8,0:0:0:0:
256,190,196612,1,0,0:0:0:0:
256,190,196748,1,0,0:0:0:0:
256,190,196885,1,12,0:0:0:0:
256,190,197157,1,8,0:0:0:0:
256,190,197294,1,0,0:0:0:0:
256,190,197430,1,0,0:0:0:0:
256,190,197499,1,0,0:0:0:0:
256,190,197566,1,0,0:0:0:0:
256,190,197703,1,8,0:0:0:0:
256,190,197839,1,4,0:0:0:0:
256,190,198112,1,0,0:0:0:0:
256,190,198248,1,0,0:0:0:0:
256,192,198317,1,0,0:0:0:0:
256,190,198385,1,8,0:0:0:0:
256,190,198521,1,0,0:0:0:0:
256,190,198657,1,0,0:0:0:0:
256,190,198794,1,0,0:0:0:0:
256,190,198930,1,8,0:0:0:0:
256,190,199203,1,0,0:0:0:0:
256,190,199339,1,8,0:0:0:0:
256,192,199408,1,0,0:0:0:0:
256,192,199476,1,0,0:0:0:0:
256,190,199612,1,0,0:0:0:0:
256,190,199749,1,0,0:0:0:0:
256,190,199885,1,8,0:0:0:0:
256,190,200021,1,8,0:0:0:0:
256,190,200089,1,0,0:0:0:0:
256,190,200157,1,0,0:0:0:0:
256,190,200294,1,8,0:0:0:0:
256,190,200430,1,0,0:0:0:0:
256,190,200566,1,8,0:0:0:0:
256,190,200703,1,8,0:0:0:0:
256,190,200839,1,8,0:0:0:0:
256,190,200975,1,0,0:0:0:0:
256,190,201112,1,8,0:0:0:0:
256,190,201248,1,4,0:0:0:0:
256,190,201521,1,12,0:0:0:0:
256,190,201794,1,0,0:0:0:0:
256,190,201862,1,0,0:0:0:0:
256,190,201930,1,0,0:0:0:0:
256,190,202067,1,8,0:0:0:0:
256,190,202203,1,12,0:0:0:0:
256,190,202339,1,0,0:0:0:0:
256,190,202475,1,8,0:0:0:0:
256,190,202612,1,8,0:0:0:0:
256,190,202680,1,0,0:0:0:0:
256,190,202748,1,0,0:0:0:0:
256,190,202885,1,0,0:0:0:0:
256,190,203021,1,8,0:0:0:0:
256,190,203157,1,8,0:0:0:0:
256,190,203294,1,4,0:0:0:0:
256,190,203566,1,0,0:0:0:0:
256,190,203703,1,8,0:0:0:0:
256,190,203975,1,0,0:0:0:0:
256,190,204044,1,0,0:0:0:0:
256,190,204112,1,0,0:0:0:0:
256,190,204248,1,8,0:0:0:0:
256,190,204385,1,4,0:0:0:0:
256,190,204658,1,0,0:0:0:0:
256,190,204794,1,8,0:0:0:0:
256,190,205067,1,0,0:0:0:0:
256,190,205135,1,0,0:0:0:0:
256,190,205203,1,0,0:0:0:0:
256,190,205339,1,8,0:0:0:0:
256,190,205408,1,0,0:0:0:0:
256,190,205476,1,0,0:0:0:0:
256,190,205544,1,0,0:0:0:0:
256,190,205612,1,8,0:0:0:0:
256,190,205885,1,8,0:0:0:0:
256,190,206157,1,0,0:0:0:0:
256,190,206294,1,0,0:0:0:0:
256,190,206430,1,8,0:0:0:0:
256,190,206566,1,4,0:0:0:0:
256,190,206839,1,8,0:0:0:0:
256,190,206975,1,0,0:0:0:0:
256,190,207248,1,8,0:0:0:0:
256,192,207317,1,0,0:0:0:0:
256,190,207385,1,8,0:0:0:0:
256,190,207521,1,0,0:0:0:0:
256,190,207657,1,12,0:0:0:0:
256,190,207930,1,0,0:0:0:0:
256,190,208066,1,8,0:0:0:0:
256,190,208339,1,8,0:0:0:0:
256,190,208407,1,8,0:0:0:0:
256,190,208475,1,0,0:0:0:0:
256,190,208612,1,0,0:0:0:0:
256,190,208748,1,12,0:0:0:0:
256,190,209021,1,0,0:0:0:0:
256,190,209157,1,8,0:0:0:0:
256,190,209430,1,4,0:0:0:0:
412,288,209703,1,8,0:0:0:0:
256,190,209976,1,4,0:0:0:0:
256,190,210249,1,8,0:0:0:0:
256,190,210385,1,8,0:0:0:0:
256,190,210521,1,0,0:0:0:0:
256,190,210658,1,0,0:0:0:0:
256,190,210794,1,0,0:0:0:0:
256,190,210930,1,8,0:0:0:0:
256,190,211203,1,8,0:0:0:0:
256,190,211339,1,8,0:0:0:0:
256,190,211476,1,0,0:0:0:0:
256,190,211612,1,8,0:0:0:0:
256,190,211749,1,8,0:0:0:0:
256,190,211885,1,0,0:0:0:0:
256,190,212021,1,4,0:0:0:0:
256,190,212294,1,0,0:0:0:0:
256,190,212430,1,8,0:0:0:0:
256,190,212703,1,0,0:0:0:0:
256,190,212771,1,0,0:0:0:0:
256,190,212839,1,0,0:0:0:0:
256,190,212908,1,0,0:0:0:0:
256,190,212976,1,8,0:0:0:0:
256,190,213112,1,12,0:0:0:0:
256,190,213521,1,8,0:0:0:0:
256,190,213794,1,0,0:0:0:0:
256,190,213930,1,8,0:0:0:0:
256,190,214067,1,8,0:0:0:0:
256,190,214203,1,4,0:0:0:0:
256,190,214612,1,8,0:0:0:0:
256,190,214749,1,8,0:0:0:0:
256,190,214885,1,0,0:0:0:0:
256,190,215021,1,0,0:0:0:0:
256,190,215158,1,0,0:0:0:0:
256,190,215294,1,8,0:0:0:0:
256,190,215703,1,8,0:0:0:0:
256,190,215839,1,8,0:0:0:0:
256,190,215976,1,0,0:0:0:0:
256,190,216112,1,0,0:0:0:0:
256,190,216249,1,8,0:0:0:0:
256,190,216385,1,4,0:0:0:0:
424,176,216658,1,0,0:0:0:0:
256,190,216794,1,0,0:0:0:0:
256,190,216930,1,8,0:0:0:0:
256,190,217067,1,0,0:0:0:0:
256,190,217203,1,8,0:0:0:0:
256,190,217339,1,0,0:0:0:0:
256,190,217476,1,12,0:0:0:0:
256,190,217885,1,8,0:0:0:0:
256,190,218021,1,0,0:0:0:0:
256,190,218157,1,8,0:0:0:0:
256,190,218294,1,8,0:0:0:0:
256,190,218430,1,8,0:0:0:0:
256,190,218567,1,0,0:0:0:0:
256,190,218703,1,12,0:0:0:0:
256,190,218839,1,0,0:0:0:0:
256,190,218976,1,8,0:0:0:0:
256,190,219112,1,0,0:0:0:0:
256,190,219249,1,8,0:0:0:0:
256,190,219385,1,0,0:0:0:0:
256,190,219522,1,8,0:0:0:0:
256,190,219658,1,0,0:0:0:0:
256,190,219795,1,8,0:0:0:0:
256,190,219930,1,0,0:0:0:0:
256,190,220067,1,8,0:0:0:0:
256,190,220203,1,0,0:0:0:0:
256,190,220340,1,8,0:0:0:0:
256,190,220476,1,0,0:0:0:0:
256,190,220613,1,8,0:0:0:0:
256,190,220749,1,0,0:0:0:0:
256,190,220817,1,0,0:0:0:0:
256,190,220886,1,8,0:0:0:0:
256,190,221021,1,0,0:0:0:0:
256,190,221158,1,8,0:0:0:0:
256,190,221294,1,0,0:0:0:0:
256,190,221431,1,8,0:0:0:0:
256,190,221567,1,0,0:0:0:0:
256,190,221704,1,8,0:0:0:0:
256,190,221840,1,0,0:0:0:0:
256,190,221977,1,8,0:0:0:0:
256,190,222112,1,0,0:0:0:0:
256,190,222249,1,8,0:0:0:0:
256,190,222385,1,0,0:0:0:0:
256,190,222522,1,8,0:0:0:0:
256,190,222658,1,8,0:0:0:0:
256,190,222794,1,0,0:0:0:0:
256,190,222930,1,8,0:0:0:0:
256,190,223067,1,0,0:0:0:0:
256,190,223204,1,8,0:0:0:0:
256,190,223340,1,0,0:0:0:0:
256,190,223477,1,8,0:0:0:0:
256,190,223612,1,0,0:0:0:0:
256,190,223749,1,8,0:0:0:0:
256,190,223885,1,0,0:0:0:0:
256,190,224022,1,8,0:0:0:0:
256,190,224158,1,0,0:0:0:0:
256,190,224295,1,8,0:0:0:0:
256,190,224431,1,0,0:0:0:0:
256,190,224568,1,8,0:0:0:0:
256,190,224703,1,0,0:0:0:0:
256,190,224840,1,8,0:0:0:0:
256,190,224976,1,0,0:0:0:0:
256,190,225113,1,8,0:0:0:0:
256,190,225180,1,0,0:0:0:0:
256,190,225249,1,0,0:0:0:0:
256,190,225386,1,8,0:0:0:0:
256,190,225522,1,0,0:0:0:0:
256,190,225659,1,8,0:0:0:0:
256,190,225794,1,0,0:0:0:0:
256,190,225931,1,8,0:0:0:0:
256,190,226067,1,0,0:0:0:0:
256,190,226204,1,8,0:0:0:0:
256,190,226339,1,0,0:0:0:0:
256,190,226476,1,8,0:0:0:0:
256,190,226612,1,0,0:0:0:0:
256,190,226749,1,8,0:0:0:0:
256,190,226885,1,4,0:0:0:0:
256,190,227022,1,4,0:0:0:0:
256,190,227158,1,4,0:0:0:0:
256,190,227295,1,12,0:0:0:0:
