osu file format v14

[General]
AudioFilename: Give me Chocolate .mp3
AudioLeadIn: 0
PreviewTime: 52885
Countdown: 0
SampleSet: Soft
StackLeniency: 0.7
Mode: 0
LetterboxInBreaks: 0
EpilepsyWarning: 1
WidescreenStoryboard: 0

[Editor]
Bookmarks: 58476
DistanceSpacing: 1
BeatDivisor: 2
GridSize: 4
TimelineZoom: 1

[Metadata]
Title:Gimme Chocolate!!
TitleUnicode:ギミチョコ!!
Artist:BABYMETAL
ArtistUnicode:BABYMETAL
Creator:Rad-
Version:Normal
Source:
Tags:J-metal idol rock loli kitsune give me ilikecheese defused bomb nwolf
BeatmapID:438317
BeatmapSetID:162368

[Difficulty]
HPDrainRate:3
CircleSize:3
OverallDifficulty:4
ApproachRate:5
SliderMultiplier:0.899999999999999
SliderTickRate:1

[Events]
//Background and Video events
0,0,"babymetal.jpg",0,0
Video,0,"gimme.flv"
//Break Periods
2,35630,42958
2,70539,77867
2,114175,121503
2,175067,182594
2,210175,217503
//Storyboard Layer 0 (Background)
//Storyboard Layer 1 (Fail)
//Storyboard Layer 2 (Pass)
//Storyboard Layer 3 (Foreground)
//Storyboard Sound Samples

[TimingPoints]
9249,272.727272727273,4,2,1,90,1,0
52885,-100,4,2,1,95,0,1
69794,-100,4,2,1,90,0,0
96521,-100,4,2,1,95,0,1
113976,-100,4,2,1,90,0,0
140158,-100,4,2,2,75,0,0
165249,-100,4,2,1,90,0,0
192521,-100,4,2,1,95,0,1
209976,-100,4,2,1,90,0,0

[Colours]
Combo1 : 148,148,148
Combo2 : 0,0,193
Combo3 : 255,0,0

[HitObjects]
64,216,9249,6,0,P|152:256|216:208,1,180,4|0,0:0|0:0,0:0:0:0:
336,96,10203,2,0,P|392:192|312:296,1,225,4|0,0:0|0:0,0:0:0:0:
256,336,11158,2,0,L|192:296,1,44.9999999999999,0|4,0:0|0:0,0:0:0:0:
96,232,11703,2,0,P|144:112|248:104,1,225,0|4,0:0|0:0,0:0:0:0:
352,160,12794,1,0,0:0:0:0:
320,244,13067,1,0,0:0:0:0:
248,296,13339,1,0,0:0:0:0:
168,256,13612,6,0,P|180:210|224:176,1,89.9999999999999,4|0,0:0|0:0,0:0:0:0:
280,104,14158,2,0,P|248:48|176:32,2,135,0|4|0,0:0|0:0|0:0,0:0:0:0:
344,176,15249,2,0,P|304:256|248:272,2,135,0|4|0,0:0|0:0|0:0,0:0:0:0:
408,104,16339,2,0,P|368:48|296:32,2,135,0|4|0,0:0|0:0|0:0,0:0:0:0:
392,192,17430,1,0,0:0:0:0:
344,268,17703,1,0,0:0:0:0:
277,328,17976,6,0,P|237:340|165:304,1,89.9999999999999,4|0,0:0|0:0,0:0:0:0:
112,288,18521,2,0,P|72:192|96:136,1,135,0|4,0:0|0:0,0:0:0:0:
144,48,19339,1,0,0:0:0:0:
196,124,19612,2,0,P|256:148|328:116,2,135,0|4|0,0:0|0:0|0:0,0:0:0:0:
192,36,20703,2,0,P|252:12|324:44,1,135,0|4,0:0|0:0,0:0:0:0:
408,132,21521,1,0,0:0:0:0:
420,220,21794,1,0,0:0:0:0:
380,300,22067,1,0,0:0:0:0:
300,340,22339,6,0,P|256:352|204:340,1,89.9999999999999,4|0,0:0|0:0,0:0:0:0:
131,308,22885,1,0,0:0:0:0:
64,248,23158,2,0,L|20:200,1,45,0|4,0:0|0:0,0:0:0:0:
61,83,23703,1,0,0:0:0:0:
144,48,23976,2,0,P|208:28|296:72,2,135,0|4|0,0:0|0:0|0:0,0:0:0:0:
133,137,25067,2,0,P|163:195|222:226,2,135,0|4|0,0:0|0:0|0:0,0:0:0:0:
164,52,26158,1,0,0:0:0:0:
252,36,26430,1,0,0:0:0:0:
340,56,26703,6,0,P|396:140|368:228,1,180,4|0,0:0|0:0,0:0:0:0:
328,284,27521,2,0,L|264:340,1,45,0|4,0:0|0:0,0:0:0:0:
188,232,28067,2,0,P|184:228|176:115,1,89.9999999999999
252,136,28612,2,0,P|268:184|268:209,1,45,0|4,0:0|0:0,0:0:0:0:
264,312,29158,1,0,0:0:0:0:
344,352,29430,1,0,0:0:0:0:
432,332,29703,2,0,P|456:312|476:264,1,45,0|4,0:0|0:0,0:0:0:0:
432,168,30249,1,0,0:0:0:0:
384,92,30521,1,0,0:0:0:0:
303,50,30794,1,0,0:0:0:0:
212,48,31067,6,0,P|144:68|120:184,1,180,4|0,0:0|0:0,0:0:0:0:
156,244,31885,2,0,L|208:296,1,45,0|4,0:0|0:0,0:0:0:0:
324,276,32430,1,0,0:0:0:0:
376,200,32703,2,0,P|352:112|316:88,1,135,0|4,0:0|0:0,0:0:0:0:
188,64,33521,1,0,0:0:0:0:
112,112,33794,2,0,P|88:173|109:236,1,135,0|4,0:0|0:0,0:0:0:0:
208,328,34612,1,0,0:0:0:0:
296,352,34885,6,0,P|342:356|400:340,2,89.9999999999999,2|2|4,0:0|0:0|0:0,0:0:0:0:
448,221,44158,6,0,B|448:196|448:196|440:164|440:164|440:132,2,89.9999999999999,4|0|0,0:0|0:0|0:0,0:0:0:0:
384,284,44976,1,0,0:0:0:0:
312,338,45249,1,0,0:0:0:0:
240,284,45521,1,0,0:0:0:0:
218,197,45794,2,0,P|182:141|134:129,1,89.9999999999999
72,132,46339,6,0,B|72:164|72:164|64:196|64:196|64:228,2,89.9999999999999,4|0|0,0:0|0:0|0:0,0:0:0:0:
124,56,47157,1,0,0:0:0:0:
212,36,47430,1,0,0:0:0:0:
300,52,47702,1,0,0:0:0:0:
364,116,47976,2,0,P|380:172|376:216,1,89.9999999999999
300,248,48521,6,0,P|252:260|184:228,1,89.9999999999999,4|0,0:0|0:0,0:0:0:0:
212,160,49067,2,0,P|255:150|298:162,1,89.9999999999999,0|0,0:0|0:0,0:0:0:0:
378,204,49612,5,0,0:0:0:0:
441,140,49885,1,0,0:0:0:0:
378,76,50158,1,0,0:0:0:0:
316,140,50430,1,0,0:0:0:0:
252,204,50703,6,0,P|132:204|112:76,1,270,4|0,0:0|0:0,0:0:0:0:
196,48,51794,1,0,0:0:0:0:
272,100,52067,1,0,0:0:0:0:
344,44,52339,2,0,L|416:44,1,45
452,180,52885,6,0,P|396:248|292:200,1,180,4|0,0:0|0:0,0:0:0:0:
256,164,53703,2,0,L|256:96,1,45,8|4,0:0|0:0,0:0:0:0:
164,120,54112,2,0,L|164:196,1,45,0|8,0:0|0:0,0:0:0:0:
96,224,54521,2,0,P|176:312|216:304,2,135,0|4|8,0:0|0:0|0:0,0:0:0:0:
92,136,55612,2,0,P|136:72|220:64,1,135,0|4,0:0|0:0,0:0:0:0:
324,76,56430,1,8,0:0:0:0:
400,124,56703,1,0,0:0:0:0:
420,212,56976,1,8,0:0:0:0:
396,300,57249,6,0,P|340:348|284:348,1,89.9999999999999,4|8,0:0|0:0,0:0:0:0:
236,352,57794,2,0,P|156:332|124:260,1,135,0|4,0:0|0:0,0:0:0:0:
240,216,58612,1,8,0:0:0:0:
216,128,58885,2,0,P|296:148|332:208,1,135,0|4,0:0|0:0,0:0:0:0:
216,264,59703,1,8,0:0:0:0:
236,352,59976,2,0,P|156:332|124:260,1,135,0|4,0:0|0:0,0:0:0:0:
80,164,60794,1,8,0:0:0:0:
124,84,61067,2,0,P|208:52|288:88,1,180,0|4,0:0|0:0,0:0:0:0:
292,176,61885,5,8,0:0:0:0:
384,176,62158,1,0,0:0:0:0:
396,264,62430,2,0,L|440:308,1,45,8|4,0:0|0:0,0:0:0:0:
357,352,62839,2,0,L|325:320,1,45,0|8,0:0|0:0,0:0:0:0:
256,263,63249,1,0,0:0:0:0:
186,320,63521,2,0,L|155:352,1,45,8|4,0:0|0:0,0:0:0:0:
84,295,63930,2,0,L|116:264,1,45,0|8,0:0|0:0,0:0:0:0:
100,176,64339,2,0,P|120:96|176:56,1,135,0|4,0:0|0:0,0:0:0:0:
292,48,65158,2,0,P|336:48|380:72,2,89.9999999999999,8|0|8,0:0|0:0|0:0,0:0:0:0:
200,52,65976,6,0,P|100:144|104:192,1,180,4|0,0:0|0:0,0:0:0:0:
172,232,66794,2,0,L|240:272,1,45,8|4,0:0|0:0,0:0:0:0:
301,254,67203,2,0,L|340:232,1,45,0|8,0:0|0:0,0:0:0:0:
340,140,67612,1,0,0:0:0:0:
250,140,67885,2,0,L|188:84,1,45,8|4,0:0|0:0,0:0:0:0:
262,32,68294,2,0,L|342:32,1,45,0|8,0:0|0:0,0:0:0:0:
396,28,68703,2,0,P|456:108|444:172,1,135,0|4,0:3|0:0,0:0:0:0:
400,260,69521,1,8,0:0:0:0:
336,312,69794,6,0,P|256:348|156:296,1,180,2|4,0:0|0:0,0:0:0:0:
48,104,79067,6,0,P|168:32|260:124,1,270,4|0,0:0|0:0,0:0:0:0:
292,184,80158,2,0,P|360:260|448:260,2,180,0|0|4,0:0|0:0|0:0,0:0:0:0:
236,112,81521,5,0,0:0:0:0:
172,48,81794,2,0,P|92:72|72:188,1,180
88,244,82612,1,0,0:0:0:0:
136,320,82885,1,0,0:0:0:0:
216,356,83158,1,0,0:0:0:0:
304,356,83430,6,0,P|384:336|416:244,1,180,4|0,0:0|0:0,0:0:0:0:
388,168,84249,1,0,0:0:0:0:
344,92,84521,2,0,P|220:40|92:112,1,270,0|4,0:0|0:0,0:0:0:0:
68,176,85612,6,0,B|80:200|80:200|88:240|88:240|108:268,1,89.9999999999999,2|0,0:0|0:0,0:0:0:0:
172,316,86158,2,0,B|204:316|204:316|240:304|240:304|280:304,1,89.9999999999999
348,300,86703,5,2,0:0:0:0:
304,221,86976,1,2,0:0:0:0:
356,148,87249,2,0,P|392:104|444:88,1,89.9999999999999,2|2,0:0|0:0,0:0:0:0:
480,156,87794,6,0,P|484:244|268:280,1,315,4|0,0:0|0:0,0:0:0:0:
236,192,89158,1,0,0:0:0:0:
168,248,89430,1,0,0:0:0:0:
100,192,89703,1,0,0:0:0:0:
168,132,89976,6,0,P|72:104|16:160,2,180,4|0|0,0:0|0:0|0:0,0:0:0:0:
188,220,91339,1,0,0:0:0:0:
256,280,91612,1,0,0:0:0:0:
324,220,91885,1,0,0:0:0:0:
400,168,92158,6,0,L|460:132,1,45,4|0,0:0|0:0,0:0:0:0:
312,96,92703,2,0,L|340:44,1,45
200,96,93249,6,0,L|172:44,1,45
112,168,93794,2,0,L|52:132,1,45
136,264,94339,6,0,P|220:312|252:312,1,89.9999999999999,4|0,0:0|0:0,0:0:0:0:
301,310,94885,2,0,P|342:293|376:264,1,89.9999999999999
396,176,95430,1,0,0:0:0:0:
340,108,95703,1,0,0:0:0:0:
256,72,95976,2,0,L|256:12,1,45
160,124,96521,6,0,P|172:188|224:224,1,89.9999999999999,4|8,0:0|0:0,0:0:0:0:
256,264,97067,1,0,0:0:0:0:
328,208,97339,2,0,L|372:172,1,45,8|4,0:0|0:0,0:0:0:0:
360,88,97749,2,0,L|304:44,1,45,0|8,0:0|0:0,0:0:0:0:
236,36,98158,2,0,P|164:56|144:148,1,135,0|4,0:0|0:0,0:0:0:0:
232,204,98976,1,8,0:0:0:0:
200,288,99249,2,0,P|124:296|76:232,1,135,0|4,0:0|0:0,0:0:0:0:
60,128,100067,1,8,0:0:0:0:
124,64,100339,2,0,P|168:52|236:84,1,89.9999999999999,0|8,0:0|0:0,0:0:0:0:
276,124,100885,6,0,P|324:132|384:108,2,89.9999999999999,4|8|0,0:0|0:0|0:0,0:0:0:0:
210,63,101703,2,0,P|176:52|152:52,1,45,8|4,0:0|0:0,0:0:0:0:
55,126,102249,1,8,0:0:0:0:
28,212,102521,2,0,P|72:296|124:308,1,135,0|4,0:0|0:0,0:0:0:0:
212,224,103339,1,8,0:0:0:0:
256,304,103612,1,0,0:0:0:0:
304,228,103885,2,0,L|304:156,1,45,8|4,0:0|0:0,0:0:0:0:
394,184,104294,2,0,L|394:244,1,45,0|8,0:0|0:0,0:0:0:0:
336,298,104703,2,0,P|256:334|160:278,1,180,0|4,0:0|0:0,0:0:0:0:
121,228,105521,5,8,0:0:0:0:
168,152,105794,2,0,P|212:100|304:116,1,135,0|4,0:0|0:0,0:0:0:0:
392,160,106612,1,8,0:0:0:0:
432,241,106885,2,0,P|392:320|332:328,1,135,0|4,0:0|0:0,0:0:0:0:
232,268,107703,1,8,0:0:0:0:
164,328,107976,2,0,P|96:308|84:220,2,135,0|4|8,0:0|0:0|0:0,0:0:0:0:
244,364,109067,2,0,P|304:332|296:204,1,180,0|4,0:0|0:0,0:0:0:0:
284,144,109885,5,8,0:0:0:0:
224,76,110158,2,0,P|152:80|112:140,1,135,0|4,0:0|0:0,0:0:0:0:
104,260,110976,1,8,0:0:0:0:
156,332,111249,2,0,P|220:356|296:308,2,135,0|4|8,0:0|0:0|0:0,0:0:0:0:
104,260,112339,2,0,P|92:208|148:120,1,135,0|4,0:0|0:0,0:0:0:0:
224,44,113158,1,8,0:0:0:0:
288,108,113430,6,0,P|329:141|395:119,2,89.9999999999999,2|2|4,0:0|0:0|0:0,0:0:0:0:
124,228,122703,5,4,0:0:0:0:
144,140,122976,1,0,0:0:0:0:
216,84,123249,1,0,0:0:0:0:
304,68,123521,2,0,L|356:108,1,45,0|4,0:0|0:0,0:0:0:0:
412,212,124067,1,0,0:0:0:0:
360,284,124339,2,0,P|312:336|248:344,2,135,0|4|0,0:0|0:0|0:0,0:0:0:0:
360,192,125430,2,0,P|320:120|256:92,1,135,0|4,0:0|0:0,0:0:0:0:
148,52,126249,1,0,0:0:0:0:
88,120,126521,1,0,0:0:0:0:
152,184,126794,1,0,0:0:0:0:
208,116,127067,6,0,P|276:136|296:176,1,89.9999999999999,4|0,0:0|0:0,0:0:0:0:
344,216,127612,1,0,0:0:0:0:
288,288,127885,2,0,L|232:324,1,45,0|4,0:0|0:0,0:0:0:0:
120,340,128430,2,0,P|76:304|72:268,1,89.9999999999999
68,184,128976,2,0,L|88:128,1,45,0|4,0:0|0:0,0:0:0:0:
200,72,129521,1,0,0:0:0:0:
272,124,129794,2,0,P|336:116|384:32,2,135,0|4|0,0:0|0:0|0:0,0:0:0:0:
200,72,130885,2,0,P|160:104|144:168,1,89.9999999999999
148,228,131430,6,0,P|167:268|202:294,1,89.9999999999999,4|0,0:0|0:0,0:0:0:0:
284,336,131976,2,0,P|356:344|412:288,1,135,0|4,0:0|0:0,0:0:0:0:
436,176,132794,2,0,P|376:132|232:212,1,225,0|4,0:0|0:0,0:0:0:0:
180,296,133885,1,0,0:0:0:0:
88,296,134158,2,0,P|48:236|56:152,1,135,0|4,0:0|0:0,0:0:0:0:
124,64,134976,1,0,0:0:0:0:
212,36,135249,1,0,0:0:0:0:
300,36,135521,1,0,0:0:0:0:
384,68,135794,6,0,P|440:116|452:156,1,89.9999999999999,4|0,0:0|0:0,0:0:0:0:
468,216,136339,2,0,P|404:240|328:196,1,135,0|4,0:0|0:0,0:0:0:0:
256,116,137158,1,0,0:0:0:0:
184,64,137430,2,0,P|112:80|80:128,1,135,0|4,0:0|0:0,0:0:0:0:
52,260,138249,1,0,0:0:0:0:
116,320,138521,2,0,P|184:344|252:288,2,135,0|4|0,0:0|0:0|0:0,0:0:0:0:
52,260,139612,1,0,0:0:0:0:
132,215,139885,1,0,0:0:0:0:
216,180,140158,6,0,P|292:188|332:236,1,135,4|0,0:2|0:0,0:0:0:0:
392,348,140976,2,0,P|448:296|456:232,1,135,4|0,0:2|0:0,0:0:0:0:
420,112,141794,2,0,P|322:73|258:121,1,180,0|4,0:0|0:0,0:0:0:0:
212,184,142612,5,8,0:0:0:0:
164,108,142885,1,0,0:0:0:0:
72,112,143158,1,8,0:0:0:0:
20,184,143430,2,8,P|56:288|288:288,1,360,0|4,0:0|0:0,0:0:0:0:
344,240,144794,6,8,P|352:200|336:144,1,89.9999999999999,8|0,0:0|0:0,0:0:0:0:
272,96,145339,1,8,0:0:0:0:
204,156,145612,2,8,P|196:196|212:252,1,89.9999999999999,0|8,0:0|0:0,0:0:0:0:
260,316,146157,1,0,0:0:0:0:
176,352,146430,1,8,0:0:0:0:
92,316,146703,6,8,P|32:232|32:220,1,89.9999999999999,4|8,0:0|0:0,0:0:0:0:
28,160,147249,2,8,P|72:80|88:72,1,89.9999999999999,0|8,0:0|0:0,0:0:0:0:
144,36,147794,2,8,P|224:28|252:40,1,89.9999999999999,0|8,0:0|0:0,0:0:0:0:
320,44,148339,2,8,P|380:76|412:124,1,89.9999999999999,0|8,0:0|0:0,0:0:0:0:
432,176,148885,6,8,P|416:264|328:308,2,180,4|8|0,0:0|0:0|0:0,0:0:0:0:
428,84,150249,1,8,0:0:0:0:
344,44,150521,2,8,P|256:28|160:48,1,180,0|4,0:0|0:0,0:0:0:0:
84,80,151339,5,8,0:0:0:0:
24,148,151612,1,0,0:0:0:0:
24,240,151885,1,8,0:0:0:0:
84,308,152158,2,8,P|184:356|440:280,1,360,0|4,0:0|0:0,0:0:0:0:
464,224,153521,6,8,P|456:168|416:132,1,89.9999999999999,8|0,0:0|0:0,0:0:0:0:
364,88,154067,1,8,0:0:0:0:
280,52,154339,2,8,P|240:44|180:56,2,89.9999999999999,0|8|0,0:0|0:0|0:0,0:0:0:0:
364,88,155158,1,8,0:0:0:0:
432,148,155430,6,0,P|433:204|404:256,1,89.9999999999999,4|8,0:0|0:0,0:0:0:0:
368,308,155976,2,8,P|320:340|264:348,1,89.9999999999999,0|8,0:0|0:0,0:0:0:0:
200,352,156521,2,8,P|120:332|96:304,1,89.9999999999999,0|8,0:0|0:0,0:0:0:0:
60,260,157067,2,8,L|60:200,1,45,8|2,0:0|0:0,0:0:0:0:
132,100,157612,6,0,P|256:60|404:120,1,270,4|0,0:0|0:0,0:0:0:0:
444,172,158703,2,0,P|420:300|288:348,1,270
210,349,159794,2,0,P|91:299|68:172,1,270,4|0,0:0|0:0,0:0:0:0:
132,106,160885,2,0,P|256:146|404:86,1,270
256,192,161976,12,4,164158,0:0:0:0:
336,176,165249,5,0,0:0:0:0:
392,104,165521,1,2,0:0:0:0:
448,176,165794,1,2,0:0:0:0:
392,244,166066,1,2,0:0:0:0:
320,296,166339,6,0,P|216:324|80:180,2,315,4|0|0,0:0|0:0|0:0,0:0:0:0:
380,228,168521,6,0,P|328:120|256:100,1,180,4|0,0:0|0:0,0:0:0:0:
188,84,169339,1,0,0:0:0:0:
108,128,169612,2,0,P|100:208|120:240,1,89.9999999999999
132,300,170158,1,0,0:0:0:0:
208,348,170430,1,0,0:0:0:0:
296,360,170703,6,0,P|376:340|400:312,1,89.9999999999999,4|0,0:0|0:0,0:0:0:0:
444,276,171249,2,0,P|468:232|464:156,1,89.9999999999999
460,104,171794,6,0,P|404:48|364:40,1,89.9999999999999
308,28,172339,2,0,P|262:22|196:52,1,89.9999999999999
140,76,172885,6,0,P|84:188|180:324,1,270,4|0,0:0|0:0,0:0:0:0:
228,344,173976,2,0,P|300:348|336:320,1,89.9999999999999
396,304,174521,2,0,L|456:244,1,45,0|2,0:0|0:0,0:0:0:0:
177,192,183794,5,4,0:0:0:0:
256,28,184339,2,0,B|292:20|292:20|337:36|337:36|392:24,1,135
394,160,185158,1,0,0:0:0:0:
310,192,185430,2,0,B|274:184|274:184|226:196|226:196|178:192,1,135
168,328,186249,1,0,0:0:0:0:
256,340,186521,2,0,B|296:332|296:332|344:348|344:348|396:332,2,135
177,297,187612,1,0,0:0:0:0:
136,216,187885,1,0,0:0:0:0:
184,140,188158,6,0,P|240:104|296:104,1,89.9999999999999,4|0,0:0|0:0,0:0:0:0:
352,100,188703,2,0,P|395:111|430:139,1,89.9999999999999
432,228,189249,2,0,P|397:255|353:267,1,89.9999999999999
264,268,189794,2,0,P|220:256|185:228,1,89.9999999999999
184,140,190339,5,0,0:0:0:0:
211,53,190612,1,0,0:0:0:0:
301,53,190885,1,0,0:0:0:0:
328,140,191158,1,0,0:0:0:0:
256,192,191294,12,4,192521,0:0:0:0:
180,112,193476,5,4,0:0:0:0:
44,124,193885,1,8,0:0:0:0:
100,56,194158,2,0,P|157:21|223:24,2,135,0|4|8,0:0|0:0|0:0,0:0:0:0:
44,124,195249,2,0,P|52:204|124:244,1,135,0|4,0:0|0:0,0:0:0:0:
196,324,196067,1,8,0:0:0:0:
280,356,196339,1,0,0:0:0:0:
364,320,196612,1,8,0:0:0:0:
424,252,196885,6,0,P|456:196|444:144,1,89.9999999999999,4|8,0:0|0:0,0:0:0:0:
444,84,197430,2,0,P|408:44|324:32,2,135,0|4|8,0:0|0:0|0:0,0:0:0:0:
396,160,198521,2,0,P|398:213|347:281,2,135,0|4|8,0:0|0:0|0:0,0:0:0:0:
312,132,199612,2,8,P|270:98|185:99,2,135,0|4|8,0:0|0:0|0:0,0:0:0:0:
280,216,200703,1,0,0:0:0:0:
192,200,200976,1,8,0:0:0:0:
128,264,201249,6,0,P|156:312|220:340,2,89.9999999999999,4|8|0,0:0|0:0|0:0,0:0:0:0:
88,184,202067,2,0,L|88:132,1,45,8|4,0:0|0:0,0:0:0:0:
180,140,202476,2,0,L|180:192,1,45,0|8,0:0|0:0,0:0:0:0:
160,272,202885,2,0,P|224:344|280:344,1,135,0|4,0:0|0:0,0:0:0:0:
392,348,203703,1,8,0:0:0:0:
456,284,203976,2,0,P|480:212|452:136,2,135,0|4|8,0:0|0:0|0:0,0:0:0:0:
392,348,205067,1,0,0:0:0:0:
328,284,205339,1,8,0:0:0:0:
264,348,205612,6,0,P|208:348|160:304,1,89.9999999999999,4|8,0:0|0:0,0:0:0:0:
108,276,206158,2,0,P|64:208|72:128,1,135,0|4,0:0|0:0,0:0:0:0:
148,52,206976,1,8,0:0:0:0:
232,88,207249,2,0,P|288:116|356:60,1,135,0|4,0:0|0:0,0:0:0:0:
424,180,208067,1,8,0:0:0:0:
352,232,208339,2,0,P|295:264|237:236,1,135,0|4,0:0|0:0,0:0:0:0:
112,184,209158,1,8,0:0:0:0:
124,96,209430,6,0,P|160:40|208:32,2,89.9999999999999,0|8|4,0:0|0:0|0:0,0:0:0:0:
152,140,218703,6,0,P|256:68|364:152,1,270,4|0,0:0|0:0,0:0:0:0:
416,212,219794,2,0,P|380:292|292:276,1,180
256,204,220612,1,0,0:0:0:0:
212,283,220885,6,0,P|128:289|96:212,1,180,4|0,0:0|0:0,0:0:0:0:
124,128,221703,1,0,0:0:0:0:
184,60,221976,2,0,P|240:36|288:40,1,89.9999999999999
360,40,222521,2,0,P|416:68|440:108,1,89.9999999999999
464,176,223067,6,0,P|448:228|316:272,1,180,4|0,0:0|0:0,0:0:0:0:
256,248,223885,1,0,0:0:0:0:
170,278,224158,2,0,P|86:254|48:176,1,180,0|0,0:0|0:0,0:0:0:0:
84,92,224976,1,0,0:0:0:0:
160,44,225249,6,0,P|272:96|264:164,1,180,4|0,0:0|0:0,0:0:0:0:
244,224,226067,1,0,0:0:0:0:
188,296,226339,2,0,P|136:292|104:252,1,89.9999999999999
68,188,226885,6,0,L|68:104,1,45,8|8,0:0|0:0,0:0:0:0:
140,139,227158,2,0,L|140:184,1,45,8|12,0:0|0:0,0:0:0:0:
