osu file format v14

[General]
AudioFilename: Give me Chocolate .mp3
AudioLeadIn: 0
PreviewTime: 52885
Countdown: 0
SampleSet: Soft
StackLeniency: 0.7
Mode: 0
LetterboxInBreaks: 0
EpilepsyWarning: 1
WidescreenStoryboard: 0

[Editor]
DistanceSpacing: 1
BeatDivisor: 2
GridSize: 4
TimelineZoom: 1

[Metadata]
Title:Gimme Chocolate!!
TitleUnicode:ギミチョコ!!
Artist:BABYMETAL
ArtistUnicode:BABYMETAL
Creator:Rad-
Version:Insane
Source:
Tags:J-metal idol rock loli kitsune give me ilikecheese defused bomb nwolf
BeatmapID:487601
BeatmapSetID:162368

[Difficulty]
HPDrainRate:6
CircleSize:4
OverallDifficulty:7
ApproachRate:9
SliderMultiplier:1.6
SliderTickRate:2

[Events]
//Background and Video events
0,0,"babymetal.jpg",0,0
Video,0,"gimme.flv"
//Break Periods
2,35630,43558
2,70539,77921
2,157812,161376
2,175267,183194
//Storyboard Layer 0 (Background)
//Storyboard Layer 1 (Fail)
//Storyboard Layer 2 (Pass)
//Storyboard Layer 3 (Foreground)
//Storyboard Sound Samples

[TimingPoints]
9249,272.727272727273,4,2,1,90,1,0
52885,-90.9090909090909,4,2,1,95,0,1
69794,-100,4,2,0,75,0,0
70339,-100,4,2,1,90,0,0
95976,-142.857142857143,4,2,1,90,0,0
96521,-90.9090909090909,4,2,1,95,0,1
113976,-100,4,2,1,90,0,0
140158,-100,4,2,2,75,0,0
143567,-166.666666666667,4,2,2,75,0,0
144521,-100,4,2,2,75,0,0
152158,-142.857142857143,4,2,2,75,0,0
153249,-100,4,2,2,75,0,0
157067,-142.857142857143,4,2,2,75,0,0
157476,-142.857142857143,4,2,2,20,0,0
157612,-142.857142857143,4,2,2,75,0,0
161976,-125,4,2,2,20,0,0
164158,-100,4,2,2,75,0,0
165249,-100,4,2,1,90,0,0
174521,-142.857142857143,4,2,1,90,0,0
175067,-142.857142857143,4,2,1,65,0,0
183794,-125,4,2,1,90,0,0
192521,-90.9090909090909,4,2,1,95,0,1
209430,-125,4,2,1,95,0,1
209976,-100,4,2,1,90,0,0

[Colours]
Combo1 : 148,148,148
Combo2 : 0,0,193
Combo3 : 255,0,0

[HitObjects]
160,204,9249,6,0,P|240:280|280:268,1,160,4|0,0:0|0:0,0:0:0:0:
404,172,9794,1,0,0:0:0:0:
344,120,9930,1,0,0:0:0:0:
420,96,10066,2,0,L|508:4,1,80,0|4,0:0|0:0,0:0:0:0:
300,20,10476,6,0,P|261:52|276:128,1,80,0|0,0:0|0:0,0:0:0:0:
200,138,10749,1,0,0:0:0:0:
228,212,10885,1,0,0:0:0:0:
228,212,10953,1,0,0:0:0:0:
228,212,11021,1,0,0:0:0:0:
156,252,11158,5,0,0:0:0:0:
156,252,11294,2,0,P|56:204|72:120,1,160,4|0,0:0|0:0,0:0:0:0:
64,88,11703,1,0,0:0:0:0:
128,36,11839,1,0,0:0:0:0:
148,32,11908,1,0,0:0:0:0:
168,28,11976,2,0,P|224:24|288:52,2,80,0|0|0,0:0|0:0|0:0,0:0:0:0:
64,88,12385,6,0,P|48:152|88:244,1,160,4|0,0:0|0:0,0:0:0:0:
358,277,12794,2,0,L|280:260,1,80,0|0,0:0|0:0,0:0:0:0:
128,320,13067,2,0,L|205:336,1,80,0|0,0:0|0:0,0:0:0:0:
404,360,13339,2,0,L|281:333,1,80,0|0,0:0|0:0,0:0:0:0:
280,260,13612,5,4,0:0:0:0:
244,178,13749,1,0,0:0:0:0:
280,97,13885,1,0,0:0:0:0:
356,116,14021,2,0,L|464:176,2,80,0|0|0,0:0|0:0|0:0,0:0:0:0:
280,97,14430,1,0,0:0:0:0:
204,116,14567,6,0,P|132:160|128:244,1,160,4|0,0:0|0:0,0:0:0:0:
148,308,14976,2,0,P|216:352|244:348,1,80,0|0,0:0|0:0,0:0:0:0:
292,352,15249,2,0,L|364:352,2,40,0|0|0,0:0|0:0|0:0,0:0:0:0:
243,287,15521,1,0,0:0:0:0:
320,260,15658,6,0,P|356:188|312:128,1,160,4|0,0:0|0:0,0:0:0:0:
256,76,16067,1,0,0:0:0:0:
192,148,16203,2,0,L|192:208,2,40,0|0|0,0:0|0:0|0:0,0:0:0:0:
128,76,16476,5,0,0:0:0:0:
128,76,16612,1,0,0:0:0:0:
128,76,16749,2,0,P|180:28|296:40,1,160,4|0,0:0|0:0,0:0:0:0:
408,100,17158,2,0,P|380:76|336:72,1,80,0|0,0:0|0:0,0:0:0:0:
216,196,17430,2,0,P|256:204|324:184,1,80,0|0,0:0|0:0,0:0:0:0:
173,71,17703,2,0,P|134:74|104:100,1,80,0|0,0:0|0:0,0:0:0:0:
104,228,17976,5,4,0:0:0:0:
180,248,18112,1,0,0:0:0:0:
256,224,18249,1,0,0:0:0:0:
304,160,18385,1,0,0:0:0:0:
296,80,18521,2,0,P|268:48|212:36,1,80,0|0,0:0|0:0,0:0:0:0:
96,120,18794,5,0,0:0:0:0:
96,120,18930,2,0,P|196:104|240:160,1,160,4|0,0:0|0:0,0:0:0:0:
280,204,19339,2,0,P|324:232|408:228,1,80,0|0,0:0|0:0,0:0:0:0:
424,204,19612,2,0,L|456:168,2,40,0|0|0,0:0|0:0|0:0,0:0:0:0:
356,160,19885,5,0,0:0:0:0:
356,160,20021,2,0,P|340:72|400:12,1,160,4|0,0:0|0:0,0:0:0:0:
256,56,20430,1,0,0:0:0:0:
180,32,20567,1,0,0:0:0:0:
156,40,20635,1,0,0:0:0:0:
136,56,20703,2,0,P|120:132|140:164,1,80,0|0,0:0|0:0,0:0:0:0:
48,168,20976,5,0,0:0:0:0:
48,168,21112,2,0,P|152:208|196:140,1,160,4|0,0:0|0:0,0:0:0:0:
256,140,21521,1,0,0:0:0:0:
320,68,21658,1,0,0:0:0:0:
384,140,21794,2,0,P|456:100|460:76,1,80,0|0,0:0|0:0,0:0:0:0:
384,244,22067,2,0,P|456:284|460:308,1,80,0|0,0:0|0:0,0:0:0:0:
304,192,22339,6,0,P|240:244|264:316,1,160,4|0,0:0|0:0,0:0:0:0:
336,344,22749,1,0,0:0:0:0:
176,344,22885,1,0,0:0:0:0:
336,264,23021,1,0,0:0:0:0:
176,264,23157,1,0,0:0:0:0:
304,304,23294,6,0,P|396:304|416:232,1,160,4|0,0:0|0:0,0:0:0:0:
472,192,23703,1,0,0:0:0:0:
416,136,23839,1,0,0:0:0:0:
360,196,23976,1,0,0:0:0:0:
348,216,24044,1,0,0:0:0:0:
336,236,24112,1,0,0:0:0:0:
256,136,24249,5,0,0:0:0:0:
256,136,24385,2,0,P|176:172|180:244,1,160,4|0,0:0|0:0,0:0:0:0:
212,308,24794,2,0,P|280:344|336:324,1,80,0|0,0:0|0:0,0:0:0:0:
304,344,24999,1,0,0:0:0:0:
328,344,25067,1,0,0:0:0:0:
404,316,25203,1,0,0:0:0:0:
452,252,25339,1,0,0:0:0:0:
476,176,25476,6,0,P|464:104|376:64,1,160,4|0,0:0|0:0,0:0:0:0:
320,96,25885,2,0,L|240:168,1,80,0|0,0:0|0:0,0:0:0:0:
216,36,26158,2,0,L|124:36,1,80,0|0,0:0|0:0,0:0:0:0:
72,188,26430,2,0,L|131:134,1,80,0|0,0:0|0:0,0:0:0:0:
236,72,26703,6,0,P|324:48|400:92,1,160,4|0,0:0|0:0,0:0:0:0:
444,128,27112,1,0,0:0:0:0:
448,208,27249,2,0,P|432:260|368:304,2,80,0|0|0,0:0|0:0|0:0,0:0:0:0:
444,128,27658,6,0,P|352:112|304:168,1,160,4|0,0:0|0:0,0:0:0:0:
256,212,28067,1,0,0:0:0:0:
192,140,28203,1,0,0:0:0:0:
104,180,28339,2,0,L|76:232,2,40,0|0|0,0:0|0:0|0:0,0:0:0:0:
112,100,28612,5,0,0:0:0:0:
112,100,28749,2,0,P|184:48|264:88,1,160,4|0,0:0|0:0,0:0:0:0:
296,148,29158,1,0,0:0:0:0:
336,68,29294,1,0,0:0:0:0:
336,68,29362,1,0,0:0:0:0:
336,68,29430,2,0,P|420:60|436:76,2,80,0|0|0,0:0|0:0|0:0,0:0:0:0:
296,148,29839,1,4,0:0:0:0:
436,216,30112,5,0,0:0:0:0:
436,216,30249,2,0,P|380:268|308:264,1,80,0|0,0:0|0:0,0:0:0:0:
336,192,30521,2,0,P|265:221|199:193,1,80,0|0,0:0|0:0,0:0:0:0:
256,132,30794,2,0,P|179:135|127:86,1,80,0|0,0:0|0:0,0:0:0:0:
112,76,31067,5,4,0:0:0:0:
172,24,31203,1,0,0:0:0:0:
252,24,31339,1,0,0:0:0:0:
312,76,31476,1,0,0:0:0:0:
368,132,31612,2,0,P|448:148|480:136,1,80,0|0,0:0|0:0,0:0:0:0:
304,228,31885,2,0,P|224:212|192:224,1,80,0|4,0:0|0:0,0:0:0:0:
212,52,32294,5,0,0:0:0:0:
212,52,32430,2,0,L|168:144,1,80,0|0,0:0|0:0,0:0:0:0:
132,192,32703,2,0,L|132:264,2,40,0|0|0,0:0|0:0|0:0,0:0:0:0:
84,128,32976,1,0,0:0:0:0:
36,192,33112,6,0,P|24:256|120:316,1,160,4|0,0:0|0:0,0:0:0:0:
164,336,33521,1,0,0:0:0:0:
240,308,33658,1,0,0:0:0:0:
256,292,33726,1,0,0:0:0:0:
268,272,33794,1,0,0:0:0:0:
320,212,33930,1,0,0:0:0:0:
320,212,34067,1,0,0:0:0:0:
216,212,34203,6,0,P|152:232|144:140,1,160,4|0,0:0|0:0,0:0:0:0:
184,100,34612,1,0,0:0:0:0:
256,60,34749,1,0,0:0:0:0:
328,100,34885,6,0,L|400:176,1,80,2|0,0:0|0:0,0:0:0:0:
184,100,35158,2,0,L|112:176,1,80,2|0,0:0|0:0,0:0:0:0:
256,24,35430,5,4,0:0:0:0:
208,256,44158,6,0,L|116:176,1,80,4|0,0:0|0:0,0:0:0:0:
304,256,44430,2,0,L|396:176,1,80,0|0,0:0|0:0,0:0:0:0:
404,132,44703,1,0,0:0:0:0:
108,132,44976,1,0,0:0:0:0:
108,132,45112,2,0,P|192:60|240:72,1,160,0|0,0:0|0:0,0:0:0:0:
300,108,45521,1,0,0:0:0:0:
324,184,45658,1,0,0:0:0:0:
276,248,45794,2,0,P|200:268|136:188,1,160,0|0,0:0|0:0,0:0:0:0:
256,108,46339,6,0,P|192:64|156:64,1,80,4|0,0:0|0:0,0:0:0:0:
256,108,46612,2,0,P|320:64|356:64,1,80,0|0,0:0|0:0,0:0:0:0:
112,56,46885,2,0,P|64:108|104:216,1,160,0|0,0:0|0:0,0:0:0:0:
128,252,47294,2,0,P|220:268|272:204,1,160,0|0,0:0|0:0,0:0:0:0:
308,160,47703,2,0,L|360:72,2,80,0|0|0,0:0|0:0|0:0,0:0:0:0:
256,312,48249,1,0,0:0:0:0:
183,344,48385,1,0,0:0:0:0:
112,308,48521,6,0,L|56:240,2,80,4|0|0,0:0|0:0|0:0,0:0:0:0:
400,308,49067,2,0,L|456:240,2,80,0|0|0,0:0|0:0|0:0,0:0:0:0:
112,144,49612,6,0,L|56:76,1,80,0|0,0:0|0:0,0:0:0:0:
123,17,49885,1,0,0:0:0:0:
400,144,50158,2,0,L|456:76,1,80,0|0,0:0|0:0,0:0:0:0:
389,17,50430,1,0,0:0:0:0:
300,32,50567,5,0,0:0:0:0:
300,32,50635,1,0,0:0:0:0:
300,32,50703,2,0,P|268:88|276:120,1,80,4|0,0:0|0:0,0:0:0:0:
188,240,50976,2,0,P|220:184|212:152,1,80,0|0,0:0|0:0,0:0:0:0:
140,32,51249,2,0,P|108:88|116:120,1,80,0|0,0:0|0:0,0:0:0:0:
28,240,51522,2,0,P|60:184|52:152,1,80,0|0,0:0|0:0,0:0:0:0:
40,68,51794,5,0,0:0:0:0:
40,68,51930,1,0,0:0:0:0:
140,32,52067,1,0,0:0:0:0:
140,32,52203,1,0,0:0:0:0:
236,68,52339,1,0,0:0:0:0:
236,68,52476,1,0,0:0:0:0:
440,236,52885,6,0,P|356:280|280:204,1,176.000005371094,4|8,0:0|0:0,0:0:0:0:
312,68,53430,1,0,0:0:0:0:
392,108,53567,1,0,0:0:0:0:
368,192,53703,2,0,P|316:184|292:156,1,88.000002685547,8|4,0:0|0:0,0:0:0:0:
160,44,54112,1,0,0:0:0:0:
160,44,54249,2,0,L|96:104,1,88.000002685547,8|0,0:0|0:0,0:0:0:0:
96,192,54521,2,0,L|188:268,1,88.000002685547,0|0,0:0|0:0,0:0:0:0:
132,332,54794,1,8,0:0:0:0:
44,320,54930,2,0,P|32:228|104:192,1,176.000005371094,4|0,0:0|0:0,0:0:0:0:
176,160,55339,2,0,P|212:132|224:68,1,88.000002685547,8|0,0:0|0:0,0:0:0:0:
280,24,55612,1,0,0:0:0:0:
280,24,55749,1,0,0:0:0:0:
344,84,55885,2,0,P|400:100|460:72,1,88.000002685547,8|4,0:0|0:0,0:0:0:0:
427,290,56294,6,0,P|384:284|344:300,1,88.000002685547,0|8,0:0|0:0,0:0:0:0:
276,244,56567,1,0,0:0:0:0:
276,244,56703,2,0,L|224:148,1,88.000002685547,0|0,0:0|0:0,0:0:0:0:
108,72,56976,2,0,L|160:168,1,88.000002685547,8|0,0:0|0:0,0:0:0:0:
184,232,57249,6,0,P|112:280|48:208,1,176.000005371094,4|8,0:0|0:0,0:0:0:0:
108,72,57794,1,0,0:0:0:0:
188,36,57930,1,0,0:0:0:0:
268,72,58067,2,0,P|320:112|328:152,1,88.000002685547,8|4,0:0|0:0,0:0:0:0:
244,308,58476,2,0,P|192:268|184:228,1,88.000002685547,0|8,0:0|0:0,0:0:0:0:
148,60,58885,1,0,0:0:0:0:
84,120,59021,1,0,0:0:0:0:
52,204,59158,2,0,P|88:268|108:280,1,88.000002685547,8|4,0:0|0:0,0:0:0:0:
460,204,59567,2,0,P|424:268|404:280,1,88.000002685547,0|8,0:0|0:0,0:0:0:0:
248,176,59976,1,0,0:0:0:0:
308,112,60112,1,0,0:0:0:0:
256,40,60249,1,8,0:0:0:0:
172,56,60385,6,0,P|112:120|144:204,1,176.000005371094,4|0,0:0|0:0,0:0:0:0:
188,268,60794,2,0,P|276:292|340:216,1,176.000005371094,8|0,0:0|0:0,0:0:0:0:
376,164,61203,2,0,L|428:68,1,88.000002685547,0|8,0:0|0:0,0:0:0:0:
300,28,61476,5,0,0:0:0:0:
300,28,61612,2,0,L|188:28,1,88.000002685547,4|0,0:0|0:0,0:0:0:0:
124,68,61885,1,8,0:0:0:0:
88,156,62021,2,0,P|104:200|152:236,1,88.000002685547,0|0,0:0|0:0,0:0:0:0:
208,276,62294,1,0,0:0:0:0:
280,224,62430,1,8,0:0:0:0:
280,224,62567,2,0,P|272:144|180:128,1,176.000005371094,4|0,0:0|0:0,0:0:0:0:
156,204,62976,2,0,P|96:144|128:64,1,176.000005371094,8|0,0:0|0:0,0:0:0:0:
124,68,63385,1,0,0:0:0:0:
200,24,63521,1,8,0:0:0:0:
200,24,63658,2,0,P|252:80|308:16,1,176.000005371094,4|0,0:0|0:0,0:0:0:0:
388,66,64067,2,0,P|415:145|356:204,1,176.000005371094,8|0,0:0|0:0,0:0:0:0:
284,152,64476,1,0,0:0:0:0:
216,96,64612,1,8,0:0:0:0:
128,112,64749,6,0,P|108:160|120:200,1,88.000002685547,4|0,0:0|0:0,0:0:0:0:
152,276,65021,2,0,P|208:316|260:304,1,88.000002685547,0|8,0:0|0:0,0:0:0:0:
312,300,65294,1,0,0:0:0:0:
368,232,65430,2,0,P|428:208|476:228,1,88.000002685547,0|0,0:0|0:0,0:0:0:0:
312,168,65703,2,0,P|252:144|204:164,1,88.000002685547,8|0,0:0|0:0,0:0:0:0:
368,104,65976,6,0,L|432:24,2,88.000002685547,4|0|8,0:0|0:0|0:0,0:0:0:0:
312,168,66385,1,0,0:0:0:0:
256,100,66521,1,0,0:0:0:0:
256,100,66658,1,0,0:0:0:0:
200,168,66794,1,8,0:0:0:0:
200,168,66930,2,0,P|104:112|112:64,1,176.000005371094,4|0,0:0|0:0,0:0:0:0:
187,17,67339,1,8,0:0:0:0:
187,17,67476,2,0,P|283:73|275:121,1,176.000005371094,0|0,0:0|0:0,0:0:0:0:
284,208,67885,1,8,0:0:0:0:
284,208,68021,2,0,P|356:256|420:196,1,176.000005371094,4|0,0:0|0:0,0:0:0:0:
452,124,68430,1,8,0:0:0:0:
400,52,68567,2,0,P|348:36|308:56,1,88.000002685547,0|0,0:0|0:0,0:0:0:0:
232,88,68839,1,0,0:0:0:0:
169,159,68976,1,8,0:0:0:0:
128,244,69112,6,0,L|60:344,1,88.000002685547,4|0,0:0|0:0,0:0:0:0:
256,148,69385,2,0,L|256:48,1,88.000002685547,0|0,0:0|0:0,0:0:0:0:
384,244,69658,2,0,L|452:344,1,88.000002685547,0|2,0:0|0:0,0:0:0:0:
256,60,70067,5,2,0:0:0:0:
78,316,70339,1,4,0:0:0:0:
88,64,78521,6,0,P|140:52|180:76,1,80,2|2,0:0|0:0,0:0:0:0:
164,136,78794,2,0,P|125:146|88:133,1,80,2|2,0:0|0:0,0:0:0:0:
104,216,79067,5,4,0:0:0:0:
164,272,79203,1,0,0:0:0:0:
240,244,79339,2,0,P|272:208|288:164,2,80,0|0|0,0:0|0:0|0:0,0:0:0:0:
264,319,79749,2,0,P|308:338|354:339,2,80,0|0|0,0:0|0:0|0:0,0:0:0:0:
332,252,80158,5,0,0:0:0:0:
408,192,80294,1,0,0:0:0:0:
376,100,80430,2,0,P|300:92|272:112,1,80,0|0,0:0|0:0,0:0:0:0:
219,191,80703,2,0,P|258:199|296:188,1,80,0|0,0:0|0:0,0:0:0:0:
220,92,80976,2,0,P|160:92|128:124,1,80,0|0,0:0|0:0,0:0:0:0:
124,116,81180,1,0,0:0:0:0:
108,132,81249,2,0,P|84:216|92:236,1,80,4|0,0:0|0:0,0:0:0:0:
176,204,81521,6,0,P|224:164|264:160,1,80,0|0,0:0|0:0,0:0:0:0:
324,184,81794,1,0,0:0:0:0:
392,240,81930,2,0,P|439:264|487:248,2,80,0|0|0,0:0|0:0|0:0,0:0:0:0:
324,184,82339,5,0,0:0:0:0:
242,244,82476,1,0,0:0:0:0:
328,300,82612,2,0,P|190:331|158:310,1,160,0|0,0:0|0:0,0:0:0:0:
112,292,83021,2,0,P|56:212|83:140,1,160,0|0,0:0|0:0,0:0:0:0:
112,76,83430,5,4,0:0:0:0:
112,76,83567,1,0,0:0:0:0:
196,32,83703,2,0,P|252:48|280:88,1,80,0|0,0:0|0:0,0:0:0:0:
256,160,83976,1,0,0:0:0:0:
172,204,84112,2,0,P|164:272|196:304,1,80,0|0,0:0|0:0,0:0:0:0:
224,356,84385,1,0,0:0:0:0:
300,296,84521,1,0,0:0:0:0:
376,356,84658,1,0,0:0:0:0:
452,296,84794,6,0,P|444:224|468:196,1,80,0|0,0:0|0:0,0:0:0:0:
356,188,85067,2,0,L|356:72,1,80,0|0,0:0|0:0,0:0:0:0:
260,112,85339,2,0,L|188:28,1,80,0|0,0:0|0:0,0:0:0:0:
207,51,85544,1,0,0:0:0:0:
207,51,85612,1,4,0:0:0:0:
120,48,85749,5,0,0:0:0:0:
44,92,85885,2,0,P|24:188|68:232,1,160,0|0,0:0|0:0,0:0:0:0:
112,152,86294,2,0,P|152:184|128:288,1,160,0|0,0:0|0:0,0:0:0:0:
216,340,86703,6,0,P|268:344|324:324,1,80,2|0,0:0|0:0,0:0:0:0:
404,232,86976,2,0,P|408:180|388:124,1,80,2|0,0:0|0:0,0:0:0:0:
296,44,87249,1,2,0:0:0:0:
248,108,87385,1,0,0:0:0:0:
200,44,87521,1,2,0:0:0:0:
152,108,87658,1,0,0:0:0:0:
116,180,87794,6,0,L|60:280,1,80,4|0,0:0|0:0,0:0:0:0:
212,260,88067,2,0,L|268:160,1,80,0|0,0:0|0:0,0:0:0:0:
320,148,88339,1,0,0:0:0:0:
308,68,88476,1,0,0:0:0:0:
241,25,88612,1,0,0:0:0:0:
176,72,88749,2,0,P|196:112|164:224,1,160,0|0,0:0|0:0,0:0:0:0:
104,264,89158,1,0,0:0:0:0:
36,224,89294,1,0,0:0:0:0:
40,144,89430,2,0,P|80:104|128:80,1,80,0|0,0:0|0:0,0:0:0:0:
352,144,89703,2,0,P|312:104|264:80,1,80,0|0,0:0|0:0,0:0:0:0:
272,80,89908,1,0,0:0:0:0:
252,68,89976,1,4,0:0:0:0:
180,40,90112,5,0,0:0:0:0:
120,92,90249,1,0,0:0:0:0:
120,172,90385,1,0,0:0:0:0:
188,212,90521,2,0,P|264:228|284:308,1,160,0|0,0:0|0:0,0:0:0:0:
228,356,90930,2,0,P|152:340|132:260,1,160,0|0,0:0|0:0,0:0:0:0:
188,212,91339,1,0,0:0:0:0:
256,172,91476,1,0,0:0:0:0:
324,216,91612,1,0,0:0:0:0:
256,72,91885,2,0,P|180:96|164:116,1,80,0|0,0:0|0:0,0:0:0:0:
108,192,92158,5,4,0:0:0:0:
108,192,92294,1,0,0:0:0:0:
108,192,92430,1,0,0:0:0:0:
440,332,92703,1,0,0:0:0:0:
440,332,92839,1,0,0:0:0:0:
440,332,92976,1,0,0:0:0:0:
80,258,93249,5,0,0:0:0:0:
36,192,93385,2,0,P|64:136|104:124,1,80,0|0,0:0|0:0,0:0:0:0:
156,132,93658,1,0,0:0:0:0:
212,188,93794,1,0,0:0:0:0:
268,132,93930,2,0,P|328:124|376:160,1,80,0|0,0:0|0:0,0:0:0:0:
368,228,94203,5,0,0:0:0:0:
356,244,94271,1,0,0:0:0:0:
344,260,94339,2,0,L|296:328,1,80,4|0,0:0|0:0,0:0:0:0:
168,192,94612,2,0,L|216:260,1,80,0|0,0:0|0:0,0:0:0:0:
344,124,94884,2,0,L|296:192,1,80,0|0,0:0|0:0,0:0:0:0:
168,56,95157,2,0,L|216:124,1,80,0|0,0:0|0:0,0:0:0:0:
256,212,95430,5,0,0:0:0:0:
256,212,95567,1,0,0:0:0:0:
200,288,95703,1,0,0:0:0:0:
200,288,95839,1,0,0:0:0:0:
312,288,95976,1,0,0:0:0:0:
312,288,96112,1,0,0:0:0:0:
436,128,96521,6,0,P|388:56|276:76,1,176.000005371094,4|8,0:0|0:0,0:0:0:0:
258,128,96930,1,0,0:0:0:0:
188,76,97067,2,0,P|143:67|100:24,1,88.000002685547,0|0,0:0|0:0,0:0:0:0:
188,184,97339,1,8,0:0:0:0:
188,184,97476,2,0,P|104:200|92:304,1,176.000005371094,4|0,0:0|0:0,0:0:0:0:
140,344,97885,2,0,P|224:328|236:224,1,176.000005371094,8|0,0:0|0:0,0:0:0:0:
295,175,98294,1,0,0:0:0:0:
376,208,98430,1,8,0:0:0:0:
432,276,98567,2,0,P|392:344|280:344,1,176.000005371094,4|0,0:0|0:0,0:0:0:0:
210,355,98976,2,0,P|125:347|80:276,1,176.000005371094,8|0,0:0|0:0,0:0:0:0:
92,188,99385,1,0,0:0:0:0:
148,120,99521,1,8,0:0:0:0:
236,132,99658,6,0,L|336:92,1,88.000002685547,4|0,0:0|0:0,0:0:0:0:
320,196,99930,2,0,L|408:240,1,88.000002685547,0|8,0:0|0:0,0:0:0:0:
324,316,100203,1,0,0:0:0:0:
324,316,100339,2,0,P|244:296|228:272,1,88.000002685547,0|0,0:0|0:0,0:0:0:0:
188,228,100612,2,0,P|184:152|216:120,1,88.000002685547,8|0,0:0|0:0,0:0:0:0:
248,80,100885,6,0,P|348:100|364:192,1,176.000005371094,4|8,0:0|0:0,0:0:0:0:
156,244,101430,1,0,0:0:0:0:
208,316,101567,1,0,0:0:0:0:
292,344,101703,1,8,0:0:0:0:
380,328,101839,2,0,P|440:284|448:164,1,176.000005371094,4|0,0:0|0:0,0:0:0:0:
380,148,102249,2,0,P|320:192|312:312,1,176.000005371094,8|0,0:0|0:0,0:0:0:0:
302,287,102658,1,0,0:0:0:0:
209,287,102794,1,8,0:0:0:0:
209,287,102930,2,0,P|198:202|132:148,1,176.000005371094,4|0,0:0|0:0,0:0:0:0:
54,188,103339,2,0,P|65:273|132:328,1,176.000005371094,8|0,0:0|0:0,0:0:0:0:
209,287,103749,1,0,0:0:0:0:
288,328,103885,1,8,0:0:0:0:
364,287,104021,1,4,0:0:0:0:
480,136,104294,5,0,0:0:0:0:
480,136,104430,2,0,P|444:52|352:36,1,176.000005371094,8|0,0:0|0:0,0:0:0:0:
294,97,104839,1,0,0:0:0:0:
388,124,104976,2,0,P|316:192|216:160,1,176.000005371094,8|4,0:0|0:0,0:0:0:0:
140,192,105385,5,0,0:0:0:0:
89,121,105521,2,8,P|74:80|88:40,1,88.000002685547,8|0,0:0|0:0,0:0:0:0:
185,38,105794,2,0,P|170:79|184:120,1,88.000002685547,0|0,0:0|0:0,0:0:0:0:
220,228,106067,1,8,0:0:0:0:
300,188,106203,2,0,P|388:180|440:276,1,176.000005371094,4|0,0:0|0:0,0:0:0:0:
352,264,106612,1,8,0:0:0:0:
156,332,106885,1,0,0:0:0:0:
156,332,107021,1,0,0:0:0:0:
156,332,107158,2,0,P|112:268|116:228,1,88.000002685547,8|4,0:0|0:0,0:0:0:0:
64,56,107567,1,0,0:0:0:0:
124,120,107703,1,8,0:0:0:0:
256,236,107976,1,0,0:0:0:0:
324,292,108112,2,0,P|412:300|440:200,1,176.000005371094,0|4,0:0|0:0,0:0:0:0:
352,64,108658,5,0,0:0:0:0:
284,132,108794,2,0,P|240:164|188:168,1,88.000002685547,8|0,0:0|0:0,0:0:0:0:
136,48,109067,1,0,0:0:0:0:
206,89,109203,1,0,0:0:0:0:
136,132,109339,2,0,P|78:120|48:68,1,88.000002685547,8|0,0:0|0:0,0:0:0:0:
136,48,109612,6,0,P|244:28|292:104,1,176.000005371094,4|8,0:0|0:0,0:0:0:0:
380,252,110158,2,0,L|416:332,1,88.000002685547,0|0,0:0|0:0,0:0:0:0:
328,332,110430,2,0,L|288:244,1,88.000002685547,8|4,0:0|0:0,0:0:0:0:
206,89,110839,1,0,0:0:0:0:
136,48,110976,2,0,P|72:44|28:136,1,176.000005371094,8|0,0:0|0:0,0:0:0:0:
40,212,111385,1,0,0:0:0:0:
40,212,111521,2,0,P|70:254|116:268,1,88.000002685547,8|4,0:0|0:0,0:0:0:0:
280,268,111930,2,0,P|250:310|204:324,1,88.000002685547,0|8,0:0|0:0,0:0:0:0:
152,144,112339,1,0,0:0:0:0:
212,80,112476,1,0,0:0:0:0:
300,80,112612,1,8,0:0:0:0:
360,144,112749,6,0,P|388:188|460:204,1,88.000002685547,4|0,0:0|0:0,0:0:0:0:
248,288,113021,2,0,P|282:246|292:184,1,88.000002685547,0|8,0:0|0:0,0:0:0:0:
306,128,113294,1,0,0:0:0:0:
240,60,113430,2,0,P|316:32|340:40,2,88.000002685547,2|0|2,0:0|0:0|0:0,0:0:0:0:
136,268,113976,6,0,P|64:216|72:124,1,160,4|8,0:0|0:0,0:0:0:0:
92,64,114385,1,0,0:0:0:0:
168,100,114521,2,0,L|168:192,2,80,0|0|8,0:0|0:0|0:0,0:0:0:0:
92,64,114930,2,0,P|196:20|236:144,1,240,2|8,0:0|0:0,0:0:0:0:
192,276,115612,5,0,0:0:0:0:
256,324,115749,1,0,0:0:0:0:
320,276,115885,1,8,0:0:0:0:
256,232,116021,2,0,P|160:204|132:324,1,240,4|8,0:0|0:0,0:0:0:0:
364,344,116703,5,0,0:0:0:0:
432,304,116839,1,0,0:0:0:0:
452,228,116976,1,8,0:0:0:0:
432,152,117112,2,0,P|404:128|332:128,1,80,2|0,0:0|0:0,0:0:0:0:
80,151,117521,6,0,P|110:126|149:119,1,80,8|0,0:0|0:0,0:0:0:0:
152,224,117794,2,0,P|121:249|82:256,1,80,8|0,0:0|0:0,0:0:0:0:
200,328,118067,1,8,0:0:0:0:
272,292,118203,2,0,P|312:180|196:124,1,240,4|8,0:0|0:0,0:0:0:0:
148,156,118749,6,0,P|108:168|60:148,1,80,0|0,0:0|0:0,0:0:0:0:
216,48,119021,2,0,P|256:40|332:84,1,80,0|8,0:0|0:0,0:0:0:0:
408,132,119294,2,0,P|392:204|248:160,1,240,2|8,0:0|0:0,0:0:0:0:
164,56,119976,5,0,0:0:0:0:
92,92,120112,1,0,0:0:0:0:
60,168,120249,1,8,0:0:0:0:
64,248,120385,2,0,P|124:340|264:304,1,240,4|8,0:0|0:0,0:0:0:0:
296,260,120930,6,0,P|360:220|372:216,1,80,0|0,0:0|0:0,0:0:0:0:
216,184,121203,2,0,P|152:144|140:140,1,80,0|8,0:0|0:0,0:0:0:0:
296,100,121476,1,2,0:0:0:0:
124,268,121885,6,0,P|93:305|84:364,1,80,2|0,0:0|0:0,0:0:0:0:
256,248,122158,2,0,L|256:348,1,80,2|0,0:0|0:0,0:0:0:0:
388,268,122430,2,0,P|418:305|428:364,2,80,0|0|4,0:2|0:0|0:0,0:0:0:0:
336,208,122839,5,0,0:0:0:0:
388,148,122976,1,0,0:0:0:0:
336,88,123112,1,0,0:0:0:0:
336,88,123249,2,0,P|384:28|416:16,1,80,0|0,0:0|0:0,0:0:0:0:
284,148,123521,5,0,0:0:0:0:
284,148,123658,2,0,P|260:228|324:284,1,160,4|0,0:0|0:0,0:0:0:0:
380,312,124067,1,0,0:0:0:0:
448,272,124203,1,0,0:0:0:0:
471,196,124339,2,0,L|508:148,2,40,0|0|0,0:0|0:0|0:0,0:0:0:0:
392,212,124612,1,0,0:0:0:0:
392,132,124749,6,0,P|328:164|324:252,1,160,4|0,0:0|0:0,0:0:0:0:
276,312,125158,1,0,0:0:0:0:
200,336,125294,1,0,0:0:0:0:
180,340,125362,1,0,0:0:0:0:
160,340,125430,2,0,P|128:336|96:300,2,80,0|0|0,0:0|0:0|0:0,0:0:0:0:
176,260,125839,6,0,P|147:158|72:152,1,160,4|0,0:0|0:0,0:0:0:0:
40,100,126249,2,0,P|76:68|124:72,1,80,0|0,0:0|0:0,0:0:0:0:
196,32,126521,1,0,0:0:0:0:
267,98,126658,1,0,0:0:0:0:
336,32,126794,2,0,L|393:87,1,80,0|0,0:0|0:0,0:0:0:0:
448,148,127067,6,0,P|464:244|428:284,1,80,4|0,0:0|0:0,0:0:0:0:
412,296,127339,1,0,0:0:0:0:
412,296,127476,1,0,0:0:0:0:
344,208,127612,1,0,0:0:0:0:
344,208,127749,1,0,0:0:0:0:
276,296,127885,5,0,0:0:0:0:
276,296,128021,2,0,P|196:336|152:248,1,160,4|0,0:0|0:0,0:0:0:0:
108,220,128430,1,0,0:0:0:0:
172,156,128567,1,0,0:0:0:0:
232,220,128703,1,0,0:0:0:0:
256,224,128771,1,0,0:0:0:0:
280,220,128839,1,0,0:0:0:0:
340,156,128976,1,0,0:0:0:0:
400,220,129112,6,0,P|424:172|360:68,1,160,4|0,0:0|0:0,0:0:0:0:
316,40,129521,2,0,P|256:88|256:112,1,80,0|0,0:0|0:0,0:0:0:0:
252,112,129726,1,0,0:0:0:0:
256,140,129794,2,0,P|277:172|315:184,1,80,0|0,0:0|0:0,0:0:0:0:
240,232,130067,5,0,0:0:0:0:
240,232,130203,2,0,P|218:264|120:208,1,160,4|0,0:0|0:0,0:0:0:0:
92,156,130612,1,0,0:0:0:0:
128,84,130749,1,0,0:0:0:0:
197,124,130885,1,0,0:0:0:0:
256,70,131021,1,0,0:0:0:0:
315,124,131158,1,0,0:0:0:0:
384,84,131294,1,0,0:0:0:0:
420,156,131430,6,0,P|416:244|372:272,1,80,4|0,0:0|0:0,0:0:0:0:
400,308,131703,2,0,P|348:336|248:308,1,160,0|0,0:0|0:0,0:0:0:0:
216,242,132112,1,0,0:0:0:0:
252,171,132249,1,0,0:0:0:0:
328,148,132385,6,0,P|404:120|488:176,1,160,4|0,0:0|0:0,0:0:0:0:
496,60,132794,2,0,P|400:24|316:52,1,160,0|0,0:0|0:0,0:0:0:0:
328,48,133135,1,0,0:0:0:0:
308,60,133203,1,0,0:0:0:0:
219,39,133339,1,0,0:0:0:0:
140,88,133476,6,0,P|104:160|160:236,1,160,4|0,0:0|0:0,0:0:0:0:
204,284,133885,1,0,0:0:0:0:
256,216,134021,1,0,0:0:0:0:
256,216,134089,1,0,0:0:0:0:
256,216,134158,1,0,0:0:0:0:
332,272,134294,1,0,0:0:0:0:
384,192,134430,1,0,0:0:0:0:
356,100,134567,6,0,P|320:48|224:40,1,160,4|0,0:0|0:0,0:0:0:0:
220,168,134976,2,0,P|148:208|116:204,1,80,0|0,0:0|0:0,0:0:0:0:
32,148,135249,2,0,P|84:104|116:96,1,80,0|0,0:0|0:0,0:0:0:0:
216,40,135521,2,0,P|284:37|314:50,1,80,0|0,0:0|0:0,0:0:0:0:
364,80,135794,5,4,0:0:0:0:
416,140,135930,1,0,0:0:0:0:
404,220,136067,2,0,P|348:292|284:296,1,160,0|0,0:0|0:0,0:0:0:0:
212,260,136476,1,0,0:0:0:0:
140,296,136612,1,0,0:0:0:0:
148,216,136749,6,0,P|185:151|265:139,1,160,4|0,0:0|0:0,0:0:0:0:
324,216,137158,2,0,P|368:228|412:200,1,80,0|0,0:0|0:0,0:0:0:0:
460,147,137430,2,0,L|488:103,2,40,0|0|0,0:0|0:0|0:0,0:0:0:0:
396,92,137703,5,0,0:0:0:0:
396,92,137839,2,0,P|356:52|240:72,1,160,4|0,0:0|0:0,0:0:0:0:
212,124,138249,1,0,0:0:0:0:
148,76,138385,1,0,0:0:0:0:
148,76,138453,1,0,0:0:0:0:
148,76,138521,2,0,L|56:36,1,80,0|0,0:0|0:0,0:0:0:0:
148,172,138794,2,0,L|56:212,1,80,0|4,0:0|0:0,0:0:0:0:
216,280,139203,5,0,0:0:0:0:
216,280,139339,2,0,P|280:284|324:268,1,80,8|0,0:0|0:0,0:0:0:0:
392,152,139612,2,0,P|349:103|307:84,1,80,8|0,0:0|0:0,0:0:0:0:
175,95,139885,2,0,P|143:119|120:152,1,80,8|0,0:0|0:0,0:0:0:0:
100,248,140158,6,0,L|124:292,5,40,12|0|0|0|8|0,0:2|0:0|0:0|0:0|0:0|0:0,0:0:0:0:
144,312,140567,2,0,L|196:348,5,40,0|0|8|0|0|0,0:0|0:0|0:0|0:0|0:0|0:0,0:0:0:0:
216,344,140976,2,0,L|284:344,5,40,8|0|0|0|8|0,0:0|0:0|0:0|0:0|0:0|0:0,0:0:0:0:
304,336,141385,2,0,L|336:313,5,40,0|0|8|0|0|0,0:0|0:0|0:0|0:0|0:0|0:0,0:0:0:0:
372,280,141794,2,0,L|391:244,7,40,8|0|0|0|8|0|0|0,0:0|0:0|0:0|0:0|0:0|0:0|0:0|0:0,0:0:0:0:
404,216,142339,5,12,0:0:0:0:
408,192,142408,1,0,0:0:0:0:
408,168,142476,1,0,0:0:0:0:
404,144,142544,1,0,0:0:0:0:
396,120,142612,1,8,0:0:0:0:
384,100,142680,1,0,0:0:0:0:
367,82,142749,1,0,0:0:0:0:
348,68,142817,1,0,0:0:0:0:
324,56,142885,2,0,L|276:48,3,40,8|0|0|0,0:0|0:0|0:0|0:0,0:0:0:0:
248,44,143158,2,0,L|178:47,3,40,8|0|0|0,0:0|0:0|0:0|0:0,0:0:0:0:
185,52,143430,1,8,0:0:0:0:
162,61,143499,1,0,0:0:0:0:
142,69,143567,6,0,B|99:83|118:116|118:116|91:140|91:140|113:168|113:168|89:200|89:200|114:230|114:230|98:257|98:257|118:294|140:298,1,287.999991210938,0|0,0:0|0:0,0:0:0:0:
256,304,144521,6,0,L|316:304,7,40,12|0|0|0|8|0|0|0,0:0|0:0|0:0|0:0|0:0|0:0|0:0|0:0,0:0:0:0:
336,304,145067,2,0,L|396:304,6,40,8|0|0|0|8|0|0,0:0|0:0|0:0|0:0|0:0|0:0|0:0,0:0:0:0:
436,224,145612,6,0,L|376:224,7,40,8|0|0|0|8|0|0|0,0:0|0:0|0:0|0:0|0:0|0:0|0:0|0:0,0:0:0:0:
376,224,146158,1,8,0:0:0:0:
356,224,146226,1,0,0:0:0:0:
336,224,146294,1,0,0:0:0:0:
316,224,146362,1,0,0:0:0:0:
296,224,146430,1,8,0:0:0:0:
276,224,146499,1,0,0:0:0:0:
256,224,146567,1,0,0:0:0:0:
236,224,146635,1,0,0:0:0:0:
208,220,146703,6,0,L|152:192,7,40,12|0|0|0|8|0|0|0,0:0|0:0|0:0|0:0|0:0|0:0|0:0|0:0,0:0:0:0:
144,176,147249,2,0,L|120:116,7,40,8|0|0|0|8|0|0|0,0:0|0:0|0:0|0:0|0:0|0:0|0:0|0:0,0:0:0:0:
128,104,147794,2,0,L|160:36,7,40,8|0|0|0|8|0|0|0,0:0|0:0|0:0|0:0|0:0|0:0|0:0|0:0,0:0:0:0:
168,40,148339,2,0,L|232:16,7,40,8|0|0|0|8|0|0|0,0:0|0:0|0:0|0:0|0:0|0:0|0:0|0:0,0:0:0:0:
244,24,148885,6,0,P|324:48|356:124,2,160,12|8|8,0:0|0:0|0:0,0:0:0:0:
168,40,149567,1,0,0:0:0:0:
96,76,149703,1,8,0:0:0:0:
52,144,149839,1,0,0:0:0:0:
48,224,149976,2,0,P|64:288|176:328,1,160,8|8,0:0|0:0,0:0:0:0:
232,336,150385,1,0,0:0:0:0:
268,232,150521,1,8,0:0:0:0:
304,336,150658,1,0,0:0:0:0:
344,232,150794,1,8,0:0:0:0:
380,336,150930,1,0,0:0:0:0:
444,272,151067,6,0,L|472:224,3,40,12|0|0|0,0:0|0:0|0:0|0:0,0:0:0:0:
480,200,151339,2,0,L|488:132,3,40,8|0|0|0,0:0|0:0|0:0|0:0,0:0:0:0:
476,120,151612,2,0,L|452:84,3,40,8|0|0|0,0:0|0:0|0:0|0:0,0:0:0:0:
424,60,151885,2,0,L|384:32,3,40,8|0|0|0,0:0|0:0|0:0|0:0,0:0:0:0:
340,20,152158,6,0,B|296:72|252:32|252:32|236:56|236:56|208:32|208:32|184:56|184:56|160:32|160:32|116:72|76:20,1,335.999989746094,8|8,0:0|0:0,0:0:0:0:
40,100,153112,5,0,0:0:0:0:
40,100,153249,2,0,P|32:176|100:228,1,160,12|8,0:0|0:0,0:0:0:0:
172,228,153658,2,0,P|230:178|222:101,1,160,0|0,0:0|0:0,0:0:0:0:
172,40,154067,2,0,P|112:32|76:60,1,80,8|0,0:0|0:0,0:0:0:0:
100,120,154339,5,8,0:0:0:0:
100,120,154408,1,0,0:0:0:0:
100,120,154476,2,0,L|160:192,1,80,0|8,0:0|0:0,0:0:0:0:
216,228,154749,1,0,0:0:0:0:
216,228,154817,1,0,0:0:0:0:
216,228,154885,2,0,L|324:228,1,80,8|0,0:0|0:0,0:0:0:0:
356,174,155158,1,8,0:0:0:0:
356,174,155226,1,0,0:0:0:0:
356,174,155294,1,0,0:0:0:0:
288,132,155430,6,0,L|288:72,3,40,12|0|0|0,0:0|0:0|0:0|0:0,0:0:0:0:
304,56,155703,2,0,L|360:16,3,40,8|0|0|0,0:0|0:0|0:0|0:0,0:0:0:0:
376,36,155976,2,0,L|428:76,3,40,8|0|0|0,0:0|0:0|0:0|0:0,0:0:0:0:
432,92,156249,2,0,L|432:152,3,40,8|0|0|0,0:0|0:0|0:0|0:0,0:0:0:0:
432,172,156521,2,0,B|440:228|408:232|408:232|412:256|412:256|384:256|384:256|384:284|384:284|360:276|360:276|328:312|284:292,1,240,8|0,0:0|0:0,0:0:0:0:
256,240,157067,5,8,0:0:0:0:
256,240,157203,2,0,B|264:190|264:190|304:180|318:149|318:149|384:148,1,167.999994873047,0|4,0:0|0:0,0:0:0:0:
256,192,161976,12,4,164158,0:0:0:0:
356,152,164430,6,0,L|292:92,1,80,8|0,0:0|0:0,0:0:0:0:
216,96,164703,2,0,L|152:164,1,80,8|0,0:0|0:0,0:0:0:0:
188,232,164976,2,0,P|256:264|344:204,1,160,8|2,0:0|0:0,0:0:0:0:
408,92,165521,5,2,0:0:0:0:
256,280,165794,1,2,0:0:0:0:
104,92,166067,1,2,0:0:0:0:
268,192,166339,6,0,L|360:192,1,80,4|0,0:0|0:0,0:0:0:0:
192,268,166612,2,0,L|257:333,1,80,0|0,0:0|0:0,0:0:0:0:
80,220,166885,2,0,L|80:312,1,80,0|0,0:0|0:0,0:0:0:0:
144,108,167158,1,0,0:0:0:0:
144,108,167294,2,0,P|168:84|296:124,1,160,0|0,0:0|0:0,0:0:0:0:
332,172,167703,2,0,P|400:216|428:212,2,80,0|0|0,0:0|0:0|0:0,0:0:0:0:
224,48,168249,2,0,P|292:44|320:64,1,80,0|0,0:0|0:0,0:0:0:0:
320,60,168453,1,0,0:0:0:0:
336,76,168521,6,0,P|392:96|436:84,1,80,4|0,0:0|0:0,0:0:0:0:
280,204,168794,2,0,P|249:175|248:120,1,80,0|0,0:0|0:0,0:0:0:0:
144,52,169067,2,0,P|72:96|72:168,1,160,0|0,0:0|0:0,0:0:0:0:
148,136,169476,2,0,P|152:196|68:248,1,160,0|0,0:0|0:0,0:0:0:0:
24,180,169885,1,0,0:0:0:0:
52,96,170021,1,0,0:0:0:0:
132,56,170158,1,0,0:0:0:0:
380,56,170430,1,0,0:0:0:0:
460,96,170567,1,0,0:0:0:0:
488,180,170703,6,0,P|440:244|424:248,2,80,4|0|0,0:0|0:0|0:0,0:0:0:0:
332,116,171249,1,0,0:0:0:0:
332,116,171385,2,0,P|292:168|324:280,1,160,0|0,0:0|0:0,0:0:0:0:
380,232,171794,1,0,0:0:0:0:
380,232,171930,2,0,P|371:297|269:353,1,160,0|0,0:0|0:0,0:0:0:0:
211,352,172339,1,0,0:0:0:0:
211,352,172476,2,0,P|147:308|132:232,1,160,0|0,0:0|0:0,0:0:0:0:
184,168,172885,6,0,P|144:108|124:100,1,80,4|0,0:0|0:0,0:0:0:0:
280,120,173158,2,0,P|340:80|348:60,1,80,0|0,0:0|0:0,0:0:0:0:
328,216,173430,2,0,P|368:276|388:284,1,80,0|0,0:0|0:0,0:0:0:0:
232,264,173703,2,0,P|172:304|164:324,1,80,0|0,0:0|0:0,0:0:0:0:
80,272,173976,5,0,0:0:0:0:
80,272,174112,1,0,0:0:0:0:
148,192,174249,1,0,0:0:0:0:
148,192,174385,1,0,0:0:0:0:
80,112,174521,5,0,0:0:0:0:
80,112,174658,2,0,P|160:72|224:136,1,167.999994873047,0|6,0:0|0:0,0:0:0:0:
256,168,183794,5,4,0:0:0:0:
128,108,184067,1,0,0:0:0:0:
44,220,184339,2,0,P|67:289|140:312,1,128,0|0,0:0|0:0,0:0:0:0:
256,312,184885,2,0,P|309:279|324:219,1,128,0|0,0:0|0:0,0:0:0:0:
256,96,185430,1,0,0:0:0:0:
152,192,185703,1,0,0:0:0:0:
256,288,185976,2,0,P|316:312|380:264,1,128,0|0,0:0|0:0,0:0:0:0:
264,188,186521,2,0,P|204:164|140:212,1,128,0|0,0:0|0:0,0:0:0:0:
64,200,186930,6,0,L|52:104,1,64,0|0,0:0|0:0,0:0:0:0:
116,60,187203,2,0,L|124:124,1,64,0|0,0:0|0:0,0:0:0:0:
200,172,187476,1,0,0:0:0:0:
200,172,187612,2,0,L|188:76,1,64,0|0,0:0|0:0,0:0:0:0:
184,32,187885,2,0,P|256:24|272:32,1,64,0|0,0:0|0:0,0:0:0:0:
324,40,188158,5,4,0:0:0:0:
324,180,188430,1,0,0:0:0:0:
184,180,188703,1,0,0:0:0:0:
184,40,188976,1,0,0:0:0:0:
360,12,189249,5,0,0:0:0:0:
360,216,189521,1,0,0:0:0:0:
156,220,189794,1,0,0:0:0:0:
156,16,190067,1,0,0:0:0:0:
288,92,190339,6,0,L|368:144,1,64,0|0,0:0|0:0,0:0:0:0:
228,152,190612,2,0,L|168:192,1,64,0|0,0:0|0:0,0:0:0:0:
288,220,190885,2,0,L|368:276,1,64,0|0,0:0|0:0,0:0:0:0:
228,284,191158,2,0,L|176:328,1,64,0|0,0:0|0:0,0:0:0:0:
256,192,191430,12,4,192521,0:0:0:0:
412,148,192794,6,0,P|360:52|284:48,1,176.000005371094,8|0,0:0|0:0,0:0:0:0:
236,100,193203,1,0,0:0:0:0:
168,44,193339,1,8,0:0:0:0:
92,84,193476,2,0,P|52:168|112:240,1,176.000005371094,4|0,0:0|0:0,0:0:0:0:
164,280,193885,2,0,P|204:296|300:272,1,88.000002685547,8|0,0:0|0:0,0:0:0:0:
352,188,194158,2,0,P|312:204|216:180,1,88.000002685547,0|0,0:0|0:0,0:0:0:0:
164,120,194430,1,8,0:0:0:0:
164,120,194567,2,0,P|212:48|344:80,1,176.000005371094,4|0,0:0|0:0,0:0:0:0:
380,60,194976,1,8,0:0:0:0:
424,136,195112,1,0,0:0:0:0:
352,188,195249,2,0,P|328:228|340:292,2,88.000002685547,0|0|8,0:0|0:0|0:0,0:0:0:0:
424,136,195658,6,0,P|368:56|252:80,1,176.000005371094,4|0,0:0|0:0,0:0:0:0:
200,112,196067,2,0,P|280:164|300:160,1,88.000002685547,8|0,0:0|0:0,0:0:0:0:
352,188,196339,1,0,0:0:0:0:
396,264,196476,1,0,0:0:0:0:
328,320,196612,2,0,P|260:364|176:300,1,176.000005371094,8|4,0:0|0:0,0:0:0:0:
100,148,197158,6,0,P|224:44|256:64,1,176.000005371094,8|0,0:0|0:0,0:0:0:0:
280,88,197567,1,0,0:0:0:0:
356,40,197703,1,8,0:0:0:0:
428,92,197839,2,0,P|464:240|424:276,1,176.000005371094,4|0,0:0|0:0,0:0:0:0:
460,244,198249,1,8,0:0:0:0:
276,188,198521,1,0,0:0:0:0:
296,276,198658,1,0,0:0:0:0:
364,220,198794,1,8,0:0:0:0:
364,220,198930,2,0,P|376:152|280:100,1,176.000005371094,4|0,0:0|0:0,0:0:0:0:
276,188,199339,2,0,P|159:219|105:167,1,176.000005371094,0|0,0:0|0:0,0:0:0:0:
68,124,199749,1,0,0:0:0:0:
96,40,199885,1,8,0:0:0:0:
180,20,200021,6,0,P|300:72|300:128,1,176.000005371094,4|0,0:0|0:0,0:0:0:0:
304,100,200430,1,8,0:0:0:0:
260,272,200703,2,0,L|188:188,1,88.000002685547,0|0,0:0|0:0,0:0:0:0:
352,272,200976,2,0,L|420:200,1,88.000002685547,8|0,0:0|0:0,0:0:0:0:
304,164,201249,6,0,P|372:84|440:100,1,176.000005371094,4|8,0:0|0:0,0:0:0:0:
448,272,201794,1,0,0:0:0:0:
392,340,201930,1,0,0:0:0:0:
304,348,202067,1,8,0:0:0:0:
216,336,202203,2,0,P|156:244|196:164,1,176.000005371094,4|0,0:0|0:0,0:0:0:0:
244,132,202612,1,8,0:0:0:0:
332,144,202749,2,0,P|388:208|374:292,1,176.000005371094,0|0,0:0|0:0,0:0:0:0:
304,348,203158,1,8,0:0:0:0:
216,336,203294,2,0,P|136:293|132:188,1,176.000005371094,4|0,0:0|0:0,0:0:0:0:
160,124,203703,1,8,0:0:0:0:
248,84,203839,2,0,P|349:89|386:174,1,176.000005371094,0|0,0:0|0:0,0:0:0:0:
412,240,204249,5,8,0:0:0:0:
412,240,204385,2,0,P|440:292|488:312,1,88.000002685547,4|0,0:0|0:0,0:0:0:0:
308,228,204658,2,0,P|296:168|320:116,1,88.000002685547,0|8,0:0|0:0,0:0:0:0:
344,64,204930,1,0,0:0:0:0:
260,36,205067,2,0,P|216:40|196:92,2,88.000002685547,0|0|8,0:0|0:0|0:0,0:0:0:0:
344,64,205476,1,0,0:0:0:0:
404,128,205612,6,0,P|412:240|368:296,1,176.000005371094,4|8,0:0|0:0,0:0:0:0:
256,136,206158,1,0,0:0:0:0:
192,196,206294,2,0,P|208:276|228:288,1,88.000002685547,0|8,0:0|0:0,0:0:0:0:
276,332,206567,2,0,P|368:272|352:184,1,176.000005371094,4|0,0:0|0:0,0:0:0:0:
332,136,206976,1,8,0:0:0:0:
252,96,207112,2,0,P|172:120|168:216,1,176.000005371094,0|0,0:0|0:0,0:0:0:0:
256,192,207522,1,8,0:0:0:0:
256,192,207658,2,0,P|244:256|128:292,1,176.000005371094,4|0,0:0|0:0,0:0:0:0:
68,268,208067,1,8,0:0:0:0:
68,268,208203,2,0,P|44:168|96:112,1,176.000005371094,0|0,0:0|0:0,0:0:0:0:
164,80,208612,1,8,0:0:0:0:
240,124,208749,6,0,P|292:88|312:28,1,88.000002685547,4|0,0:0|0:0,0:0:0:0:
296,192,209021,2,0,P|358:203|414:175,1,88.000002685547,0|0,0:0|0:0,0:0:0:0:
448,280,209294,5,0,0:0:0:0:
448,280,209430,2,0,P|412:332|332:332,1,128,0|8,0:0|0:0,0:0:0:0:
216,252,209976,6,0,P|164:284|156:312,1,80,4|0,0:0|0:0,0:0:0:0:
68,260,210249,1,8,0:0:0:0:
68,260,210385,2,0,P|68:176|80:152,1,80,0|0,0:0|0:0,0:0:0:0:
164,188,210658,2,0,P|164:104|152:80,1,80,0|0,0:0|0:0,0:0:0:0:
80,96,210930,2,0,P|168:24|252:96,1,240,2|8,0:0|0:0,0:0:0:0:
385,271,211612,5,0,0:0:0:0:
355,196,211748,1,0,0:0:0:0:
430,166,211884,1,0,0:0:0:0:
459,240,212021,2,0,P|440:332|312:304,1,240,4|8,0:0|0:0,0:0:0:0:
76,316,212703,5,0,0:0:0:0:
104,240,212839,1,0,0:0:0:0:
164,296,212976,1,0,0:0:0:0:
188,220,213112,2,0,P|203:184|204:136,1,80,2|0,0:0|0:0,0:0:0:0:
376,100,213521,6,0,P|405:108|440:168,1,80,8|0,0:0|0:0,0:0:0:0:
436,264,213794,2,0,P|406:255|372:196,1,80,8|0,0:0|0:0,0:0:0:0:
315,168,214067,1,8,0:0:0:0:
256,220,214203,1,4,0:0:0:0:
76,64,214612,5,8,0:0:0:0:
76,64,214749,2,0,P|152:32|236:104,2,160,0|0|2,0:0|0:0|0:0,0:0:0:0:
64,256,215703,6,0,P|116:324|160:332,1,80,8|0,0:0|0:0,0:0:0:0:
180,352,215976,1,0,0:0:0:0:
256,324,216112,1,0,0:0:0:0:
332,352,216249,1,8,0:0:0:0:
408,324,216385,2,0,P|480:244|440:120,1,240,4|8,0:0|0:0,0:0:0:0:
372,60,216930,6,0,P|304:84|288:120,1,80,0|0,0:0|0:0,0:0:0:0:
294,184,217203,2,0,P|254:196|198:172,1,80,0|8,0:0|0:0,0:0:0:0:
210,87,217476,2,0,P|179:63|140:60,1,80,2|0,0:0|0:0,0:0:0:0:
88,260,217885,5,8,0:0:0:0:
88,260,218021,1,0,0:0:0:0:
160,324,218158,2,0,P|200:348|244:344,1,80,8|0,0:0|0:0,0:0:0:0:
236,252,218430,2,0,P|276:276|320:272,1,80,8|0,0:0|0:0,0:0:0:0:
356,192,218703,6,0,P|368:100|412:80,1,80,4|0,0:0|0:0,0:0:0:0:
428,67,218976,1,0,0:0:0:0:
328,36,219112,2,0,L|224:28,1,80,0|0,0:0|0:0,0:0:0:0:
184,112,219385,2,0,L|264:120,1,80,0|0,0:0|0:0,0:0:0:0:
292,220,219658,2,0,P|236:284|160:256,1,160,0|0,0:0|0:0,0:0:0:0:
101,228,220067,1,0,0:0:0:0:
92,148,220203,2,0,P|156:72|172:68,1,80,0|0,0:0|0:0,0:0:0:0:
180,196,220476,2,0,P|207:167|222:130,1,80,0|0,0:0|0:0,0:0:0:0:
256,56,220749,5,0,0:0:0:0:
256,56,220817,1,0,0:0:0:0:
256,56,220885,2,0,P|328:52|352:60,1,80,4|0,0:0|0:0,0:0:0:0:
404,92,221158,1,0,0:0:0:0:
404,172,221294,2,0,P|404:260|416:268,1,80,0|0,0:0|0:0,0:0:0:0:
328,328,221567,2,0,P|300:256|304:236,1,80,0|0,0:0|0:0,0:0:0:0:
320,172,221839,2,0,P|288:100|196:188,1,240,0|0,0:0|0:0,0:0:0:0:
152,328,222521,5,0,0:0:0:0:
204,268,222658,1,0,0:0:0:0:
256,328,222794,1,0,0:0:0:0:
312,268,222931,1,0,0:0:0:0:
364,328,223067,6,0,P|432:296|432:184,1,160,4|0,0:0|0:0,0:0:0:0:
412,144,223476,2,0,P|424:76|448:56,1,80,0|0,0:0|0:0,0:0:0:0:
328,192,223749,2,0,P|368:244|392:252,1,80,0|0,0:0|0:0,0:0:0:0:
296,112,224021,2,0,P|224:48|116:124,1,240,0|0,0:0|0:0,0:0:0:0:
72,228,224567,6,0,P|132:228|172:196,1,80,0|0,0:0|0:0,0:0:0:0:
208,296,224839,2,0,P|248:244|248:204,1,80,0|0,0:0|0:0,0:0:0:0:
348,224,225112,1,0,0:0:0:0:
348,224,225180,1,0,0:0:0:0:
348,224,225249,2,0,P|296:148|228:136,1,160,4|0,0:0|0:0,0:0:0:0:
164,96,225658,6,0,P|136:28|152:4,1,80,0|0,0:0|0:0,0:0:0:0:
164,180,225930,2,0,P|136:248|152:272,1,80,0|0,0:0|0:0,0:0:0:0:
232,232,226203,2,0,P|288:128|204:32,1,240,0|0,0:0|0:0,0:0:0:0:
120,200,226885,5,8,0:0:0:0:
196,108,227021,1,8,0:0:0:0:
316,108,227158,1,8,0:0:0:0:
392,200,227294,1,4,0:0:0:0:
