osu file format v14

[General]
AudioFilename: Give me Chocolate .mp3
AudioLeadIn: 0
PreviewTime: 52885
Countdown: 0
SampleSet: Soft
StackLeniency: 0.7
Mode: 0
LetterboxInBreaks: 0
EpilepsyWarning: 1
WidescreenStoryboard: 0

[Editor]
DistanceSpacing: 0.5
BeatDivisor: 4
GridSize: 4
TimelineZoom: 0.9

[Metadata]
Title:Gimme Chocolate!!
TitleUnicode:ギミチョコ!!
Artist:BABYMETAL
ArtistUnicode:BABYMETAL
Creator:Rad-
Version:Hard
Source:
Tags:J-metal idol rock loli kitsune give me ilikecheese defused bomb nwolf
BeatmapID:438315
BeatmapSetID:162368

[Difficulty]
HPDrainRate:5
CircleSize:4
OverallDifficulty:6
ApproachRate:8
SliderMultiplier:1.2
SliderTickRate:1

[Events]
//Background and Video events
0,0,"babymetal.jpg",0,0
Video,0,"gimme.flv"
//Break Periods
2,35630,43408
2,70339,77771
2,114175,117999
2,157812,161226
2,175267,183044
//Storyboard Layer 0 (Background)
//Storyboard Layer 1 (Fail)
//Storyboard Layer 2 (Pass)
//Storyboard Layer 3 (Foreground)
//Storyboard Sound Samples

[TimingPoints]
9249,272.727272727273,4,2,1,90,1,0
52339,-142.857142857143,4,2,1,90,0,0
52885,-90.9090909090909,4,2,1,95,0,1
69794,-100,4,2,1,90,0,0
95976,-142.857142857143,4,2,1,90,0,0
96521,-90.9090909090909,4,2,1,95,0,1
113430,-100,4,2,1,95,0,1
113976,-100,4,2,1,90,0,0
140158,-100,4,2,2,75,0,0
143430,-111.111111111111,4,2,2,75,0,0
148885,-100,4,2,2,75,0,0
152158,-111.111111111111,4,2,2,75,0,0
154339,-100,4,2,2,75,0,0
161976,-100,4,2,2,20,0,0
164158,-100,4,2,2,75,0,0
165249,-100,4,2,1,90,0,0
174521,-142.857142857143,4,2,1,90,0,0
183794,-111.111111111111,4,2,1,90,0,0
192521,-90.9090909090909,4,2,1,95,0,1
209430,-111.111111111111,4,2,1,95,0,1
209976,-100,4,2,1,90,0,0

[Colours]
Combo1 : 148,148,148
Combo2 : 0,0,193
Combo3 : 255,0,0

[HitObjects]
56,280,9249,6,0,P|112:304|176:256,1,120,4|0,0:0|0:0,0:0:0:0:
240,184,9794,2,0,L|292:236,1,60
336,264,10067,1,0,0:0:0:0:
336,264,10203,2,0,P|408:240|408:184,1,120,4|0,0:0|0:0,0:0:0:0:
416,136,10612,1,0,0:0:0:0:
304,68,10885,2,0,L|272:28,2,30
296,132,11158,5,0,0:0:0:0:
296,132,11294,2,0,P|184:124|176:108,1,120,4|0,0:0|0:0,0:0:0:0:
136,92,11703,1,0,0:0:0:0:
16,184,11976,1,0,0:0:0:0:
36,212,12112,1,0,0:0:0:0:
56,240,12249,1,0,0:0:0:0:
80,264,12385,2,0,P|160:176|144:128,1,180,4|0,0:0|0:0,0:0:0:0:
256,56,13067,2,0,P|304:88|384:72,1,120
328,212,13612,6,0,P|280:180|200:196,1,120,4|0,0:0|0:0,0:0:0:0:
160,212,14021,1,0,0:0:0:0:
101,242,14158,2,0,P|76:264|40:276,2,60
100,176,14567,2,0,P|136:84|224:76,1,180,4|0,0:0|0:0,0:0:0:0:
308,128,15249,2,0,L|308:172,2,30
332,68,15521,5,0,0:0:0:0:
332,68,15658,2,0,P|400:60|452:160,1,180,4|0,0:0|0:0,0:0:0:0:
408,192,16203,2,0,L|408:244,2,30
362,144,16476,1,0,0:0:0:0:
317,192,16612,1,0,0:0:0:0:
272,144,16749,2,0,P|228:132|212:48,1,120,4|0,0:0|0:0,0:0:0:0:
144,36,17158,2,0,L|92:80,1,60
60,128,17430,2,0,L|60:216,1,60
104,236,17703,2,0,L|176:288,1,60
216,296,17976,6,0,P|268:268|324:316,1,120,4|0,0:0|0:0,0:0:0:0:
372,336,18385,1,0,0:0:0:0:
424,296,18521,2,0,P|456:252|456:236,1,60
460,184,18794,1,0,0:0:0:0:
460,184,18930,2,0,P|424:144|320:204,1,180,4|0,0:0|0:0,0:0:0:0:
256,72,19612,2,0,L|256:24,2,30
228,132,19885,5,0,0:0:0:0:
228,132,20021,2,0,P|140:168|80:104,1,180,4|0,0:0|0:0,0:0:0:0:
80,52,20567,2,0,L|68:24,2,30
140,76,20839,1,0,0:0:0:0:
188,32,20976,1,0,0:0:0:0:
244,64,21112,2,0,P|304:84|340:148,1,120,4|0,0:0|0:0,0:0:0:0:
320,208,21521,2,0,L|376:272,1,60
256,232,21794,2,0,L|256:312,1,60
192,208,22067,2,0,L|136:272,1,60
100,292,22339,6,0,P|44:240|44:184,2,120,4|0|0,0:0|0:0|0:0,0:0:0:0:
256,348,23158,1,0,0:0:0:0:
256,348,23294,2,0,P|352:332|376:252,1,180,4|0,0:0|0:0,0:0:0:0:
372,132,23976,2,0,L|372:84,2,30
344,192,24249,5,0,0:0:0:0:
344,192,24385,2,0,L|196:192,1,120,4|0,0:0|0:0,0:0:0:0:
172,152,24794,1,0,0:0:0:0:
144,212,24930,2,0,L|104:212,2,30
172,244,25203,1,0,0:0:0:0:
180,276,25339,1,0,0:0:0:0:
194,307,25476,2,0,P|250:343|358:291,1,180,4|0,0:0|0:0,0:0:0:0:
436,192,26158,1,0,0:0:0:0:
372,76,26430,1,0,0:0:0:0:
308,192,26703,6,0,P|256:232|184:208,1,120,4|0,0:0|0:0,0:0:0:0:
152,184,27112,1,0,0:0:0:0:
126,123,27249,2,0,P|150:83|178:67,1,60
220,48,27521,1,0,0:0:0:0:
220,48,27658,2,0,P|332:60|376:136,1,180,4|0,0:0|0:0,0:0:0:0:
388,172,28203,1,0,0:0:0:0:
370,236,28339,2,0,L|390:284,2,30
324,188,28612,5,0,0:0:0:0:
324,188,28749,2,0,P|272:164|216:196,1,120,4|0,0:0|0:0,0:0:0:0:
172,236,29158,2,0,P|120:240|64:172,1,120
56,168,29567,1,0,0:0:0:0:
68,136,29703,1,0,0:0:0:0:
56,104,29839,2,0,P|108:44|156:36,1,120,4|0,0:0|0:0,0:0:0:0:
212,35,30249,2,0,L|292:35,1,60
244,107,30521,2,0,L|176:107,1,60
216,179,30794,2,0,L|288:179,1,60
344,180,31067,6,0,P|408:212|412:276,1,120,4|0,0:0|0:0,0:0:0:0:
300,308,31612,1,0,0:0:0:0:
256,356,31749,1,0,0:0:0:0:
212,308,31885,1,0,0:0:0:0:
256,260,32021,2,0,L|256:128,1,120,4|0,0:0|0:0,0:0:0:0:
256,140,32430,1,0,0:0:0:0:
396,104,32703,2,0,L|420:144,2,30
396,36,32976,5,0,0:0:0:0:
396,36,33112,2,0,P|340:20|268:44,1,120,4|0,0:0|0:0,0:0:0:0:
232,76,33521,1,0,0:0:0:0:
200,132,33658,2,0,L|200:184,2,30
168,76,33930,1,0,0:0:0:0:
136,88,34067,1,0,0:0:0:0:
104,76,34203,2,0,P|52:92|32:156,1,120,4|0,0:0|0:0,0:0:0:0:
36,216,34612,2,0,P|72:260|100:264,1,60
104,272,34885,5,2,0:0:0:0:
135,260,35021,1,0,0:0:0:0:
167,272,35158,1,2,0:0:0:0:
199,260,35294,1,0,0:0:0:0:
231,272,35430,1,4,0:0:0:0:
344,48,44158,5,4,0:0:0:0:
356,79,44294,1,0,0:0:0:0:
344,111,44431,1,0,0:0:0:0:
356,143,44567,1,0,0:0:0:0:
348,176,44703,2,0,P|304:260|248:260,1,150
228,264,45112,2,0,P|178:232|167:175,1,120
156,143,45521,1,0,0:0:0:0:
168,111,45657,1,0,0:0:0:0:
156,79,45794,1,0,0:0:0:0:
256,20,46067,1,0,0:0:0:0:
348,116,46339,6,0,L|412:160,1,60,4|0,0:0|0:0,0:0:0:0:
308,168,46612,2,0,L|356:232,1,60
256,200,46885,2,0,B|248:240|248:240|260:280|260:280|256:332,1,120
204,168,47294,2,0,B|174:196|174:196|161:235|161:235|128:276,1,120
164,116,47703,2,0,L|100:160,1,60,0|0,0:0|0:0,0:0:0:0:
67,196,47976,1,0,0:0:0:0:
144,328,48249,2,0,P|192:336|216:328,1,60
256,308,48521,6,0,L|256:228,2,60,4|0|0,0:0|0:0|0:0,0:0:0:0:
372,192,49067,2,0,L|292:192,2,60
256,76,49612,2,0,L|256:156,2,60
140,192,50158,2,0,L|220:192,2,60
60,88,50703,6,0,L|60:20,1,60,4|0,0:0|0:0,0:0:0:0:
128,88,50976,2,0,L|128:152,1,60
196,84,51249,2,0,L|196:16,1,60
260,84,51522,2,0,L|260:148,1,60
268,208,51794,5,0,0:0:0:0:
308,260,51930,1,0,0:0:0:0:
376,260,52067,1,0,0:0:0:0:
416,208,52203,1,0,0:0:0:0:
412,140,52339,5,0,0:0:0:0:
412,140,52476,2,0,P|364:96|280:116,1,125.999996154785,0|4,0:0|0:0,0:0:0:0:
200,196,53158,5,8,0:0:0:0:
124,304,53430,2,0,L|52:356,2,66.0000020141602,0|0|8,0:0|0:0|0:0,0:0:0:0:
180,268,53839,2,0,P|256:248|320:288,1,132.00000402832,4|0,0:0|0:0,0:0:0:0:
356,308,54249,2,0,P|448:280|460:228,1,132.00000402832,8|0,0:0|0:0,0:0:0:0:
468,188,54658,1,0,0:0:0:0:
456,124,54794,2,0,P|444:104|392:76,1,66.0000020141602,8|4,0:0|0:0,0:0:0:0:
284,44,55203,1,0,0:0:0:0:
284,44,55339,2,0,P|232:96|240:192,1,132.00000402832,8|0,0:0|0:0,0:0:0:0:
266,204,55749,1,0,0:0:0:0:
226,256,55885,1,8,0:0:0:0:
186,204,56021,6,0,P|122:180|54:232,2,132.00000402832,4|0|0,0:0|0:0|0:0,0:0:0:0:
226,256,56703,2,0,P|226:284|198:328,1,66.0000020141602
266,204,56976,2,0,P|290:232|342:244,1,66.0000020141602,8|0,0:0|0:0,0:0:0:0:
224,152,57249,6,0,P|245:91|306:72,1,132.00000402832,4|8,0:0|0:0,0:0:0:0:
428,128,57794,1,0,0:0:0:0:
396,185,57930,1,0,0:0:0:0:
340,216,58067,1,8,0:0:0:0:
340,216,58203,2,0,P|272:244|208:180,1,132.00000402832,4|0,0:0|0:0,0:0:0:0:
224,152,58612,2,0,P|282:125|339:154,1,132.00000402832,8|0,0:0|0:0,0:0:0:0:
396,185,59021,1,0,0:0:0:0:
432,240,59158,1,8,0:0:0:0:
416,304,59294,2,0,P|332:324|252:284,1,132.00000402832,4|0,0:0|0:0,0:0:0:0:
224,312,59703,2,0,P|159:324|97:304,1,132.00000402832,8|0,0:0|0:0,0:0:0:0:
52,256,60112,1,0,0:0:0:0:
32,192,60249,1,8,0:0:0:0:
52,128,60385,6,0,P|124:100|184:172,1,132.00000402832,4|0,0:0|0:0,0:0:0:0:
166,125,60794,1,8,0:0:0:0:
208,252,61067,1,0,0:0:0:0:
256,208,61203,1,0,0:0:0:0:
300,256,61339,2,0,P|330:275|376:272,1,66.0000020141602,8|0,0:0|0:0,0:0:0:0:
420,248,61612,6,0,P|436:152|408:124,1,132.00000402832,4|8,0:0|0:0,0:0:0:0:
324,40,62158,1,0,0:0:0:0:
324,40,62294,1,0,0:0:0:0:
324,40,62430,1,8,0:0:0:0:
324,40,62567,2,0,P|260:92|272:180,1,132.00000402832,4|0,0:0|0:0,0:0:0:0:
264,204,62976,2,0,P|228:264|148:260,1,132.00000402832,8|0,0:0|0:0,0:0:0:0:
104,260,63385,1,0,0:0:0:0:
60,212,63521,1,8,0:0:0:0:
52,148,63658,2,0,P|112:120|184:172,1,132.00000402832,4|0,0:0|0:0,0:0:0:0:
168,145,64067,1,8,0:0:0:0:
256,244,64339,2,0,L|256:328,2,66.0000020141602,0|0|8,0:0|0:0|0:0,0:0:0:0:
292,188,64749,6,0,P|388:172|424:240,1,132.00000402832,4|0,0:0|0:0,0:0:0:0:
428,252,65158,1,8,0:0:0:0:
380,296,65294,1,0,0:0:0:0:
380,296,65430,2,0,L|344:364,1,66.0000020141602
284,356,65703,2,0,L|244:292,1,66.0000020141602,8|0,0:0|0:0,0:0:0:0:
220,240,65976,6,0,P|292:140|312:140,1,132.00000402832,4|8,0:0|0:0,0:0:0:0:
408,192,66521,2,0,L|408:104,1,66.0000020141602
396,60,66794,1,8,0:0:0:0:
396,60,66930,2,0,P|344:28|264:40,1,132.00000402832,4|0,0:0|0:0,0:0:0:0:
220,68,67339,2,0,P|200:100|196:144,1,66.0000020141602,8|0,0:0|0:0,0:0:0:0:
184,192,67612,2,0,P|184:228|208:272,1,66.0000020141602
236,308,67885,1,8,0:0:0:0:
297,332,68021,2,0,P|377:308|397:248,1,132.00000402832,4|0,0:0|0:0,0:0:0:0:
400,204,68430,2,0,P|392:152|364:128,1,66.0000020141602,8|0,0:0|0:0,0:0:0:0:
337,97,68703,2,0,P|289:97|265:117,1,66.0000020141602
216,136,68976,5,8,0:0:0:0:
216,136,69112,2,0,P|160:184|164:264,1,132.00000402832,4|0,0:0|0:0,0:0:0:0:
148,304,69521,2,0,B|132:336|132:336|88:364,2,66.0000020141602,8|0|2,0:0|0:0|0:0,0:0:0:0:
244,265,78521,6,2,L|208:181,1,60
272,168,78794,2,0,L|304:92,1,60,2|2,0:0|0:0,0:0:0:0:
244,72,79067,6,0,P|184:48|124:96,1,120,4|0,0:0|0:0,0:0:0:0:
92,120,79476,1,0,0:0:0:0:
48,168,79612,2,0,L|-4:236,1,60
16,280,79885,2,0,L|52:327,1,60
112,360,80158,2,0,P|168:340|240:376,1,120
288,360,80567,2,0,P|344:340|416:376,2,120
232,324,81249,6,0,P|192:280|192:200,1,120,4|0,0:0|0:0,0:0:0:0:
224,168,81658,1,0,0:0:0:0:
288,164,81794,2,0,P|324:184|344:220,2,60
268,100,82203,1,0,0:0:0:0:
268,100,82339,2,0,P|248:72|200:52,1,60
160,48,82612,2,0,P|112:68|100:92,1,60
72,128,82885,1,0,0:0:0:0:
64,192,83021,1,0,0:0:0:0:
88,256,83158,1,0,0:0:0:0:
136,304,83294,1,0,0:0:0:0:
196,336,83430,6,0,P|256:348|336:324,1,120,4|0,0:0|0:0,0:0:0:0:
352,284,83839,1,0,0:0:0:0:
352,284,83976,2,0,L|412:228,1,60
304,236,84249,2,0,L|304:172,1,60
256,284,84521,2,0,L|160:188,1,120
171,199,84930,1,0,0:0:0:0:
171,199,85067,2,0,P|152:124|184:84,1,120
224,48,85476,2,0,L|224:16,2,30,0|0|4,0:0|0:0|0:0,0:0:0:0:
336,120,85885,6,0,L|336:180,1,60
324,244,86158,1,0,0:0:0:0:
288,300,86294,1,0,0:0:0:0:
224,300,86430,1,0,0:0:0:0:
188,244,86567,1,0,0:0:0:0:
172,180,86703,6,0,L|172:92,1,60,2|0,0:0|0:0,0:0:0:0:
256,120,86976,2,0,L|256:180,1,60,2|0,0:0|0:0,0:0:0:0:
336,180,87249,2,2,B|336:144|336:144|348:116|348:116|360:80|316:52,1,120
208,96,87794,6,0,B|180:124|180:124|144:124,1,60,4|0,0:0|0:0,0:0:0:0:
96,104,88067,2,0,B|84:76|84:76|100:32,1,60
154,21,88339,2,0,B|186:9|186:9|234:29,1,60
274,36,88612,1,0,0:0:0:0:
274,36,88749,2,0,P|302:100|278:152,1,120
276,176,89158,1,0,0:0:0:0:
288,208,89295,1,0,0:0:0:0:
276,240,89431,1,0,0:0:0:0:
236,352,89703,1,0,0:0:0:0:
124,308,89976,6,0,L|52:240,1,60,4|0,0:0|0:0,0:0:0:0:
63,203,90249,2,0,L|127:111,1,60
148,112,90521,2,0,P|224:92|264:120,1,120
255,110,90930,2,0,P|310:88|364:112,1,120
376,141,91339,1,0,0:0:0:0:
364,173,91476,1,0,0:0:0:0:
376,205,91612,1,0,0:0:0:0:
364,324,91885,2,0,P|308:337|292:334,1,60
256,304,92158,6,0,L|256:224,2,60,4|0|0,0:0|0:0|0:0,0:0:0:0:
140,192,92704,2,0,L|220:192,2,60
256,76,93249,2,0,L|256:156,2,60
372,192,93795,2,0,L|292:192,2,60
348,336,94339,6,0,L|276:336,1,60,4|0,0:0|0:0,0:0:0:0:
168,280,94612,2,0,L|228:280,1,60,0|0,0:0|0:0,0:0:0:0:
348,216,94885,2,0,L|276:216,1,60
164,160,95158,2,0,L|224:160,1,60,0|0,0:0|0:0,0:0:0:0:
284,136,95430,5,0,0:0:0:0:
320,80,95567,1,0,0:0:0:0:
384,64,95703,1,0,0:0:0:0:
444,92,95839,1,0,0:0:0:0:
480,148,95976,5,0,0:0:0:0:
480,148,96112,2,0,P|460:228|424:248,1,125.999996154785,0|4,0:0|0:0,0:0:0:0:
300,180,96794,5,8,0:0:0:0:
232,304,97067,2,0,P|192:296|156:252,1,66.0000020141602
136,228,97339,1,8,0:0:0:0:
124,164,97476,2,0,P|156:108|252:120,1,132.00000402832,4|0,0:0|0:0,0:0:0:0:
218,98,97885,1,8,0:0:0:0:
356,144,98158,1,0,0:0:0:0:
367,179,98294,1,0,0:0:0:0:
360,216,98430,2,0,P|308:276|272:288,1,66.0000020141602,8|4,0:0|0:0,0:0:0:0:
256,124,98839,2,0,L|256:204,1,66.0000020141602,0|8,0:0|0:0,0:0:0:0:
156,144,99249,1,0,0:0:0:0:
145,179,99385,1,0,0:0:0:0:
152,216,99521,2,0,P|204:276|240:288,1,66.0000020141602,8|4,0:0|0:0,0:0:0:0:
320,267,99930,6,0,P|344:244|360:216,1,66.0000020141602,0|8,0:0|0:0,0:0:0:0:
372,152,100203,1,0,0:0:0:0:
344,92,100339,2,0,L|280:48,1,66.0000020141602
222,54,100612,2,0,L|168:92,1,66.0000020141602,8|0,0:0|0:0,0:0:0:0:
128,144,100885,6,0,P|139:228|190:262,1,132.00000402832,4|8,0:0|0:0,0:0:0:0:
272,344,101430,2,0,P|316:338|344:318,1,66.0000020141602
384,284,101703,1,8,0:0:0:0:
384,284,101839,2,0,P|424:216|436:144,1,132.00000402832,4|0,0:0|0:0,0:0:0:0:
436,96,102249,1,8,0:0:0:0:
320,180,102521,1,0,0:0:0:0:
260,152,102658,1,0,0:0:0:0:
204,184,102794,1,8,0:0:0:0:
164,236,102930,2,0,P|96:276|48:248,1,132.00000402832,4|0,0:0|0:0,0:0:0:0:
28,196,103339,2,0,P|40:112|100:80,1,132.00000402832,8|0,0:0|0:0,0:0:0:0:
128,48,103749,1,0,0:0:0:0:
192,68,103885,1,8,0:0:0:0:
224,124,104021,6,0,L|284:156,1,66.0000020141602,4|0,0:0|0:0,0:0:0:0:
344,228,104294,2,0,L|344:162,1,66.0000020141602,0|8,0:0|0:0,0:0:0:0:
464,124,104566,2,0,L|404:156,2,66.0000020141602
456,56,104976,1,8,0:0:0:0:
396,32,105112,1,0,0:0:0:0:
328,32,105249,6,0,P|272:72|256:140,1,132.00000402832,4|8,0:0|0:0,0:0:0:0:
176,268,105794,2,0,L|240:208,1,66.0000020141602
280,184,106067,1,8,0:0:0:0:
280,184,106203,2,0,P|376:220|392:248,1,132.00000402832,4|0,0:0|0:0,0:0:0:0:
392,308,106612,2,0,P|347:354|283:364,1,132.00000402832,8|0,0:0|0:0,0:0:0:0:
224,332,107021,1,0,0:0:0:0:
164,360,107158,1,8,0:0:0:0:
104,332,107294,2,0,P|56:276|60:192,1,132.00000402832,4|0,0:0|0:0,0:0:0:0:
68,156,107703,2,0,P|104:104|172:76,1,132.00000402832,8|0,0:0|0:0,0:0:0:0:
196,60,108112,1,0,0:0:0:0:
227,72,108249,1,8,0:0:0:0:
256,56,108385,6,0,P|315:81|340:116,1,66.0000020141602,4|0,0:0|0:0,0:0:0:0:
260,168,108658,2,0,P|305:154|332:128,1,66.0000020141602,0|8,0:0|0:0,0:0:0:0:
376,108,108930,1,0,0:0:0:0:
436,140,109067,2,0,L|496:208,2,66.0000020141602,0|0|8,0:0|0:0|0:0,0:0:0:0:
436,72,109476,5,0,0:0:0:0:
436,72,109612,2,0,P|388:36|312:76,1,132.00000402832,4|8,0:0|0:0,0:0:0:0:
260,168,110158,1,0,0:0:0:0:
204,204,110294,1,0,0:0:0:0:
148,168,110430,1,8,0:0:0:0:
148,168,110567,2,0,P|92:240|132:312,2,132.00000402832,4|0|0,0:0|0:0|0:0,0:0:0:0:
200,124,111249,2,0,P|260:96|332:144,1,132.00000402832,0|8,0:0|0:0,0:0:0:0:
365,169,111658,2,0,P|421:241|381:313,2,132.00000402832,4|0|0,0:0|0:0|0:0,0:0:0:0:
316,216,112339,2,0,P|258:244|201:216,1,132.00000402832,0|8,0:0|0:0,0:0:0:0:
156,164,112749,6,0,P|156:104|192:76,1,66.0000020141602,4|0,0:0|0:0,0:0:0:0:
202,44,113021,2,0,P|254:28|322:48,1,66.0000020141602,0|8,0:0|0:0,0:0:0:0:
336,32,113294,1,0,0:0:0:0:
404,56,113430,6,0,P|444:108|424:192,2,120,2|2|4,0:0|0:0|0:0,0:0:0:0:
384,112,118749,6,0,L|508:12,2,120,0|0|2,0:0|0:0|0:0,0:0:0:0:
128,112,119839,6,0,L|4:12,2,120,0|0|4,0:0|0:0|0:0,0:0:0:0:
256,240,120930,6,0,L|256:364,2,120,0|0|2,0:0|0:0|0:0,0:0:0:0:
336,80,121885,6,2,P|388:120|392:132,1,60,0|0,0:0|0:0,0:0:0:0:
316,152,122158,2,0,P|360:204|364:216,1,60,2|0,0:0|0:0,0:0:0:0:
276,216,122430,2,0,P|306:270|307:278,1,60
252,324,122703,6,0,P|200:344|112:300,1,120,4|0,0:0|0:0,0:0:0:0:
96,280,123112,2,0,P|72:260|48:228,2,60,0|0|0,0:0|0:0|0:0,0:0:0:0:
160,268,123521,1,0,0:0:0:0:
160,268,123658,2,0,P|176:188|116:120,1,120,4|0,0:0|0:0,0:0:0:0:
132,96,124067,1,0,0:0:0:0:
159,36,124203,1,0,0:0:0:0:
224,28,124339,2,0,L|272:-4,2,30,0|0|0,0:0|0:0|0:0,0:0:0:0:
268,76,124612,5,0,0:0:0:0:
268,76,124749,2,0,P|279:149|251:183,1,120,4|0,0:0|0:0,0:0:0:0:
204,228,125158,1,0,0:0:0:0:
156,184,125294,2,0,L|144:140,2,30
128,244,125567,1,0,0:0:0:0:
136,308,125703,1,0,0:0:0:0:
180,356,125839,2,0,P|244:368|300:340,1,120,4|0,0:0|0:0,0:0:0:0:
300,280,126249,2,0,L|392:280,1,60
296,212,126521,2,0,L|236:212,1,60
296,144,126794,2,0,L|388:144,1,60
416,116,127067,5,4,0:0:0:0:
292,32,127339,2,0,P|224:44|176:104,1,120
142,126,127749,1,0,0:0:0:0:
164,188,127885,1,0,0:0:0:0:
142,250,128021,2,0,P|186:314|246:322,2,120,4|0|0,0:0|0:0|0:0,0:0:0:0:
164,188,128703,2,0,L|180:160,2,30
100,208,128976,5,0,0:0:0:0:
100,208,129112,2,0,P|36:160|36:112,1,120,4|0,0:0|0:0,0:0:0:0:
68,68,129521,1,0,0:0:0:0:
128,40,129658,2,0,L|128:4,2,30,0|0|0,0:0|0:0|0:0,0:0:0:0:
192,52,129930,1,0,0:0:0:0:
243,94,130067,1,0,0:0:0:0:
264,156,130203,2,0,P|336:196|372:184,1,120,4|0,0:0|0:0,0:0:0:0:
420,148,130612,2,0,L|396:80,1,60
340,64,130885,1,0,0:0:0:0:
340,64,131021,1,0,0:0:0:0:
284,100,131158,2,0,L|264:156,1,60
224,208,131430,6,0,P|148:256|112:244,2,120,4|0|0,0:0|0:0|0:0,0:0:0:0:
264,156,132112,1,0,0:0:0:0:
320,120,132249,1,0,0:0:0:0:
380,148,132385,2,0,P|428:220|416:268,1,120,4|0,0:0|0:0,0:0:0:0:
404,312,132794,2,0,P|376:328|340:332,1,60
288,308,133067,2,0,L|236:308,2,30
340,268,133339,5,0,0:0:0:0:
340,268,133476,2,0,P|360:200|272:128,1,180,4|0,0:0|0:0,0:0:0:0:
232,96,134021,2,0,L|232:40,2,30,0|0|0,0:0|0:0|0:0,0:0:0:0:
232,164,134294,1,0,0:0:0:0:
232,164,134430,1,0,0:0:0:0:
232,164,134567,2,0,P|215:225|159:249,1,120,4|0,0:0|0:0,0:0:0:0:
100,248,134976,2,0,P|48:219|35:163,1,120
128,68,135521,1,0,0:0:0:0:
256,32,135794,6,0,P|308:48|336:112,1,120,4|0,0:0|0:0,0:0:0:0:
256,212,136339,2,0,L|256:288,1,60
224,332,136612,1,0,0:0:0:0:
224,332,136749,2,0,P|164:352|96:316,1,120,4|0,0:0|0:0,0:0:0:0:
76,280,137158,1,0,0:0:0:0:
140,164,137430,2,0,L|140:120,2,30,0|0|0,0:0|0:0|0:0,0:0:0:0:
180,216,137703,5,0,0:0:0:0:
180,216,137839,2,0,P|240:232|312:208,1,120,4|0,0:0|0:0,0:0:0:0:
344,172,138249,1,0,0:0:0:0:
368,112,138385,2,0,L|420:112,2,30,0|0|0,0:0|0:0|0:0,0:0:0:0:
340,52,138658,1,0,0:0:0:0:
280,24,138794,1,0,0:0:0:0:
216,28,138930,2,0,P|144:40|112:100,1,120,4|0,0:0|0:0,0:0:0:0:
92,136,139339,1,0,0:0:0:0:
84,160,139476,1,0,0:0:0:0:
76,184,139612,1,0,0:0:0:0:
72,208,139749,1,0,0:0:0:0:
80,232,139885,1,0,0:0:0:0:
88,256,140021,1,0,0:0:0:0:
100,276,140158,6,0,P|172:316|264:264,1,180,12|0,0:2|0:0,0:0:0:0:
332,108,140976,2,0,P|260:68|176:120,1,180,8|0,0:0|0:0,0:0:0:0:
256,278,141794,2,0,P|334:316|411:276,1,180,8|0,0:0|0:0,0:0:0:0:
448,220,142339,6,0,L|424:148,1,60,12|0,0:0|0:0,0:0:0:0:
396,104,142612,2,0,L|344:60,1,60,8|0,0:0|0:0,0:0:0:0:
288,44,142885,2,0,L|212:44,1,60,8|0,0:0|0:0,0:0:0:0:
168,68,143158,2,0,L|123:107,1,60,8|0,0:0|0:0,0:0:0:0:
84,152,143430,2,0,P|88:284|292:308,1,323.999990112305,8|8,0:0|0:0,0:0:0:0:
368,316,144521,6,0,P|400:216|352:104,1,215.999993408203,12|8,0:0|0:0,0:0:0:0:
256,64,145339,1,8,0:0:0:0:
149,115,145612,2,0,P|112:214|144:316,1,215.999993408203,8|8,0:0|0:0,0:0:0:0:
256,272,146430,1,10,0:0:0:0:
360,316,146703,6,0,L|408:240,3,53.9999983520508,12|0|8|0,0:0|0:0|0:0|0:0,0:0:0:0:
412,216,147249,2,0,L|412:156,3,53.9999983520508,8|0|8|0,0:0|0:0|0:0|0:0,0:0:0:0:
388,108,147794,2,0,L|360:63,3,53.9999983520508,8|0|8|0,0:0|0:0|0:0|0:0,0:0:0:0:
312,28,148339,2,0,L|256:16,3,53.9999983520508,8|0|8|0,0:0|0:0|0:0|0:0,0:0:0:0:
196,36,148885,6,0,P|136:64|132:136,1,120,12|8,0:0|0:0,0:0:0:0:
128,244,149430,2,0,P|146:299|197:329,1,120,8|8,0:0|0:0,0:0:0:0:
256,300,149839,1,0,0:0:0:0:
316,328,149976,2,0,P|366:299|384:244,2,120,8|8|8,0:0|0:0|0:0,0:0:0:0:
256,300,150658,5,0,0:0:0:0:
224,236,150794,1,8,0:0:0:0:
248,168,150930,1,0,0:0:0:0:
296,112,151067,6,0,L|296:32,1,60,12|0,0:0|0:0,0:0:0:0:
365,134,151340,2,0,L|440:88,1,60,8|0,0:0|0:0,0:0:0:0:
365,206,151612,2,0,L|416:252,1,60,8|0,0:0|0:0,0:0:0:0:
296,229,151885,2,0,L|276:296,1,60,8|0,0:0|0:0,0:0:0:0:
248,168,152158,2,0,P|96:128|44:264,1,323.999990112305,8|8,0:0|0:0,0:0:0:0:
72,308,153112,1,0,0:0:0:0:
120,344,153249,6,0,P|192:356|244:328,1,107.999996704102,12|8,0:0|0:0,0:0:0:0:
288,344,153658,2,8,P|340:358|392:344,1,107.999996704102
436,304,154067,2,0,L|436:232,1,53.9999983520508,8|0,0:0|0:0,0:0:0:0:
404,192,154339,6,0,P|332:180|268:212,1,120,8|8,0:0|0:0,0:0:0:0:
224,196,154749,2,8,P|167:179|109:192,1,120
52,160,155158,2,0,L|52:84,1,60,8|0,0:0|0:0,0:0:0:0:
100,52,155430,6,0,L|176:28,1,60,12|0,0:0|0:0,0:0:0:0:
224,24,155703,2,0,L|320:32,1,60,8|0,0:0|0:0,0:0:0:0:
348,48,155976,2,0,L|416:88,1,60,8|0,0:0|0:0,0:0:0:0:
444,128,156249,2,0,L|480:196,1,60,8|0,0:0|0:0,0:0:0:0:
484,244,156521,6,0,P|420:344|352:328,1,180,8|0,0:0|0:0,0:0:0:0:
320,300,157067,2,0,B|300:240|300:240|256:304|212:240|212:240|192:312,1,240,8|2,0:0|0:0,0:0:0:0:
256,192,161976,12,4,164158,0:0:0:0:
256,132,164430,5,8,0:0:0:0:
316,192,164703,1,0,0:0:0:0:
256,252,164976,1,8,0:0:0:0:
196,192,165249,6,0,L|140:108,1,60,2|0,0:0|0:0,0:0:0:0:
120,196,165521,2,0,L|72:132,1,60,2|0,0:0|0:0,0:0:0:0:
48,92,165794,1,2,0:0:0:0:
159,20,166067,1,2,0:0:0:0:
269,92,166339,6,0,B|300:106|300:106|332:148,1,60,4|0,0:0|0:0,0:0:0:0:
276,180,166612,2,0,B|248:168|248:168|228:140,1,60
180,102,166885,2,0,L|196:28,2,60
172,168,167294,2,0,P|160:244|204:300,1,120
192,308,167703,1,0,0:0:0:0:
180,336,167839,1,0,0:0:0:0:
196,364,167976,1,0,0:0:0:0:
252,244,168249,1,0,0:0:0:0:
308,364,168521,6,0,P|341:369|392:348,1,60,4|0,0:0|0:0,0:0:0:0:
424,332,168794,2,0,P|452:296|460:260,1,60
456,216,169067,2,0,P|432:152|380:124,1,120
324,128,169476,2,0,P|275:161|257:217,1,120
268,248,169885,1,0,0:0:0:0:
260,280,170021,1,0,0:0:0:0:
272,312,170158,1,0,0:0:0:0:
148,354,170430,2,0,P|109:339|72:286,1,60
80,264,170703,6,0,L|80:148,2,60,4|0|0,0:0|0:0|0:0,0:0:0:0:
164,120,171249,2,0,L|164:236,2,60,0|0|0,0:0|0:0|0:0,0:0:0:0:
256,264,171794,2,0,L|256:148,2,60
340,120,172339,2,0,L|340:236,2,60,0|0|0,0:0|0:0|0:0,0:0:0:0:
440,204,172885,6,0,P|436:248|416:280,1,60,4|0,0:0|0:0,0:0:0:0:
400,320,173158,2,0,P|368:348|340:352,1,60
288,364,173430,2,0,P|257:369|224:364,1,60
164,352,173703,2,0,P|136:342|116:321,1,60
68,276,173976,5,0,0:0:0:0:
36,220,174112,1,0,0:0:0:0:
40,152,174249,1,0,0:0:0:0:
76,96,174385,1,0,0:0:0:0:
136,60,174521,5,0,0:0:0:0:
136,60,174658,2,0,P|192:32|256:84,1,125.999996154785,0|4,0:0|0:0,0:0:0:0:
256,86,183794,5,4,0:0:0:0:
256,160,184067,1,0,0:0:0:0:
216,232,184339,2,0,L|156:232,2,53.9999983520508,0|0|0,0:0|0:0|0:0,0:0:0:0:
272,232,184749,6,0,P|336:276|340:344,2,107.999996704102
220,164,185567,1,0,0:0:0:0:
136,172,185839,2,0,P|72:128|68:60,2,107.999996704102,0|0|0,0:0|0:0|0:0,0:0:0:0:
188,240,186658,1,0,0:0:0:0:
256,296,186930,6,0,L|316:324,1,53.9999983520508
360,320,187203,2,0,L|448:280,1,53.9999983520508
448,260,187476,1,0,0:0:0:0:
448,260,187612,2,0,L|448:160,1,53.9999983520508
400,108,187885,2,0,L|400:184,1,53.9999983520508
376,212,188158,6,0,P|320:232|256:176,1,107.999996704102,4|0,0:0|0:0,0:0:0:0:
304,96,188703,1,0,0:0:0:0:
256,68,188839,1,0,0:0:0:0:
208,96,188976,1,0,0:0:0:0:
172,136,189112,2,0,L|172:296,2,107.999996704102
104,52,189930,1,0,0:0:0:0:
40,136,190203,2,0,L|40:296,2,107.999996704102,0|0|0,0:0|0:0|0:0,0:0:0:0:
104,52,191021,1,0,0:0:0:0:
256,192,191294,12,4,192521,0:0:0:0:
188,120,192794,5,8,0:0:0:0:
104,236,193067,2,0,P|176:272|200:260,1,66.0000020141602
212,304,193339,1,8,0:0:0:0:
272,272,193476,2,0,P|320:256|340:168,1,132.00000402832,4|0,0:0|0:0,0:0:0:0:
345,184,193885,1,8,0:0:0:0:
256,84,194158,2,0,P|232:57|196:40,1,66.0000020141602
144,28,194430,1,8,0:0:0:0:
80,48,194567,2,0,P|36:108|64:204,1,132.00000402832,4|0,0:0|0:0,0:0:0:0:
37,221,194976,2,0,P|39:285|80:336,1,132.00000402832,8|0,0:0|0:0,0:0:0:0:
140,304,195385,1,0,0:0:0:0:
196,336,195521,1,8,0:0:0:0:
260,356,195658,6,0,L|344:356,1,66.0000020141602,4|0,0:0|0:0,0:0:0:0:
300,292,195930,2,0,L|388:292,1,66.0000020141602,0|8,0:0|0:0,0:0:0:0:
420,256,196203,1,0,0:0:0:0:
420,256,196339,2,0,P|412:192|328:180,1,132.00000402832,0|8,0:0|0:0,0:0:0:0:
296,200,196749,1,0,0:0:0:0:
256,148,196885,6,0,P|276:64|360:56,1,132.00000402832,4|8,0:0|0:0,0:0:0:0:
432,104,197430,1,0,0:0:0:0:
444,168,197567,1,0,0:0:0:0:
424,232,197703,1,8,0:0:0:0:
380,280,197839,2,0,P|312:303|248:280,2,132.00000402832,4|0|0,0:0|0:0|0:0,0:0:0:0:
312,168,198658,1,0,0:0:0:0:
256,286,198930,2,0,P|193:302|132:279,2,132.00000402832,4|0|0,0:0|0:0|0:0,0:0:0:0:
200,168,199749,1,0,0:0:0:0:
80,116,200021,6,0,P|152:40|264:60,1,198.000006042481,4|8,0:0|0:0,0:0:0:0:
256,176,200703,1,0,0:0:0:0:
256,176,200839,1,0,0:0:0:0:
304,128,200976,2,0,P|338:119|392:144,1,66.0000020141602,8|0,0:0|0:0,0:0:0:0:
412,176,201249,6,0,P|396:256|312:280,1,132.00000402832,4|8,0:0|0:0,0:0:0:0:
232,316,201794,2,0,P|192:296|176:252,1,66.0000020141602
156,216,202067,1,8,0:0:0:0:
172,152,202203,2,0,P|200:88|276:80,1,132.00000402832,4|0,0:0|0:0,0:0:0:0:
304,120,202612,2,0,P|276:184|200:192,1,132.00000402832,8|0,0:0|0:0,0:0:0:0:
156,216,203021,1,0,0:0:0:0:
96,188,203158,1,8,0:0:0:0:
96,188,203294,2,0,P|43:154|66:46,1,132.00000402832,4|0,0:0|0:0,0:0:0:0:
88,52,203703,2,0,P|140:85|117:193,1,132.00000402832,8|0,0:0|0:0,0:0:0:0:
156,216,204112,1,0,0:0:0:0:
196,268,204249,1,8,0:0:0:0:
256,296,204385,1,4,0:0:0:0:
356,212,204658,5,0,0:0:0:0:
356,212,204794,2,0,P|328:144|232:144,1,132.00000402832,8|0,0:0|0:0,0:0:0:0:
216,152,205203,1,0,0:0:0:0:
152,132,205339,1,8,0:0:0:0:
145,66,205476,1,0,0:0:0:0:
204,36,205612,6,0,P|276:20|364:72,1,132.00000402832,4|8,0:0|0:0,0:0:0:0:
432,124,206158,2,0,P|463:150|484:192,1,66.0000020141602
492,236,206430,1,8,0:0:0:0:
480,300,206567,2,0,P|436:344|336:324,1,132.00000402832,4|0,0:0|0:0,0:0:0:0:
320,304,206976,2,0,P|256:288|164:324,1,132.00000402832,8|0,0:0|0:0,0:0:0:0:
140,344,207385,1,0,0:0:0:0:
80,312,207521,1,8,0:0:0:0:
40,260,207658,2,0,P|36:184|92:104,1,132.00000402832,4|0,0:0|0:0,0:0:0:0:
108,88,208067,2,0,P|196:56|276:100,1,132.00000402832,8|0,0:0|0:0,0:0:0:0:
288,96,208476,1,0,0:0:0:0:
328,148,208612,1,8,0:0:0:0:
336,212,208749,6,0,P|268:276|196:264,1,132.00000402832,4|0,0:0|0:0,0:0:0:0:
168,268,209158,1,8,0:0:0:0:
132,212,209294,1,0,0:0:0:0:
164,152,209430,6,0,P|236:96|288:100,1,107.999996704102,0|8,0:0|0:0,0:0:0:0:
272,236,209976,6,0,P|340:284|400:256,1,120,4|8,0:0|0:0,0:0:0:0:
448,188,210521,1,0,0:0:0:0:
424,132,210658,1,0,0:0:0:0:
384,88,210794,1,8,0:0:0:0:
336,52,210930,2,0,P|256:20|168:56,1,180,2|8,0:0|0:0,0:0:0:0:
64,196,211612,5,0,0:0:0:0:
88,252,211749,1,0,0:0:0:0:
128,296,211885,1,8,0:0:0:0:
176,332,212021,2,0,P|256:364|344:328,1,180,4|8,0:0|0:0,0:0:0:0:
377,204,212703,5,0,0:0:0:0:
341,180,212839,1,0,0:0:0:0:
305,204,212976,1,8,0:0:0:0:
269,180,213112,2,0,L|153:180,1,60,2|0,0:0|0:0,0:0:0:0:
96,112,213521,6,0,L|128:192,1,60,2|0,0:0|0:0,0:0:0:0:
148,280,213794,2,0,L|180:212,1,60,2|0,0:0|0:0,0:0:0:0:
196,164,214067,1,2,0:0:0:0:
196,164,214203,2,0,P|256:108|312:176,1,180,4|0,0:0|0:0,0:0:0:0:
368,200,214749,6,0,P|452:224|488:204,2,120,0|0|2,0:0|0:0|0:0,0:0:0:0:
144,200,215839,6,0,P|60:224|24:204,2,120,0|0|4,0:0|0:0|0:0,0:0:0:0:
256,240,216930,6,0,L|256:360,2,120,0|0|2,0:0|0:0|0:0,0:0:0:0:
388,116,217885,6,0,L|328:64,1,60,2|0,0:0|0:0,0:0:0:0:
288,52,218158,2,0,L|208:52,1,60,2|0,0:0|0:0,0:0:0:0:
169,76,218430,2,0,L|124:116,1,60,2|0,0:0|0:0,0:0:0:0:
80,160,218703,6,0,P|80:248|132:296,1,120,4|0,0:0|0:0,0:0:0:0:
196,204,219249,1,0,0:0:0:0:
316,204,219521,1,0,0:0:0:0:
415,271,219794,2,0,P|441:218|432:160,1,120
316,124,220339,1,0,0:0:0:0:
196,124,220612,1,0,0:0:0:0:
80,100,220885,6,0,P|55:210|115:294,2,180,4|0|0,0:0|0:0|0:0,0:0:0:0:
196,48,221976,2,0,P|256:32|332:64,1,120
432,100,222521,1,0,0:0:0:0:
424,132,222658,1,0,0:0:0:0:
420,160,222794,1,0,0:0:0:0:
424,192,222930,2,0,L|448:256,1,60,0|4,0:0|0:0,0:0:0:0:
420,353,223339,5,0,0:0:0:0:
312,336,223612,2,0,P|256:360|188:316,2,120,0|0|0,0:0|0:0|0:0,0:0:0:0:
256,244,224430,1,0,0:0:0:0:
312,152,224703,2,0,P|256:132|188:172,2,120,0|0|4,0:0|0:0|0:0,0:0:0:0:
368,244,225521,5,0,0:0:0:0:
424,152,225794,2,0,P|496:204|496:252,2,120
326,64,226612,1,0,0:0:0:0:
260,176,226885,5,8,0:0:0:0:
252,208,227021,1,8,0:0:0:0:
260,240,227158,1,8,0:0:0:0:
252,272,227294,1,4,0:0:0:0:
