osu file format v14

[General]
AudioFilename: Give me Chocolate .mp3
AudioLeadIn: 0
PreviewTime: 52885
Countdown: 0
SampleSet: Soft
StackLeniency: 0.7
Mode: 0
LetterboxInBreaks: 0
EpilepsyWarning: 1
WidescreenStoryboard: 0

[Editor]
Bookmarks: 35430,140158
DistanceSpacing: 0.9
BeatDivisor: 4
GridSize: 4
TimelineZoom: 1.6

[Metadata]
Title:Gimme Chocolate!!
TitleUnicode:ギミチョコ!!
Artist:BABYMETAL
ArtistUnicode:BABYMETAL
Creator:Rad-
Version:Extra
Source:
Tags:J-metal idol rock loli kitsune give me ilikecheese defused bomb nwolf
BeatmapID:438316
BeatmapSetID:162368

[Difficulty]
HPDrainRate:7
CircleSize:4
OverallDifficulty:8
ApproachRate:9.3
SliderMultiplier:1.8
SliderTickRate:2

[Events]
//Background and Video events
0,0,"babymetal.jpg",0,0
Video,0,"gimme.flv"
//Break Periods
2,175267,183240
//Storyboard Layer 0 (Background)
//Storyboard Layer 1 (Fail)
//Storyboard Layer 2 (Pass)
//Storyboard Layer 3 (Foreground)
//Storyboard Sound Samples

[TimingPoints]
9249,272.727272727273,4,2,1,90,1,0
52339,-142.857142857143,4,2,1,90,0,0
52885,-90.9090909090909,4,2,1,95,0,1
69794,-100,4,2,0,75,0,0
70339,-100,4,2,1,90,0,0
95976,-142.857142857143,4,2,1,90,0,0
96521,-90.9090909090909,4,2,1,95,0,1
113976,-100,4,2,1,90,0,0
140158,-100,4,2,2,75,0,0
143567,-166.666666666667,4,2,2,75,0,0
144521,-100,4,2,2,75,0,0
152158,-142.857142857143,4,2,2,75,0,0
153249,-100,4,2,2,75,0,0
157067,-142.857142857143,4,2,2,75,0,0
157476,-125,4,2,2,20,0,0
157612,-153.846153846154,4,2,2,75,0,0
158703,-136.986301369863,4,2,2,75,0,0
159794,-125,4,2,2,75,0,0
160885,-111.111111111111,4,2,2,75,0,0
161976,-125,4,2,2,20,0,0
164158,-100,4,2,2,75,0,0
165249,-100,4,2,1,90,0,0
174521,-142.857142857143,4,2,1,90,0,0
175067,-142.857142857143,4,2,1,65,0,0
183794,-125,4,2,1,90,0,0
192521,-90.9090909090909,4,2,1,95,0,1
209430,-125,4,2,1,95,0,1
209976,-100,4,2,1,90,0,0

[Colours]
Combo1 : 148,148,148
Combo2 : 0,0,193
Combo3 : 255,0,0

[HitObjects]
256,84,9249,5,4,0:0:0:0:
359,248,9385,1,0,0:0:0:0:
256,192,9521,1,0,0:0:0:0:
359,138,9658,1,0,0:0:0:0:
176,152,9794,2,0,P|173:217|187:248,1,90,0|0,0:0|0:0,0:0:0:0:
142,345,10067,1,0,0:0:0:0:
48,284,10203,6,0,P|52:156|84:120,1,180,4|0,0:0|0:0,0:0:0:0:
202,78,10612,1,0,0:0:0:0:
256,192,10749,2,0,B|199:237|142:225|142:225,1,90,0|0,0:0|0:0,0:0:0:0:
160,228,10953,1,0,0:0:0:0:
148,228,11021,1,0,0:0:0:0:
356,312,11158,5,0,0:0:0:0:
356,312,11294,2,0,P|432:240|424:140,1,180,4|0,0:0|0:0,0:0:0:0:
240,32,11703,2,0,P|276:64|312:128,1,90,0|0,0:0|0:0,0:0:0:0:
312,144,11908,1,0,0:0:0:0:
312,192,11976,2,0,P|286:237|232:272,2,90,0|0|0,0:0|0:0|0:0,0:0:0:0:
432,144,12385,6,0,P|360:72|256:88,1,180,4|0,0:0|0:0,0:0:0:0:
188,76,12794,1,0,0:0:0:0:
116,144,12930,1,0,0:0:0:0:
116,244,13067,2,0,P|180:304|216:304,1,90,0|0,0:0|0:0,0:0:0:0:
288,208,13339,2,0,P|344:176|360:144,1,90,0|0,0:0|0:0,0:0:0:0:
188,76,13612,6,0,P|126:56|90:72,1,90,4|0,0:0|0:0,0:0:0:0:
243,263,13885,2,0,P|220:216|231:169,1,90,0|0,0:0|0:0,0:0:0:0:
313,129,14158,1,0,0:0:0:0:
400,180,14294,1,0,0:0:0:0:
392,280,14430,5,0,0:0:0:0:
392,280,14567,2,0,P|292:308|240:256,1,180,4|0,0:0|0:0,0:0:0:0:
216,72,14976,1,0,0:0:0:0:
108,224,15112,1,0,0:0:0:0:
296,232,15249,1,0,0:0:0:0:
296,232,15317,1,0,0:0:0:0:
296,232,15385,2,0,L|192:160,1,90,0|0,0:0|0:0,0:0:0:0:
176,312,15658,6,0,P|256:352|344:288,1,180,4|0,0:0|0:0,0:0:0:0:
448,192,16067,2,0,P|400:136|360:136,1,90,0|0,0:0|0:0,0:0:0:0:
388,133,16271,1,0,0:0:0:0:
388,133,16339,1,0,0:0:0:0:
240,72,16476,1,0,0:0:0:0:
304,264,16612,1,0,0:0:0:0:
136,264,16749,6,0,P|56:192|72:120,1,180,4|0,0:0|0:0,0:0:0:0:
276,128,17158,1,0,0:0:0:0:
100,56,17294,1,0,0:0:0:0:
272,56,17430,2,0,P|328:72|352:128,1,90,0|0,0:0|0:0,0:0:0:0:
352,240,17703,2,0,B|320:296|256:304|256:304,1,90,0|0,0:0|0:0,0:0:0:0:
80,232,17976,6,2,P|152:184|192:184,1,90,4|0,0:0|0:0,0:0:0:0:
328,152,18249,1,0,0:0:0:0:
232,264,18385,1,0,0:0:0:0:
128,120,18521,2,0,P|208:88|232:96,2,90,0|0|0,0:0|0:0|0:0,0:0:0:0:
156,316,18930,6,0,P|232:352|312:312,1,180,4|0,0:0|0:0,0:0:0:0:
396,229,19339,1,0,0:0:0:0:
336,128,19476,2,0,L|232:196,1,90,0|0,0:0|0:0,0:0:0:0:
232,192,19680,1,0,0:0:0:0:
200,200,19749,1,0,0:0:0:0:
168,200,19817,1,0,0:0:0:0:
136,192,19885,1,0,0:0:0:0:
108,92,20021,6,0,P|204:128|268:64,1,180,4|0,0:0|0:0,0:0:0:0:
348,24,20430,2,0,P|400:48|436:112,1,90,0|0,0:0|0:0,0:0:0:0:
324,292,20703,1,0,0:0:0:0:
168,200,20839,1,0,0:0:0:0:
336,128,20976,1,0,0:0:0:0:
188,348,21112,6,2,P|104:325|64:248,1,180,4|0,0:0|0:0,0:0:0:0:
296,328,21521,2,0,L|376:224,1,90,0|0,0:0|0:0,0:0:0:0:
288,148,21794,2,0,L|208:252,1,90,0|0,0:0|0:0,0:0:0:0:
64,328,22067,2,0,L|144:224,1,90,0|0,0:0|0:0,0:0:0:0:
192,148,22339,6,0,P|160:60|72:52,1,180,4|0,0:0|0:0,0:0:0:0:
20,148,22749,1,0,0:0:0:0:
113,275,22885,2,0,P|160:319|212:320,1,90,0|0,0:0|0:0,0:0:0:0:
330,324,23158,1,0,0:0:0:0:
288,148,23294,6,0,P|348:76|444:100,1,180,4|0,0:0|0:0,0:0:0:0:
415,223,23703,2,0,L|456:308,1,90,0|0,0:0|0:0,0:0:0:0:
280,320,23976,1,0,0:0:0:0:
280,320,24044,1,0,0:0:0:0:
280,320,24112,2,0,L|240:232,2,90,0|0|4,0:0|0:0|0:0,0:0:0:0:
184,344,24521,5,0,0:0:0:0:
96,176,24658,1,0,0:0:0:0:
32,304,24794,2,0,P|104:264|144:272,1,90,0|0,0:0|0:0,0:0:0:0:
136,264,24999,1,0,0:0:0:0:
168,272,25067,1,0,0:0:0:0:
316,312,25203,1,0,0:0:0:0:
260,170,25339,1,0,0:0:0:0:
408,216,25476,6,4,P|416:128|356:48,1,180,4|0,0:0|0:0,0:0:0:0:
264,128,25885,2,0,P|234:211|209:226,1,90,0|0,0:0|0:0,0:0:0:0:
136,336,26158,2,0,P|128:248|144:224,1,90,0|0,0:0|0:0,0:0:0:0:
192,56,26430,2,0,P|192:136|184:152,1,90,0|0,0:0|0:0,0:0:0:0:
104,172,26703,6,0,P|63:152|39:115,1,90,4|0,0:0|0:0,0:0:0:0:
296,244,26976,1,0,0:0:0:0:
208,88,27113,1,0,0:0:0:0:
256,260,27249,1,0,0:0:0:0:
256,80,27385,1,0,0:0:0:0:
208,244,27522,1,0,0:0:0:0:
392,96,27658,6,0,P|368:56|232:48,1,180,4|0,0:0|0:0,0:0:0:0:
184,120,28067,2,0,P|80:136|72:128,1,90,0|0,0:0|0:0,0:0:0:0:
64,232,28339,1,0,0:0:0:0:
80,256,28408,1,0,0:0:0:0:
104,280,28476,1,0,0:0:0:0:
128,304,28544,1,0,0:0:0:0:
152,320,28612,1,0,0:0:0:0:
247,350,28749,6,0,P|344:344|408:268,1,180,4|0,0:0|0:0,0:0:0:0:
448,152,29158,2,0,P|384:96|344:96,1,90,0|0,0:0|0:0,0:0:0:0:
382,95,29362,1,0,0:0:0:0:
382,95,29430,1,0,0:0:0:0:
272,160,29567,1,0,0:0:0:0:
200,48,29703,1,0,0:0:0:0:
112,152,29839,6,0,P|104:280|168:320,1,180,4|0,0:0|0:0,0:0:0:0:
324,344,30249,2,0,L|220:280,1,90,0|0,0:0|0:0,0:0:0:0:
272,160,30521,2,0,L|349:205,1,90,0|0,0:0|0:0,0:0:0:0:
412,80,30794,2,0,L|308:24,1,90,0|0,0:0|0:0,0:0:0:0:
176,152,31067,5,4,0:0:0:0:
256,80,31203,1,0,0:0:0:0:
336,152,31339,2,0,P|400:160|448:144,1,90,0|0,0:0|0:0,0:0:0:0:
304,256,31612,2,0,P|384:288|416:280,1,90,0|0,0:0|0:0,0:0:0:0:
256,180,31885,5,0,0:0:0:0:
256,180,32021,2,0,P|216:232|284:344,1,180,4|0,0:0|0:0,0:0:0:0:
192,112,32430,2,0,P|120:80|88:96,1,90,0|0,0:0|0:0,0:0:0:0:
64,192,32703,1,0,0:0:0:0:
64,224,32771,1,0,0:0:0:0:
74,252,32839,1,0,0:0:0:0:
88,280,32908,1,0,0:0:0:0:
114,298,32976,1,0,0:0:0:0:
216,336,33112,6,0,B|304:336|308:256|308:256|376:228,1,180,4|0,0:0|0:0,0:0:0:0:
346,240,33521,1,0,0:0:0:0:
428,152,33658,1,0,0:0:0:0:
404,120,33726,1,0,0:0:0:0:
368,104,33794,1,0,0:0:0:0:
248,196,33930,1,0,0:0:0:0:
384,264,34067,1,0,0:0:0:0:
248,336,34203,6,0,P|152:320|136:224,1,180,4|0,0:0|0:0,0:0:0:0:
40,128,34612,2,0,P|96:144|144:128,1,90,0|0,0:0|0:0,0:0:0:0:
232,56,34885,1,2,0:0:0:0:
232,56,35021,1,0,0:0:0:0:
320,160,35158,1,2,0:0:0:0:
320,160,35294,1,0,0:0:0:0:
256,288,35430,6,0,P|176:256|160:216,1,90,4|0,0:0|0:0,0:0:0:0:
196,160,35703,1,0,0:0:0:0:
108,116,35839,1,0,0:0:0:0:
80,212,35976,1,0,0:0:0:0:
32,68,36112,2,0,L|136:12,1,90,0|0,0:0|0:0,0:0:0:0:
310,29,36385,2,0,L|389:71,2,90,0|0|0,0:0|0:0|0:0,0:0:0:0:
200,64,36794,6,0,P|148:180|176:216,1,180,0|0,0:0|0:0,0:0:0:0:
256,152,37203,1,0,0:0:0:0:
244,268,37339,2,0,P|140:296|120:284,1,90,0|0,0:0|0:0,0:0:0:0:
144,300,37544,1,0,0:0:0:0:
124,292,37612,1,4,0:0:0:0:
139,179,37749,5,0,0:0:0:0:
80,84,37885,2,0,P|144:44|184:56,2,90,0|0|0,0:0|0:0|0:0,0:0:0:0:
256,152,38294,2,0,P|336:176|372:164,1,90,0|0,0:0|0:0,0:0:0:0:
368,44,38567,2,0,P|272:28|260:32,2,90,0|0|0,0:0|0:0|0:0,0:0:0:0:
440,112,38976,6,0,L|488:204,1,90,0|0,0:0|0:0,0:0:0:0:
256,152,39249,2,0,L|256:256,1,90,0|0,0:0|0:0,0:0:0:0:
72,112,39521,2,0,L|24:204,1,90,0|0,0:0|0:0,0:0:0:0:
96,288,39794,5,4,0:0:0:0:
148,212,39930,1,0,0:0:0:0:
192,292,40067,2,0,P|272:344|296:340,2,90,0|0|0,0:0|0:0|0:0,0:0:0:0:
104,132,40476,2,0,P|156:44|264:48,1,180,0|0,0:0|0:0,0:0:0:0:
348,32,40885,1,0,0:0:0:0:
292,156,41021,1,0,0:0:0:0:
348,280,41158,2,0,P|420:324|456:328,1,90,0|0,0:0|0:0,0:0:0:0:
360,124,41430,2,0,P|288:80|252:76,1,90,0|0,0:0|0:0,0:0:0:0:
72,100,41703,2,0,P|144:144|180:148,1,90,0|0,0:0|0:0,0:0:0:0:
148,144,41908,1,0,0:0:0:0:
148,144,41976,1,4,0:0:0:0:
248,312,42112,5,0,0:0:0:0:
140,316,42249,2,0,L|40:252,1,90,0|0,0:0|0:0,0:0:0:0:
64,267,42521,1,0,0:0:0:0:
196,232,42658,2,0,L|96:168,1,90,0|0,0:0|0:0,0:0:0:0:
120,183,42930,1,0,0:0:0:0:
304,76,43067,6,0,P|328:104|400:132,1,90,2|0,0:0|0:0,0:0:0:0:
208,308,43339,2,0,P|184:280|112:252,1,90,2|0,0:0|0:0,0:0:0:0:
28,84,43612,1,2,0:0:0:0:
104,56,43749,1,0,0:0:0:0:
164,108,43885,1,2,0:0:0:0:
240,76,44021,1,0,0:0:0:0:
328,44,44158,5,4,0:0:0:0:
436,140,44294,1,0,0:0:0:0:
324,52,44430,1,0,0:0:0:0:
440,132,44567,1,0,0:0:0:0:
320,56,44703,2,2,P|240:112|256:200,1,180,0|0,0:0|0:0,0:0:0:0:
264,280,45112,2,0,P|112:224|112:200,1,180,0|0,0:0|0:0,0:0:0:0:
105,141,45521,1,0,0:0:0:0:
105,141,45658,1,0,0:0:0:0:
200,176,45794,2,0,P|172:64|92:40,1,180,0|0,0:0|0:0,0:0:0:0:
156,252,46339,5,4,0:0:0:0:
288,176,46476,1,0,0:0:0:0:
204,324,46612,1,0,0:0:0:0:
236,108,46749,1,0,0:0:0:0:
248,252,46885,2,0,P|336:240|352:124,1,180,0|0,0:0|0:0,0:0:0:0:
300,60,47294,2,0,P|204:40|156:104,1,180,0|0,0:0|0:0,0:0:0:0:
156,252,47703,1,0,0:0:0:0:
236,108,47839,1,0,0:0:0:0:
232,256,47976,2,0,P|160:328|76:252,1,180,0|0,0:0|0:0,0:0:0:0:
176,56,48521,6,0,L|56:56,1,90,4|0,0:0|0:0,0:0:0:0:
86,56,48794,1,0,0:0:0:0:
325,291,49067,6,0,B|370:277|370:277|410:293,2,90,0|0|0,0:0|0:0|0:0,0:0:0:0:
120,192,49612,5,0,0:0:0:0:
120,193,49749,2,0,L|30:192,1,90,0|0,0:0|0:0,0:0:0:0:
392,192,50158,6,0,B|436:176|436:176|496:200,2,90,0|0|0,0:0|0:0|0:0,0:0:0:0:
80,328,50567,5,0,0:0:0:0:
80,328,50635,1,0,0:0:0:0:
80,328,50703,2,0,L|120:216,1,90,4|0,0:0|0:0,0:0:0:0:
208,48,50976,2,0,L|168:160,1,90,0|0,0:0|0:0,0:0:0:0:
184,328,51249,2,0,L|216:216,1,90,0|0,0:0|0:0,0:0:0:0:
312,48,51522,2,0,L|272:160,1,90,0|0,0:0|0:0,0:0:0:0:
304,320,51794,5,0,0:0:0:0:
392,248,51930,1,0,0:0:0:0:
392,136,52067,1,0,0:0:0:0:
304,64,52203,1,0,0:0:0:0:
184,64,52339,5,0,0:0:0:0:
184,64,52476,2,0,P|88:136|112:208,1,188.999994232178,0|4,0:0|0:0,0:0:0:0:
352,304,53158,5,8,0:0:0:0:
152,160,53430,2,0,P|232:104|264:120,1,99.0000030212403,0|0,0:0|0:0,0:0:0:0:
336,88,53703,1,8,0:0:0:0:
400,176,53839,6,0,P|328:232|248:168,1,198.000006042481,4|0,0:0|0:0,0:0:0:0:
144,104,54249,1,8,0:0:0:0:
144,104,54385,2,0,P|88:168|144:256,1,198.000006042481,0|0,0:0|0:0,0:0:0:0:
392,296,54794,5,8,0:0:0:0:
392,296,54930,2,0,P|280:328|232:256,1,198.000006042481,4|0,0:0|0:0,0:0:0:0:
176,184,55339,1,8,0:0:0:0:
240,96,55476,2,0,P|320:64|416:136,1,198.000006042481,0|0,0:0|0:0,0:0:0:0:
464,216,55885,1,8,0:0:0:0:
416,312,56021,6,0,P|296:336|252:248,1,198.000006042481,4|0,0:0|0:0,0:0:0:0:
256,168,56430,1,8,0:0:0:0:
192,68,56567,1,0,0:0:0:0:
76,80,56703,2,0,P|85:118|152:164,1,99.0000030212403,0|0,0:0|0:0,0:0:0:0:
256,168,56976,1,8,0:0:0:0:
142,227,57112,1,0,0:0:0:0:
256,288,57249,6,0,P|352:264|368:136,1,198.000006042481,4|8,0:0|0:0,0:0:0:0:
156,40,57794,2,0,P|108:64|76:128,2,99.0000030212403,0|0|8,0:0|0:0|0:0,0:0:0:0:
288,56,58203,6,0,P|248:184|184:168,1,198.000006042481,4|0,0:0|0:0,0:0:0:0:
156,40,58612,2,0,P|108:64|76:128,1,99.0000030212403,8|0,0:0|0:0,0:0:0:0:
49,309,58885,2,0,P|112:328|169:309,1,99.0000030212403,0|0,0:0|0:0,0:0:0:0:
288,196,59158,1,8,0:0:0:0:
304,292,59294,6,0,P|208:256|216:136,1,198.000006042481,4|0,0:0|0:0,0:0:0:0:
240,64,59703,1,8,0:0:0:0:
360,144,59839,2,0,P|312:176|240:160,1,99.0000030212403,0|0,0:0|0:0,0:0:0:0:
212,256,60112,1,0,0:0:0:0:
83,100,60249,1,8,0:0:0:0:
48,264,60385,6,0,B|56:176|152:144|228:200,1,198.000006042481,4|0,0:0|0:0,0:0:0:0:
304,292,60794,2,0,P|368:212|352:124,1,198.000006042481,8|0,0:0|0:0,0:0:0:0:
290,33,61203,1,0,0:0:0:0:
192,80,61339,2,0,P|199:129|240:168,1,99.0000030212403,8|0,0:0|0:0,0:0:0:0:
356,236,61612,5,4,0:0:0:0:
230,296,61749,1,0,0:0:0:0:
112,224,61885,2,0,P|120:168|184:128,1,99.0000030212403,8|0,0:0|0:0,0:0:0:0:
320,104,62158,2,0,P|296:152|224:184,2,99.0000030212403,0|0|8,0:0|0:0|0:0,0:0:0:0:
232,40,62567,6,0,P|152:64|132:184,1,198.000006042481,4|0,0:0|0:0,0:0:0:0:
259,177,62976,1,8,0:0:0:0:
384,224,63112,1,0,0:0:0:0:
432,312,63249,2,0,B|387:333|387:333|304:300,2,99.0000030212403,0|0|8,0:0|0:0|0:0,0:0:0:0:
384,224,63658,6,0,P|392:120|480:112,1,198.000006042481,4|0,0:0|0:0,0:0:0:0:
312,288,64067,1,8,0:0:0:0:
312,288,64203,2,0,P|256:336|152:264,1,198.000006042481,0|0,0:0|0:0,0:0:0:0:
356,188,64612,5,8,0:0:0:0:
356,188,64749,2,0,P|384:128|296:32,1,198.000006042481,4|0,0:0|0:0,0:0:0:0:
164,124,65158,1,8,0:0:0:0:
256,200,65294,2,0,P|240:272|184:296,2,99.0000030212403,0|0|0,0:0|0:0|0:0,0:0:0:0:
348,124,65703,1,8,0:0:0:0:
256,48,65839,1,0,0:0:0:0:
164,124,65976,6,0,P|36:116|28:44,1,198.000006042481,4|8,0:0|0:0,0:0:0:0:
192,240,66521,2,0,L|308:316,1,99.0000030212403,0|0,0:0|0:0,0:0:0:0:
388,276,66794,5,8,0:0:0:0:
388,276,66930,2,0,P|432:184|376:104,1,198.000006042481,4|0,0:0|0:0,0:0:0:0:
312,192,67339,1,8,0:0:0:0:
236,276,67476,2,0,P|192:184|248:104,1,198.000006042481,0|0,0:0|0:0,0:0:0:0:
312,192,67885,1,8,0:0:0:0:
388,276,68021,6,0,P|320:328|232:260,1,198.000006042481,4|0,0:0|0:0,0:0:0:0:
312,192,68430,1,8,0:0:0:0:
405,129,68567,2,0,P|344:88|288:96,1,99.0000030212403,0|0,0:0|0:0,0:0:0:0:
216,112,68839,1,0,0:0:0:0:
160,200,68976,1,8,0:0:0:0:
192,304,69112,6,0,P|84:280|56:168,2,198.000006042481,4|0|0,0:0|0:0|0:0,0:0:0:0:
256,168,69794,1,2,0:0:0:0:
256,168,70067,1,2,0:0:0:0:
108,100,70339,6,0,P|204:48|248:64,1,90,4|0,0:0|0:0,0:0:0:0:
332,100,70612,1,0,0:0:0:0:
184,164,70749,1,0,0:0:0:0:
332,224,70885,1,0,0:0:0:0:
184,284,71021,1,0,0:0:0:0:
332,348,71158,1,0,0:0:0:0:
184,164,71294,6,0,P|292:92|352:112,1,180,4|0,0:0|0:0,0:0:0:0:
468,200,71703,2,0,P|444:148|380:116,1,90,0|0,0:0|0:0,0:0:0:0:
300,25,71976,1,0,0:0:0:0:
256,24,72044,1,0,0:0:0:0:
217,38,72112,1,0,0:0:0:0:
32,196,72249,1,0,0:0:0:0:
172,128,72385,6,0,P|256:144|324:232,1,180,4|0,2:0|0:0,0:0:0:0:
192,264,72794,1,0,0:0:0:0:
312,332,72930,1,0,0:0:0:0:
312,332,72999,1,0,0:0:0:0:
312,332,73067,1,0,0:0:0:0:
192,356,73203,1,0,0:0:0:0:
78,310,73339,1,0,0:0:0:0:
32,196,73476,6,0,P|44:116|156:80,1,180,4|0,0:0|0:0,0:0:0:0:
248,104,73885,1,0,0:0:0:0:
148,220,74021,1,0,0:0:0:0:
296,264,74158,2,0,P|335:243|356:204,1,90,0|0,0:0|0:0,0:0:0:0:
204,112,74430,2,0,P|164:132|143:171,1,90,0|0,0:0|0:0,0:0:0:0:
256,312,74703,5,4,0:0:0:0:
165,360,74839,1,0,0:0:0:0:
191,259,74976,1,0,0:0:0:0:
101,309,75112,1,0,0:0:0:0:
127,208,75249,1,0,0:0:0:0:
37,258,75385,1,0,0:0:0:0:
62,158,75521,5,0,0:0:0:0:
62,158,75658,2,0,P|134:58|186:54,1,180,4|0,0:0|0:0,0:0:0:0:
384,124,76067,2,0,B|360:84|360:84|280:80,1,90,0|0,0:0|0:0,0:0:0:0:
440,224,76339,1,0,0:0:0:0:
450,260,76408,1,0,0:0:0:0:
442,296,76476,1,0,0:0:0:0:
352,356,76612,1,0,0:0:0:0:
240,276,76749,6,0,P|292:204|376:224,1,180,4|0,0:0|0:0,0:0:0:0:
320,280,77158,1,0,0:0:0:0:
124,192,77294,2,0,L|80:192,2,45,0|0|0,0:0|0:0|0:0,0:0:0:0:
216,132,77567,1,0,0:0:0:0:
304,192,77703,1,0,0:0:0:0:
216,256,77839,6,0,P|128:204|136:120,1,180,4|0,0:0|0:0,0:0:0:0:
452,84,78249,2,0,P|436:152|396:168,1,90,0|0,0:0|0:0,0:0:0:0:
347,236,78521,5,2,0:0:0:0:
300,100,78658,1,2,0:0:0:0:
164,147,78794,1,2,0:0:0:0:
211,283,78930,1,2,0:0:0:0:
336,284,79067,6,0,P|392:220|368:132,1,180,4|0,0:0|0:0,0:0:0:0:
304,48,79476,1,0,0:0:0:0:
176,56,79612,2,0,P|248:112|280:120,1,90,0|0,0:0|0:0,0:0:0:0:
184,200,79885,2,0,P|272:216|296:200,1,90,0|0,0:0|0:0,0:0:0:0:
344,144,80158,1,0,0:0:0:0:
416,224,80294,1,0,0:0:0:0:
240,344,80430,6,0,P|312:296|336:296,1,90,0|0,0:0|0:0,0:0:0:0:
280,192,80703,2,0,P|240:192|192:224,1,90,0|0,0:0|0:0,0:0:0:0:
128,104,80976,2,0,P|200:64|220:68,1,90,0|0,0:0|0:0,0:0:0:0:
220,68,81180,1,0,0:0:0:0:
236,76,81249,1,4,0:0:0:0:
320,176,81385,5,0,0:0:0:0:
384,89,81521,2,0,P|472:33|496:33,2,90,0|0|0,0:0|0:0|0:0,0:0:0:0:
384,200,81930,2,0,P|472:256|496:256,2,90,0|0|0,0:0|0:0|0:0,0:0:0:0:
320,112,82339,1,0,0:0:0:0:
232,176,82476,1,0,0:0:0:0:
144,240,82612,6,0,L|36:277,1,90,0|0,0:0|0:0,0:0:0:0:
212,264,82885,2,0,L|295:356,1,90,0|0,0:0|0:0,0:0:0:0:
200,192,83158,2,0,L|236:92,1,90,0|0,0:0|0:0,0:0:0:0:
372,40,83430,5,4,0:0:0:0:
359,198,83567,1,0,0:0:0:0:
231,107,83703,2,0,P|203:59|203:15,1,90,0|0,0:0|0:0,0:0:0:0:
316,28,83976,1,0,0:0:0:0:
240,200,84112,2,0,P|186:185|155:154,1,90,0|0,0:0|0:0,0:0:0:0:
88,64,84385,1,0,0:0:0:0:
60,160,84521,5,0,0:0:0:0:
180,24,84658,1,0,0:0:0:0:
316,140,84794,2,0,B|336:184|336:184|336:252,1,90,0|0,0:0|0:0,0:0:0:0:
192,340,85067,2,0,B|172:296|172:296|172:228,1,90,0|0,0:0|0:0,0:0:0:0:
336,225,85339,1,0,0:0:0:0:
380,88,85476,5,0,0:0:0:0:
380,88,85544,1,0,0:0:0:0:
380,88,85612,2,0,P|300:60|232:136,1,180,4|0,0:0|0:0,0:0:0:0:
336,225,86021,1,0,0:0:0:0:
162,209,86158,1,0,0:0:0:0:
311,119,86294,1,0,0:0:0:0:
243,280,86430,1,0,0:0:0:0:
204,110,86567,1,0,0:0:0:0:
112,136,86703,6,0,P|128:232|144:240,1,90,2|0,0:0|0:0,0:0:0:0:
400,216,86975,2,0,P|415:174|402:132,1,90,2|0,0:0|0:0,0:0:0:0:
208,72,87249,2,0,B|181:115|120:104|120:104|64:168|128:184,2,180,2|2|4,0:0|0:0|0:0,0:0:0:0:
296,104,87930,5,0,0:0:0:0:
328,264,88067,1,0,0:0:0:0:
360,136,88203,1,0,0:0:0:0:
392,293,88339,1,0,0:0:0:0:
424,164,88476,1,0,0:0:0:0:
456,321,88612,1,0,0:0:0:0:
488,192,88749,2,0,P|480:120|456:104,1,90,0|0,0:0|0:0,0:0:0:0:
256,40,89021,1,0,0:0:0:0:
176,149,89158,1,0,0:0:0:0:
72,64,89294,1,0,0:0:0:0:
20,192,89430,2,0,P|58:270|160:306,1,180,0|0,0:0|0:0,0:0:0:0:
312,336,89976,5,4,0:0:0:0:
462,289,90112,1,0,0:0:0:0:
312,240,90249,1,0,0:0:0:0:
462,192,90385,1,0,0:0:0:0:
312,144,90521,2,0,P|264:96|152:152,1,180,0|0,0:0|0:0,0:0:0:0:
184,304,90930,2,0,P|88:300|60:208,1,180,0|0,0:0|0:0,0:0:0:0:
84,114,91339,1,0,0:0:0:0:
204,90,91476,1,0,0:0:0:0:
312,144,91612,2,0,P|332:68|264:-12,1,180,0|0,0:0|0:0,0:0:0:0:
80,48,92158,5,4,0:0:0:0:
80,48,92294,2,0,P|56:104|80:168,1,90,0|0,0:0|0:0,0:0:0:0:
300,328,92703,6,0,L|180:328,2,90,0|0|0,0:0|0:0|0:0,0:0:0:0:
432,48,93249,5,0,0:0:0:0:
432,48,93385,2,0,P|456:104|432:168,1,90,0|0,0:0|0:0,0:0:0:0:
256,336,93794,5,0,0:0:0:0:
256,336,93930,2,0,P|196:284|192:268,1,90,0|0,0:0|0:0,0:0:0:0:
344,96,94203,5,0,0:0:0:0:
344,96,94271,1,0,0:0:0:0:
344,96,94339,2,0,L|264:32,1,90,4|0,0:0|0:0,0:0:0:0:
64,208,94612,2,0,L|144:264,1,90,0|0,0:0|0:0,0:0:0:0:
312,152,94885,2,0,L|232:88,1,90,0|0,0:0|0:0,0:0:0:0:
48,272,95158,2,0,L|136:336,1,90,0|0,0:0|0:0,0:0:0:0:
256,336,95430,5,0,0:0:0:0:
352,256,95567,1,0,0:0:0:0:
352,128,95703,1,0,0:0:0:0:
256,48,95839,1,0,0:0:0:0:
136,96,95976,5,0,0:0:0:0:
136,96,96112,2,0,P|168:216|240:224,1,188.999994232178,0|4,0:0|0:0,0:0:0:0:
416,52,96794,5,8,0:0:0:0:
352,128,96930,1,0,0:0:0:0:
256,48,97067,2,0,P|208:40|144:72,2,99.0000030212403,0|0|8,0:0|0:0|0:0,0:0:0:0:
416,52,97476,6,0,P|440:148|376:224,1,198.000006042481,4|0,0:0|0:0,0:0:0:0:
275,148,97885,1,8,0:0:0:0:
162,56,98021,2,0,P|82:96|90:208,1,198.000006042481,0|0,0:0|0:0,0:0:0:0:
80,194,98430,1,8,0:0:0:0:
212,180,98567,6,0,P|196:292|116:316,1,198.000006042481,4|0,0:0|0:0,0:0:0:0:
80,194,98976,1,8,0:0:0:0:
141,79,99112,2,0,P|233:35|325:107,1,198.000006042481,0|0,0:0|0:0,0:0:0:0:
404,168,99521,1,8,0:0:0:0:
302,248,99658,6,0,P|254:232|194:268,1,99.0000030212403,4|0,0:0|0:0,0:0:0:0:
384,296,99930,2,0,P|400:248|364:188,1,99.0000030212403,0|8,0:0|0:0,0:0:0:0:
342,93,100203,1,0,0:0:0:0:
232,48,100339,2,0,B|184:32|184:32|120:56,1,99.0000030212403,0|0,0:0|0:0,0:0:0:0:
55,134,100612,2,0,B|77:179|77:179|139:207,1,99.0000030212403,8|0,0:0|0:0,0:0:0:0:
240,184,100885,6,0,P|344:144|416:208,1,198.000006042481,4|8,0:0|0:0,0:0:0:0:
412,308,101294,1,0,0:0:0:0:
288,336,101430,2,0,P|223:294|216:240,1,99.0000030212403,0|0,0:0|0:0,0:0:0:0:
320,208,101703,1,8,0:0:0:0:
320,208,101839,6,0,P|288:112|188:120,1,198.000006042481,4|0,0:0|0:0,0:0:0:0:
240,184,102249,2,0,P|200:240|152:240,1,99.0000030212403,8|0,0:0|0:0,0:0:0:0:
24,272,102521,1,0,0:0:0:0:
112,144,102658,1,0,0:0:0:0:
88,336,102794,1,8,0:0:0:0:
24,144,102930,6,0,P|88:64|196:104,1,198.000006042481,4|0,0:0|0:0,0:0:0:0:
256,128,103339,1,8,0:0:0:0:
184,236,103476,2,0,P|256:292|328:228,1,198.000006042481,0|0,0:0|0:0,0:0:0:0:
256,128,103885,1,8,0:0:0:0:
176,76,104021,6,0,P|256:24|344:92,1,198.000006042481,4|0,0:0|0:0,0:0:0:0:
352,204,104430,2,0,P|384:256|436:276,1,99.0000030212403,8|0,0:0|0:0,0:0:0:0:
456,188,104703,1,0,0:0:0:0:
344,336,104839,1,0,0:0:0:0:
390,121,104976,1,8,0:0:0:0:
272,276,105112,1,0,0:0:0:0:
416,272,105249,6,0,P|456:192|376:120,1,198.000006042481,4|8,0:0|0:0,0:0:0:0:
160,32,105794,2,0,P|208:56|264:128,1,99.0000030212403,0|0,0:0|0:0,0:0:0:0:
280,176,106067,1,8,0:0:0:0:
180,168,106203,6,0,P|72:180|36:272,1,198.000006042481,4|0,0:0|0:0,0:0:0:0:
80,340,106612,2,0,P|188:328|224:236,1,198.000006042481,8|0,0:0|0:0,0:0:0:0:
280,176,107021,1,0,0:0:0:0:
240,87,107158,1,8,0:0:0:0:
338,96,107294,6,0,P|442:124|463:221,1,198.000006042481,4|0,0:0|0:0,0:0:0:0:
409,281,107703,2,0,P|304:252|283:155,1,198.000006042481,8|0,0:0|0:0,0:0:0:0:
336,96,108112,1,0,0:0:0:0:
376,188,108249,1,8,0:0:0:0:
240,87,108385,6,0,P|205:46|136:22,1,99.0000030212403,4|0,0:0|0:0,0:0:0:0:
64,144,108658,2,0,P|94:182|138:204,1,99.0000030212403,0|8,0:0|0:0,0:0:0:0:
232,180,108930,1,0,0:0:0:0:
140,104,109067,2,0,P|98:70|26:59,2,99.0000030212403,0|0|8,0:0|0:0|0:0,0:0:0:0:
232,180,109476,1,0,0:0:0:0:
320,228,109612,6,0,P|432:148|424:108,1,198.000006042481,4|8,0:0|0:0,0:0:0:0:
192,48,110158,1,0,0:0:0:0:
264,120,110294,1,0,0:0:0:0:
264,216,110430,1,8,0:0:0:0:
192,280,110567,6,0,P|80:240|88:168,1,198.000006042481,4|0,0:0|0:0,0:0:0:0:
148,80,110976,1,8,0:0:0:0:
256,32,111112,1,0,0:0:0:0:
364,80,111249,2,0,P|356:132|280:156,1,99.0000030212403,0|0,0:0|0:0,0:0:0:0:
204,176,111521,1,8,0:0:0:0:
256,284,111658,6,0,P|360:300|376:196,1,198.000006042481,4|0,0:0|0:0,0:0:0:0:
432,112,112067,1,8,0:0:0:0:
144,48,112339,1,0,0:0:0:0:
80,112,112476,1,0,0:0:0:0:
144,176,112612,1,8,0:0:0:0:
208,112,112749,6,0,P|280:104|328:136,1,99.0000030212403,4|0,0:0|0:0,0:0:0:0:
352,224,113021,2,0,P|304:210|257:222,1,99.0000030212403,0|8,0:0|0:0,0:0:0:0:
200,304,113294,1,0,0:0:0:0:
104,264,113430,2,0,B|85:233|61:226|61:226|61:197|88:176|88:176|60:140|60:140|96:88,1,198.000006042481,2|2,0:0|0:0,0:0:0:0:
256,40,113976,6,0,P|348:92|392:64,1,90,4|0,0:0|0:0,0:0:0:0:
412,112,114249,1,8,0:0:0:0:
360,304,114521,1,0,0:0:0:0:
360,304,114658,2,0,P|332:340|252:328,1,90,0|8,0:0|0:0,0:0:0:0:
192,348,114930,6,0,P|108:320|120:220,1,180,2|0,0:0|0:0,0:0:0:0:
156,156,115339,1,8,0:0:0:0:
236,244,115476,1,0,0:0:0:0:
288,140,115612,2,0,P|392:168|412:196,2,90,0|0|8,0:0|0:0|0:0,0:0:0:0:
236,36,116021,6,0,P|132:52|96:152,1,180,4|0,0:0|0:0,0:0:0:0:
96,208,116430,2,0,P|140:256|192:260,1,90,8|0,0:0|0:0,0:0:0:0:
352,216,116703,1,0,0:0:0:0:
224,140,116839,1,0,0:0:0:0:
256,290,116976,1,8,0:0:0:0:
140,92,117112,6,0,P|264:36|396:120,1,270,2|8,0:0|0:0,0:0:0:0:
152,288,117794,2,0,L|232:212,1,90,8|0,0:0|0:0,0:0:0:0:
360,288,118067,2,0,L|294:226,1,90,8|4,0:0|0:0,0:0:0:0:
256,290,118612,5,8,0:0:0:0:
184,128,118749,1,0,0:0:0:0:
340,152,118885,1,0,0:0:0:0:
136,212,119021,1,0,0:0:0:0:
256,290,119158,1,8,0:0:0:0:
384,240,119294,6,0,P|432:160|312:48,1,270,2|8,0:0|0:0,0:0:0:0:
164,184,119839,1,0,0:0:0:0:
164,300,119976,1,0,0:0:0:0:
264,244,120112,1,0,0:0:0:0:
264,128,120249,1,8,0:0:0:0:
384,240,120385,6,0,P|296:328|152:288,1,270,4|8,0:0|0:0,0:0:0:0:
208,140,120930,1,0,0:0:0:0:
324,208,121067,1,0,0:0:0:0:
300,40,121203,1,0,0:0:0:0:
208,140,121339,1,8,0:0:0:0:
406,101,121476,2,0,L|528:72,1,90,2|0,0:0|0:0,0:0:0:0:
88,40,121885,6,0,L|200:56,1,90,2|0,0:0|0:0,0:0:0:0:
92,176,122158,2,0,L|2:163,1,90,2|0,0:0|0:0,0:0:0:0:
208,140,122430,1,0,0:2:0:0:
108,328,122567,1,0,0:0:0:0:
192,256,122703,6,0,P|268:252|296:280,1,90,4|0,0:0|0:0,0:0:0:0:
404,340,122976,2,0,P|328:344|300:316,1,90,0|0,0:0|0:0,0:0:0:0:
276,257,123249,1,0,0:0:0:0:
301,161,123385,1,0,0:0:0:0:
384,216,123521,5,0,0:0:0:0:
384,216,123658,2,0,P|432:136|376:64,1,180,4|0,0:0|0:0,0:0:0:0:
296,40,124067,2,0,L|232:128,1,90,0|0,0:0|0:0,0:0:0:0:
136,160,124339,1,0,0:0:0:0:
120,128,124407,1,0,0:0:0:0:
120,88,124476,1,0,0:0:0:0:
208,224,124612,5,0,0:0:0:0:
208,224,124749,2,0,P|280:160|232:72,1,180,4|0,0:0|0:0,0:0:0:0:
136,56,125158,1,0,0:0:0:0:
256,32,125294,1,0,0:0:0:0:
256,32,125362,1,0,0:0:0:0:
256,32,125430,2,0,L|360:80,1,90,0|0,0:0|0:0,0:0:0:0:
256,144,125703,2,0,L|352:192,1,90,0|4,0:0|0:0,0:0:0:0:
136,344,126112,5,0,0:0:0:0:
192,264,126249,2,0,P|136:208|136:192,1,90,0|0,0:0|0:0,0:0:0:0:
200,80,126521,2,0,P|240:128|240:160,1,90,0|0,0:0|0:0,0:0:0:0:
96,128,126794,2,0,P|64:56|80:24,1,90,0|0,0:0|0:0,0:0:0:0:
274,33,127067,6,0,P|194:81|162:81,1,90,4|0,0:0|0:0,0:0:0:0:
96,128,127339,1,0,0:0:0:0:
20,219,127476,1,0,0:0:0:0:
113,290,127612,2,0,P|177:258|201:210,2,90,0|0|0,0:0|0:0|0:0,0:0:0:0:
63,204,128021,6,0,P|124:116|196:156,1,180,4|0,0:0|0:0,0:0:0:0:
233,219,128430,1,0,0:0:0:0:
288,304,128567,2,0,P|352:248|368:208,1,90,0|0,0:0|0:0,0:0:0:0:
368,216,128771,1,0,0:0:0:0:
376,192,128839,1,0,0:0:0:0:
384,168,128908,1,0,0:0:0:0:
392,144,128976,1,0,0:0:0:0:
408,56,129112,6,0,P|296:64|264:124,1,180,4|0,0:0|0:0,0:0:0:0:
233,219,129521,1,0,0:0:0:0:
128,224,129658,2,0,L|72:256,2,45,0|0|0,0:0|0:0|0:0,0:0:0:0:
142,117,129930,1,0,0:0:0:0:
248,96,130067,1,0,0:0:0:0:
320,176,130203,6,0,P|392:188|420:72,1,180,4|0,0:0|0:0,0:0:0:0:
368,32,130612,2,0,L|368:128,1,90,0|0,0:0|0:0,0:0:0:0:
296,352,130885,2,0,L|296:232,1,90,0|0,0:0|0:0,0:0:0:0:
200,32,131158,2,0,L|200:128,1,90,0|0,0:0|0:0,0:0:0:0:
160,256,131430,6,0,P|88:216|80:176,1,90,4|0,0:0|0:0,0:0:0:0:
48,120,131703,1,0,0:0:0:0:
128,56,131839,1,0,0:0:0:0:
208,120,131976,2,0,L|328:120,1,90,0|0,0:0|0:0,0:0:0:0:
298,120,132249,1,0,0:0:0:0:
392,176,132385,6,0,P|352:240|232:224,1,180,4|0,0:0|0:0,0:0:0:0:
160,256,132794,1,0,0:0:0:0:
240,104,132930,1,0,0:0:0:0:
72,168,133067,1,0,0:0:0:0:
64,200,133135,1,0,0:0:0:0:
72,232,133203,1,0,0:0:0:0:
112,336,133339,5,0,0:0:0:0:
112,336,133476,2,0,P|208:352|284:296,1,180,4|0,0:0|0:0,0:0:0:0:
352,240,133885,2,0,P|312:208|248:216,1,90,0|0,0:0|0:0,0:0:0:0:
274,205,134089,1,0,0:0:0:0:
274,205,134158,1,0,0:0:0:0:
192,117,134294,1,0,0:0:0:0:
274,29,134430,1,0,0:0:0:0:
362,112,134567,6,0,P|402:136|410:272,1,180,4|0,0:0|0:0,0:0:0:0:
336,312,134976,1,0,0:0:0:0:
336,312,135112,1,0,0:0:0:0:
208,227,135249,1,0,0:0:0:0:
208,227,135385,1,0,0:0:0:0:
336,144,135521,1,0,0:0:0:0:
336,144,135658,1,0,0:0:0:0:
192,80,135794,6,0,P|256:40|304:48,1,90,4|0,0:0|0:0,0:0:0:0:
152,192,136067,2,0,L|48:192,2,90,0|0|0,0:0|0:0|0:0,0:0:0:0:
240,144,136476,1,0,0:0:0:0:
296,224,136612,1,0,0:0:0:0:
376,280,136749,6,0,P|440:256|432:128,1,180,4|0,0:0|0:0,0:0:0:0:
400,72,137158,1,0,0:0:0:0:
320,128,137294,1,0,0:0:0:0:
256,48,137430,1,0,0:0:0:0:
224,40,137499,1,0,0:0:0:0:
192,48,137567,1,0,0:0:0:0:
160,64,137635,1,0,0:0:0:0:
144,88,137703,1,0,0:0:0:0:
152,192,137839,6,0,P|104:256|8:228,1,180,4|0,0:0|0:0,0:0:0:0:
32,120,138249,1,0,0:0:0:0:
132,60,138385,1,0,0:0:0:0:
132,60,138453,1,0,0:0:0:0:
132,60,138521,1,0,0:0:0:0:
194,160,138658,1,0,0:0:0:0:
96,224,138794,1,0,0:0:0:0:
12,296,138930,6,0,P|136:328|192:276,1,180,4|0,0:0|0:0,0:0:0:0:
280,242,139338,1,8,0:0:0:0:
202,140,139476,1,0,0:0:0:0:
340,104,139611,1,8,0:0:0:0:
352,232,139749,1,0,0:0:0:0:
268,117,139885,1,8,0:0:0:0:
412,104,140022,1,0,0:0:0:0:
472,208,140158,5,12,0:2:0:0:
456,248,140226,1,0,0:0:0:0:
440,288,140294,2,0,L|424:336,3,45,0|0|8|0,0:0|0:0|0:0|0:0,0:0:0:0:
376,224,140567,5,0,0:0:0:0:
368,184,140635,1,0,0:0:0:0:
360,144,140703,2,0,L|352:80,3,45,8|0|0|0,0:0|0:0|0:0|0:0,0:0:0:0:
288,200,140976,5,8,0:0:0:0:
272,240,141044,1,0,0:0:0:0:
256,280,141112,2,0,L|240:328,3,45,0|0|8|0,0:0|0:0|0:0|0:0,0:0:0:0:
184,224,141385,5,0,0:0:0:0:
176,176,141453,1,0,0:0:0:0:
168,136,141521,2,0,L|160:80,3,45,8|0|0|0,0:0|0:0|0:0|0:0,0:0:0:0:
88,200,141794,6,0,L|96:256,3,45,8|0|0|0,0:0|0:0|0:0|0:0,0:0:0:0:
112,288,142067,1,8,0:0:0:0:
144,320,142135,1,0,0:0:0:0:
184,344,142203,1,0,0:0:0:0:
224,352,142271,1,0,0:0:0:0:
264,352,142339,6,0,L|328:352,3,45,12|0|0|0,0:0|0:0|0:0|0:0,0:0:0:0:
344,344,142612,1,8,0:0:0:0:
372,332,142680,1,0,0:0:0:0:
396,312,142749,1,0,0:0:0:0:
416,288,142817,1,0,0:0:0:0:
432,260,142885,1,8,0:0:0:0:
440,232,142953,1,0,0:0:0:0:
444,200,143021,1,0,0:0:0:0:
444,168,143089,1,0,0:0:0:0:
440,136,143158,1,8,0:0:0:0:
428,108,143226,1,0,0:0:0:0:
412,80,143294,1,0,0:0:0:0:
388,56,143362,1,0,0:0:0:0:
364,40,143430,1,8,0:0:0:0:
336,28,143499,1,0,0:0:0:0:
308,24,143567,6,0,B|272:12|252:32|252:32|212:16|204:64|204:64|160:80|188:120|188:120|164:160|208:168|208:168|208:212|268:208,1,323.999990112305,0|0,0:0|0:0,0:0:0:0:
288,336,144521,5,12,0:0:0:0:
253,347,144589,1,0,0:0:0:0:
216,348,144658,1,0,0:0:0:0:
180,342,144726,1,0,0:0:0:0:
147,327,144794,1,8,0:0:0:0:
118,304,144862,1,0,0:0:0:0:
95,276,144930,1,0,0:0:0:0:
77,243,144999,1,0,0:0:0:0:
72,207,145067,2,0,L|72:151,6,45,8|0|0|0|8|0|0,0:0|0:0|0:0|0:0|0:0|0:0|0:0,0:0:0:0:
248,216,145612,5,8,0:0:0:0:
226,245,145680,1,0,0:0:0:0:
194,263,145749,1,0,0:0:0:0:
158,265,145817,1,0,0:0:0:0:
124,252,145885,1,8,0:0:0:0:
98,226,145953,1,0,0:0:0:0:
80,194,146021,1,0,0:0:0:0:
71,159,146089,1,0,0:0:0:0:
74,122,146158,2,0,L|98:72,3,45,8|0|0|0,0:0|0:0|0:0|0:0,0:0:0:0:
121,58,146430,2,0,L|179:36,3,45,8|0|0|0,0:0|0:0|0:0|0:0,0:0:0:0:
203,39,146703,5,12,0:0:0:0:
242,47,146771,1,0,0:0:0:0:
274,70,146839,1,0,0:0:0:0:
294,105,146908,1,0,0:0:0:0:
293,145,146976,1,8,0:0:0:0:
270,178,147044,1,0,0:0:0:0:
234,197,147112,1,0,0:0:0:0:
195,209,147180,1,0,0:0:0:0:
161,232,147249,1,8,0:0:0:0:
140,266,147317,1,0,0:0:0:0:
144,306,147385,1,0,0:0:0:0:
161,342,147453,1,0,0:0:0:0:
193,365,147521,1,8,0:0:0:0:
232,372,147589,1,0,0:0:0:0:
272,372,147658,1,0,0:0:0:0:
310,358,147726,1,0,0:0:0:0:
342,342,147794,6,0,L|391:308,3,45,8|0|0|0,0:0|0:0|0:0|0:0,0:0:0:0:
406,297,148067,2,0,P|441:232|422:143,1,135,8|0,0:0|0:0,0:0:0:0:
424,134,148339,1,8,0:0:0:0:
399,100,148408,1,0,0:0:0:0:
367,74,148476,1,0,0:0:0:0:
329,58,148544,1,0,0:0:0:0:
288,53,148612,2,0,P|213:82|198:122,1,90,8|0,0:0|0:0,0:0:0:0:
168,200,148885,5,12,0:0:0:0:
169,226,148953,1,0,0:0:0:0:
170,252,149021,1,0,0:0:0:0:
173,278,149089,1,0,0:0:0:0:
176,305,149158,2,0,P|231:337|345:290,2,180,8|8|8,0:0|0:0|0:0,0:0:0:0:
145,281,149771,1,0,0:0:0:0:
117,254,149839,1,0,0:0:0:0:
95,221,149908,1,0,0:0:0:0:
85,184,149976,2,0,P|101:104|197:80,1,180,8|8,0:0|0:0,0:0:0:0:
268,148,150385,1,0,0:0:0:0:
208,236,150521,1,8,0:0:0:0:
344,248,150658,5,0,0:0:0:0:
176,160,150794,1,8,0:0:0:0:
333,54,150930,1,0,0:0:0:0:
144,72,151067,6,0,L|120:128,3,45,12|0|0|0,0:0|0:0|0:0|0:0,0:0:0:0:
120,152,151339,2,0,L|128:224,3,45,8|0|0|0,0:0|0:0|0:0|0:0,0:0:0:0:
136,232,151612,1,8,0:0:0:0:
160,264,151680,1,0,0:0:0:0:
192,288,151749,1,0,0:0:0:0:
224,304,151817,1,0,0:0:0:0:
256,312,151885,1,8,0:0:0:0:
288,320,151953,1,0,0:0:0:0:
320,320,152021,1,0,0:0:0:0:
352,312,152089,1,0,0:0:0:0:
384,296,152158,6,0,B|436:244|408:192|408:192|424:156|424:156|392:144|392:144|396:108|396:108|360:100|360:100|312:44|240:76,1,377.999988464356,8|8,0:0|0:0,0:0:0:0:
184,144,153112,5,0,0:0:0:0:
184,144,153249,2,0,L|96:200,1,90,12|0,0:0|0:0,0:0:0:0:
328,144,153521,1,8,0:0:0:0:
328,144,153658,2,0,L|416:200,1,90,0|8,0:0|0:0,0:0:0:0:
256,336,153930,1,0,0:0:0:0:
256,336,154067,2,0,L|256:208,1,90,8|0,0:0|0:0,0:0:0:0:
119,95,154339,6,0,L|88:64,2,45,8|0|0,0:0|0:0|0:0,0:0:0:0:
184,176,154612,1,8,0:0:0:0:
256,93,154748,2,0,L|256:48,2,45,0|0|8,0:0|0:0|0:0,0:0:0:0:
328,176,155021,1,0,0:0:0:0:
392,95,155158,2,0,L|424:64,2,45,8|0|0,0:0|0:0|0:0,0:0:0:0:
392,204,155430,6,0,L|340:232,3,45,12|0|0|0,0:0|0:0|0:0|0:0,0:0:0:0:
319,233,155703,2,0,L|263:241,3,45,8|0|0|0,0:0|0:0|0:0|0:0,0:0:0:0:
240,240,155976,2,0,L|195:233,3,45,8|0|0|0,0:0|0:0|0:0|0:0,0:0:0:0:
163,225,156249,2,0,L|123:203,3,45,8|0|0|0,0:0|0:0|0:0|0:0,0:0:0:0:
96,180,156521,6,0,B|106:170|106:170|104:166|104:166|109:165|109:165|105:162|105:162|113:161|113:161|108:157|108:157|111:153|111:153|116:156|116:156|122:143|122:143|116:148|116:148|123:151|123:151|119:147|119:147|127:146|127:146|134:141|134:141|127:126|127:126|148:127|148:127|141:108|141:108|165:108|165:108|158:89|158:89|182:89|182:89|179:69|179:69|192:71|193:51,1,270,8|0,0:0|0:0,0:0:0:0:
220,32,157067,2,0,B|280:-4|312:32|312:32|384:52|336:144,1,188.999994232178,8|0,0:0|0:0,0:0:0:0:
112,256,157612,6,0,B|152:272|168:288|168:288|179:329|224:320|224:320|256:356|288:320|288:320|331:327|340:288|340:288|364:272|424:244,1,350.999983932496,4|0,0:0|0:0,0:0:0:0:
424,96,158703,6,0,B|372:76|344:80|344:80|332:38|284:44|284:44|256:0|228:44|228:44|180:40|172:80|172:80|128:72|72:128,1,394.200010827027
88,264,159794,6,0,B|124:328|168:304|168:304|179:345|228:340|228:340|256:384|284:340|284:340|331:343|340:304|340:304|396:324|456:224,1,432,4|0,0:0|0:0,0:0:0:0:
452,104,160885,6,0,B|420:96|402:100|402:100|388:56|344:80|344:80|332:28|284:44|284:44|256:0|228:44|228:44|176:28|172:80|172:80|116:60|100:104|100:104|59:94|8:144,1,485.999985168458,0|0,0:0|0:0,0:0:0:0:
256,192,161976,12,4,164158,0:0:0:0:
304,316,164430,6,0,P|364:224|364:212,2,90,8|0|8,0:0|0:0|0:0,0:0:0:0:
172,332,164839,1,0,0:0:0:0:
272,232,164976,1,8,0:0:0:0:
132,244,165112,1,0,0:0:0:0:
224,128,165249,6,0,L|309:83,1,90,2|0,0:0|0:0,0:0:0:0:
128,132,165521,2,0,L|48:173,1,90,2|0,0:0|0:0,0:0:0:0:
224,88,165794,2,0,L|282:11,1,90,2|0,0:0|0:0,0:0:0:0:
128,172,166066,2,0,L|73:243,1,90,2|0,0:0|0:0,0:0:0:0:
304,148,166339,5,4,0:0:0:0:
186,232,166476,1,0,0:0:0:0:
324,272,166612,1,0,0:0:0:0:
212,160,166749,1,0,0:0:0:0:
76,236,166885,2,0,P|72:280|91:320,2,90,0|0|0,0:0|0:0|0:0,0:0:0:0:
124,88,167294,6,0,P|208:44|292:108,1,180,0|0,0:0|0:0,0:0:0:0:
320,160,167703,1,0,0:0:0:0:
204,140,167839,1,0,0:0:0:0:
313,7,167976,2,0,P|357:91|293:175,1,180,0|0,0:0|0:0,0:0:0:0:
408,224,168521,5,4,0:0:0:0:
187,328,168658,1,0,0:0:0:0:
321,328,168794,1,0,0:0:0:0:
104,224,168930,1,0,0:0:0:0:
320,120,169067,2,0,L|400:48,2,90,0|0|0,0:0|0:0|0:0,0:0:0:0:
192,120,169476,2,0,L|112:48,2,90,0|0|0,0:0|0:0|0:0,0:0:0:0:
344,248,169885,1,0,0:0:0:0:
256,344,170021,1,0,0:0:0:0:
176,248,170158,2,0,P|144:168|192:80,1,180,0|0,0:0|0:0,0:0:0:0:
432,40,170703,6,0,L|432:144,1,90,4|0,0:0|0:0,0:0:0:0:
432,130,170976,1,0,0:0:0:0:
56,320,171249,5,0,0:0:0:0:
56,320,171385,2,0,P|144:328|208:240,1,180,0|0,0:0|0:0,0:0:0:0:
192,64,171794,5,0,0:0:0:0:
192,64,171930,2,0,P|124:120|141:228,1,180,0|0,0:0|0:0,0:0:0:0:
280,328,172339,5,0,0:0:0:0:
280,328,172476,2,0,P|328:232|296:128,1,180,0|0,0:0|0:0,0:0:0:0:
130,332,172885,6,0,P|82:252|82:236,1,90,4|0,0:0|0:0,0:0:0:0:
142,88,173158,2,0,P|190:168|190:184,1,90,0|0,0:0|0:0,0:0:0:0:
344,332,173430,2,0,P|296:252|296:236,1,90,0|0,0:0|0:0,0:0:0:0:
356,88,173703,2,0,P|404:168|404:184,1,90,0|0,0:0|0:0,0:0:0:0:
200,320,173976,5,0,0:0:0:0:
104,136,174112,1,0,0:0:0:0:
104,256,174249,1,0,0:0:0:0:
200,64,174385,1,0,0:0:0:0:
272,192,174521,5,0,0:0:0:0:
272,192,174658,2,0,P|368:224|416:160,1,188.999994232178,0|6,0:0|0:0,0:0:0:0:
48,64,183794,5,4,0:0:0:0:
144,184,184067,1,0,0:0:0:0:
232,48,184339,2,0,P|272:40|328:56,2,72,0|0|0,0:0|0:0|0:0,0:0:0:0:
176,104,184749,2,0,P|224:152|320:136,1,144,0|0,0:0|0:0,0:0:0:0:
368,192,185158,1,0,0:0:0:0:
288,328,185430,1,0,0:0:0:0:
200,192,185703,5,0,0:0:0:0:
200,192,185839,2,0,P|144:128|80:128,1,144,0|0,0:0|0:0,0:0:0:0:
40,184,186249,1,0,0:0:0:0:
112,328,186521,1,0,0:0:0:0:
264,296,186794,1,0,0:0:0:0:
312,232,186930,6,0,P|304:168|280:136,1,72,0|0,0:0|0:0,0:0:0:0:
224,176,187203,2,0,P|216:104|200:80,1,72,0|0,0:0|0:0,0:0:0:0:
144,136,187476,1,0,0:0:0:0:
144,136,187612,2,0,P|136:80|112:48,1,72,0|0,0:0|0:0,0:0:0:0:
200,24,187885,2,0,P|241:18|296:48,1,72,0|0,0:0|0:0,0:0:0:0:
336,72,188158,5,4,0:0:0:0:
256,208,188430,1,0,0:0:0:0:
336,344,188703,2,0,L|424:296,2,72,0|0|0,0:0|0:0|0:0,0:0:0:0:
264,312,189112,1,0,0:0:0:0:
152,200,189385,2,0,P|112:264|144:336,2,144,0|0|0,0:0|0:0|0:0,0:0:0:0:
296,272,190203,5,0,0:0:0:0:
424,176,190476,2,0,P|443:108|403:51,2,144,0|0|0,0:0|0:0|0:0,0:0:0:0:
256,192,191294,12,4,192521,0:0:0:0:
256,112,192794,6,0,P|312:184|264:272,1,198.000006042481,8|0,0:0|0:0,0:0:0:0:
182,322,193203,1,0,0:0:0:0:
88,288,193339,2,0,P|96:208|144:192,1,99.0000030212403,8|4,0:0|0:0,0:0:0:0:
256,32,193749,5,0,0:0:0:0:
256,32,193885,2,0,P|176:136|112:128,1,198.000006042481,8|0,0:0|0:0,0:0:0:0:
32,174,194294,1,0,0:0:0:0:
72,262,194430,1,8,0:0:0:0:
160,304,194567,6,0,P|216:248|200:120,1,198.000006042481,4|0,0:0|0:0,0:0:0:0:
256,32,194976,2,0,B|308:28|308:28|356:60,1,99.0000030212403,8|0,0:0|0:0,0:0:0:0:
464,184,195249,1,0,0:0:0:0:
424,272,195385,2,0,P|360:296|320:256,1,99.0000030212403,0|8,0:0|0:0,0:0:0:0:
336,184,195658,6,0,P|232:168|200:248,1,198.000006042481,4|0,0:0|0:0,0:0:0:0:
198,238,196067,1,8,0:0:0:0:
72,120,196203,1,0,0:0:0:0:
72,120,196339,2,0,P|55:170|72:232,1,99.0000030212403,0|0,0:0|0:0,0:0:0:0:
120,296,196612,1,8,0:0:0:0:
62,214,196749,1,0,0:0:0:0:
128,96,196885,6,0,P|208:48|296:112,1,198.000006042481,4|8,0:0|0:0,0:0:0:0:
384,272,197430,2,0,P|336:304|256:296,1,99.0000030212403,0|0,0:0|0:0,0:0:0:0:
295,308,197703,1,8,0:0:0:0:
208,264,197839,6,0,P|216:152|312:144,1,198.000006042481,4|0,0:0|0:0,0:0:0:0:
365,194,198249,1,8,0:0:0:0:
268,212,198385,2,0,P|172:164|196:60,1,198.000006042481,0|0,0:0|0:0,0:0:0:0:
256,32,198794,1,8,0:0:0:0:
248,128,198930,6,0,P|151:178|89:128,2,198.000006042481,4|0|0,0:0|0:0|0:0,0:0:0:0:
320,48,199612,1,0,0:0:0:0:
364,148,199749,1,0,0:0:0:0:
291,228,199885,1,8,0:0:0:0:
248,128,200021,6,0,P|120:164|184:288,1,297.000009063721,4|8,0:0|0:0,0:0:0:0:
384,352,200703,2,0,P|441:331|472:272,1,99.0000030212403,0|0,0:0|0:0,0:0:0:0:
372,184,200976,2,0,P|324:192|284:256,2,99.0000030212403,8|0|4,0:0|0:0|0:0,0:0:0:0:
240,336,201521,6,0,P|176:264|204:152,1,198.000006042481,8|0,0:0|0:0,0:0:0:0:
288,144,201930,1,0,0:0:0:0:
244,56,202067,1,8,0:0:0:0:
148,84,202203,6,0,P|64:120|72:244,1,198.000006042481,4|0,0:0|0:0,0:0:0:0:
88,320,202612,2,0,B|128:352|128:352|180:352,1,99.0000030212403,8|0,0:0|0:0,0:0:0:0:
340,312,202885,1,0,0:0:0:0:
220,220,203021,1,0,0:0:0:0:
264,360,203158,1,8,0:0:0:0:
136,228,203294,6,0,B|149:180|149:180|192:136,1,99.0000030212403,4|0,0:0|0:0,0:0:0:0:
324,124,203567,1,0,0:0:0:0:
324,124,203703,2,0,P|409:165|418:260,1,198.000006042481,8|0,0:0|0:0,0:0:0:0:
328,224,204112,1,0,0:0:0:0:
231,175,204249,1,8,0:0:0:0:
264,72,204385,6,0,P|332:48|388:72,1,99.0000030212403,4|0,0:0|0:0,0:0:0:0:
496,160,204658,2,0,P|453:183|376:160,1,99.0000030212403,0|8,0:0|0:0,0:0:0:0:
304,136,204930,1,0,0:0:0:0:
216,312,205067,1,0,0:0:0:0:
160,200,205203,1,0,0:0:0:0:
304,328,205339,1,8,0:0:0:0:
208,128,205476,1,0,0:0:0:0:
320,208,205612,6,0,P|364:136|312:44,1,198.000006042481,4|8,0:0|0:0,0:0:0:0:
211,76,206021,1,0,0:0:0:0:
107,48,206158,2,0,P|52:52|8:16,2,99.0000030212403,0|0|8,0:0|0:0|0:0,0:0:0:0:
182,128,206567,6,0,P|110:184|30:112,1,198.000006042481,4|0,0:0|0:0,0:0:0:0:
107,48,206976,1,8,0:0:0:0:
182,128,207112,2,0,P|254:184|334:112,1,198.000006042481,0|0,0:0|0:0,0:0:0:0:
256,48,207521,1,8,0:0:0:0:
100,220,207658,6,0,P|172:304|256:284,1,198.000006042481,4|0,0:0|0:0,0:0:0:0:
265,192,208067,1,8,0:0:0:0:
364,193,208203,1,0,0:0:0:0:
442,248,208339,1,0,0:0:0:0:
387,326,208476,1,0,0:0:0:0:
309,271,208612,1,8,0:0:0:0:
364,193,208749,6,0,P|398:113|496:140,2,198.000006042481,4|0|0,0:0|0:0|0:0,0:0:0:0:
309,271,209430,6,0,P|213:255|205:191,1,144,0|8,0:0|0:0,0:0:0:0:
56,56,209976,6,0,B|48:104|48:104|-16:156,1,90,4|0,0:0|0:0,0:0:0:0:
152,20,210249,1,8,0:0:0:0:
164,192,210385,2,0,P|240:236|320:160,2,180,0|0|2,0:0|0:0|0:0,0:0:0:0:
208,80,211067,2,0,P|272:43|380:119,1,180,0|8,0:0|0:0,0:0:0:0:
408,204,211476,1,0,0:0:0:0:
256,224,211612,1,0,0:0:0:0:
372,308,211749,1,0,0:0:0:0:
220,328,211885,1,0,0:0:0:0:
256,224,212021,6,0,P|256:136|144:112,1,180,4|0,0:0|0:0,0:0:0:0:
64,84,212430,1,8,0:0:0:0:
32,200,212567,2,0,P|48:288|152:312,2,180,0|0|2,0:0|0:0|0:0,0:0:0:0:
304,312,213521,5,8,0:0:0:0:
364,247,213658,1,0,0:0:0:0:
376,160,213794,2,0,P|328:112|280:112,1,90,8|0,0:0|0:0,0:0:0:0:
219,146,214067,1,8,0:0:0:0:
152,216,214203,2,0,P|64:184|60:72,1,180,4|0,0:0|0:0,0:0:0:0:
240,52,214612,6,0,P|296:91|320:139,1,90,8|0,0:0|0:0,0:0:0:0:
268,210,214885,1,0,0:0:0:0:
304,312,215021,1,0,0:0:0:0:
408,336,215158,1,8,0:0:0:0:
496,272,215294,6,0,P|476:152|320:104,1,270,2|8,0:0|0:0,0:0:0:0:
268,210,215839,1,0,0:0:0:0:
374,232,215976,1,0,0:0:0:0:
303,312,216112,2,0,B|260:312|260:312|216:296,1,90,0|8,0:0|0:0,0:0:0:0:
124,236,216385,6,0,P|144:116|300:68,1,270,4|8,0:0|0:0,0:0:0:0:
388,344,217067,1,0,0:0:0:0:
392,220,217203,1,0,0:0:0:0:
484,324,217339,1,8,0:0:0:0:
488,200,217475,6,0,P|392:112|296:192,1,270,2|8,0:0|0:0,0:0:0:0:
88,152,218158,1,8,0:0:0:0:
4,64,218294,1,0,0:0:0:0:
16,192,218430,2,0,P|72:232|112:232,1,90,8|0,0:0|0:0,0:0:0:0:
216,252,218703,6,0,P|285:198|293:102,1,180,4|0,0:0|0:0,0:0:0:0:
212,40,219112,1,0,0:0:0:0:
120,96,219249,2,0,P|144:184|156:192,1,90,0|0,0:0|0:0,0:0:0:0:
216,252,219521,2,0,P|305:269|318:261,1,90,0|0,0:0|0:0,0:0:0:0:
400,228,219794,6,0,P|442:151|412:60,1,180,0|0,0:0|0:0,0:0:0:0:
368,8,220203,1,0,0:0:0:0:
272,56,220339,1,0,0:0:0:0:
352,132,220476,1,0,0:0:0:0:
272,56,220612,1,0,0:0:0:0:
184,112,220749,5,0,0:0:0:0:
160,136,220817,1,0,0:0:0:0:
144,160,220885,2,0,P|136:208|152:256,1,90,4|0,0:0|0:0,0:0:0:0:
344,332,221158,1,0,0:0:0:0:
248,212,221294,1,0,0:0:0:0:
224,360,221430,1,0,0:0:0:0:
248,212,221567,1,0,0:0:0:0:
344,332,221703,1,0,0:0:0:0:
115,291,221839,5,0,0:0:0:0:
115,291,221976,2,0,P|86:257|74:215,1,90,0|0,0:0|0:0,0:0:0:0:
120,96,222249,2,0,P|153:66|196:54,1,90,0|0,0:0|0:0,0:0:0:0:
316,92,222521,1,0,0:0:0:0:
248,212,222658,1,0,0:0:0:0:
376,156,222794,1,0,0:0:0:0:
489,234,222931,1,0,0:0:0:0:
316,92,223067,6,0,P|252:108|232:152,1,90,4|0,0:0|0:0,0:0:0:0:
168,228,223339,1,0,0:0:0:0:
260,264,223476,2,0,P|320:240|348:192,1,90,0|0,0:0|0:0,0:0:0:0:
280,24,223749,2,0,P|243:70|244:145,1,90,0|0,0:0|0:0,0:0:0:0:
320,328,224021,6,0,P|233:340|168:251,1,180,0|0,0:0|0:0,0:0:0:0:
284,140,224430,1,0,0:0:0:0:
216,48,224567,2,0,P|179:81|176:144,1,90,0|0,0:0|0:0,0:0:0:0:
168,336,224839,2,0,P|216:288|224:240,1,90,0|0,0:0|0:0,0:0:0:0:
92,80,225112,5,0,0:0:0:0:
92,80,225180,1,0,0:0:0:0:
92,80,225249,2,0,P|80:152|96:188,1,90,4|0,0:0|0:0,0:0:0:0:
116,284,225521,1,0,0:0:0:0:
304,320,225658,2,0,P|248:352|184:344,1,90,0|0,0:0|0:0,0:0:0:0:
68,232,225930,2,0,P|156:224|180:248,1,90,0|0,0:0|0:0,0:0:0:0:
344,152,226203,6,0,P|272:96|160:104,1,180,0|0,0:0|0:0,0:0:0:0:
93,127,226612,1,0,0:0:0:0:
256,320,226885,5,8,0:0:0:0:
136,192,227021,1,8,0:0:0:0:
256,64,227158,1,8,0:0:0:0:
376,192,227294,1,4,0:0:0:0:
