osu file format v14

[General]
AudioFilename: Give me Chocolate .mp3
AudioLeadIn: 0
PreviewTime: 52885
Countdown: 0
SampleSet: Soft
StackLeniency: 0.7
Mode: 0
LetterboxInBreaks: 0
EpilepsyWarning: 1
WidescreenStoryboard: 0

[Editor]
DistanceSpacing: 1.1
BeatDivisor: 2
GridSize: 4
TimelineZoom: 1

[Metadata]
Title:Gimme Chocolate!!
TitleUnicode:ギミチョコ!!
Artist:BABYMETAL
ArtistUnicode:BABYMETAL
Creator:Rad-
Version:Easy
Source:
Tags:J-metal idol rock loli kitsune give me ilikecheese defused bomb nwolf
BeatmapID:438314
BeatmapSetID:162368

[Difficulty]
HPDrainRate:1
CircleSize:3
OverallDifficulty:2
ApproachRate:2.5
SliderMultiplier:0.699999999999999
SliderTickRate:1

[Events]
//Background and Video events
0,0,"babymetal.jpg",0,0
Video,0,"gimme.flv"
//Break Periods
2,35630,42658
2,70339,77567
2,114175,121203
2,175067,182294
2,210175,217203
//Storyboard Layer 0 (Background)
//Storyboard Layer 1 (Fail)
//Storyboard Layer 2 (Pass)
//Storyboard Layer 3 (Foreground)
//Storyboard Sound Samples

[TimingPoints]
9249,272.727272727273,4,2,1,90,1,0
52885,-100,4,2,1,95,0,1
69794,-100,4,2,1,90,0,0
96521,-100,4,2,1,95,0,1
113976,-100,4,2,1,90,0,0
140158,-100,4,2,2,75,0,0
166339,-100,4,2,1,90,0,0
192521,-100,4,2,1,95,0,1
209976,-100,4,2,1,90,0,0

[Colours]
Combo1 : 148,148,148
Combo2 : 0,0,193
Combo3 : 255,0,0

[HitObjects]
452,196,9249,6,0,P|428:300|284:340,1,245,4|4,0:0|0:0,0:0:0:0:
196,316,10612,1,0,0:0:0:0:
152,252,10885,2,0,P|188:152|200:148,1,105,0|4,0:0|0:0,0:0:0:0:
288,124,11703,1,0,0:0:0:0:
360,152,11976,2,0,P|400:216|400:248,2,105,0|4|0,0:0|0:0|0:0,0:0:0:0:
316,88,13067,2,0,P|280:56|244:48,1,69.9999999999999
184,36,13612,6,0,P|69:56|37:167,1,245,4|4,0:0|0:0,0:0:0:0:
72,276,14976,1,0,0:0:0:0:
128,328,15249,2,0,P|180:336|244:316,2,105,0|4|0,0:0|0:0|0:0,0:0:0:0:
72,276,16339,2,0,P|76:200|96:168,1,105,0|4,0:0|0:0,0:0:0:0:
168,92,17158,2,0,P|252:52|312:76,1,140,0|0,0:0|0:0,0:0:0:0:
356,108,17976,6,0,P|304:256|224:232,1,245,4|4,0:0|0:0,0:0:0:0:
160,176,19339,1,0,0:0:0:0:
96,220,19612,2,0,P|92:308|112:340,1,105,0|4,0:0|0:0,0:0:0:0:
208,360,20430,1,0,0:0:0:0:
272,320,20703,2,0,P|285:269|274:219,1,105,0|4,0:0|0:0,0:0:0:0:
228,112,21521,2,0,P|152:116|108:164,1,140
84,232,22339,6,0,P|132:312|284:312,1,245,4|4,0:0|0:0,0:0:0:0:
364,248,23703,2,0,P|304:188|204:216,1,175,0|4,0:0|0:0,0:0:0:0:
164,300,24794,2,0,P|52:268|40:208,1,175,0|4,0:0|0:0,0:0:0:0:
36,108,25885,2,0,P|124:60|228:136,1,210,0|4,0:0|0:0,0:0:0:0:
276,248,27249,6,0,P|364:320|372:320,1,105,0|4,0:0|0:0,0:0:0:0:
436,244,28067,1,0,0:0:0:0:
400,176,28339,2,0,P|344:160|280:184,2,105,0|4|0,0:0|0:0|0:0,0:0:0:0:
464,132,29430,2,0,P|453:71|417:44,1,105,0|4,0:0|0:0,0:0:0:0:
305,40,30249,2,0,P|256:49|209:144,1,140
208,198,31067,6,0,P|97:231|42:106,1,245,4|4,0:0|0:0,0:0:0:0:
132,72,32430,1,0,0:0:0:0:
204,40,32703,2,0,P|256:28|324:52,1,105,0|4,0:0|0:0,0:0:0:0:
404,96,33521,1,0,0:0:0:0:
432,168,33794,2,0,P|408:236|356:272,1,105,0|4,0:0|0:0,0:0:0:0:
276,300,34612,1,0,0:0:0:0:
200,300,34885,6,2,P|152:276|132:232,2,69.9999999999999,2|2|4,0:0|0:0|0:0,0:0:0:0:
120,248,44158,6,0,P|88:192|144:112,2,140,4|0|0,0:0|0:0|0:0,0:0:0:0:
244,340,45794,2,0,P|300:332|332:316,1,69.9999999999999
372,280,46339,6,0,P|404:224|348:144,2,140,4|0|0,0:0|0:0|0:0,0:0:0:0:
256,176,47976,1,0,0:0:0:0:
152,64,48521,6,0,P|88:36|16:80,2,140,4|0|0,0:0|0:0|0:0,0:0:0:0:
256,176,50158,1,0,0:0:0:0:
188,312,50703,5,4,0:0:0:0:
96,188,51249,1,0,0:0:0:0:
222,100,51794,2,0,P|262:96|310:108,2,69.9999999999999,0|0|2,0:0|0:0|0:0,0:0:0:0:
148,236,52885,6,0,P|256:288|368:224,1,245,4|4,0:0|0:0,0:0:0:0:
368,120,54249,1,8,0:0:0:0:
308,72,54521,2,0,P|256:56|204:76,1,105,0|4,0:0|0:0,0:0:0:0:
116,136,55339,1,8,0:0:0:0:
76,204,55612,2,0,P|100:288|140:312,1,105,0|4,0:0|0:0,0:0:0:0:
212,352,56430,2,0,P|332:316|340:240,1,210,8|4,0:0|0:0,0:0:0:0:
216,156,57794,6,0,P|168:172|100:152,1,105,0|4,0:0|0:0,0:0:0:0:
80,52,58612,2,0,P|172:20|256:72,1,175,8|4,0:0|0:0,0:0:0:0:
336,112,59703,2,0,P|368:204|316:288,1,175,8|4,0:0|0:0,0:0:0:0:
256,352,60794,1,8,0:0:0:0:
188,316,61067,2,0,P|139:288|131:189,1,140,0|4,0:0|0:0,0:0:0:0:
144,60,62158,6,0,P|200:48|260:72,2,105,0|4|8,0:0|0:0|0:0,0:0:0:0:
92,116,63249,2,0,P|116:200|156:220,1,105,0|4,0:0|0:0,0:0:0:0:
224,272,64067,1,8,0:0:0:0:
288,316,64339,2,0,P|336:332|400:292,1,105,0|4,0:0|0:0,0:0:0:0:
446,214,65158,2,0,P|426:122|294:98,1,210,8|4,0:0|0:0,0:0:0:0:
220,196,66521,6,0,P|164:212|104:184,2,105,0|4|8,0:0|0:0|0:0,0:0:0:0:
284,156,67612,2,0,P|312:105|374:82,2,105,0|4|8,0:0|0:0|0:0,0:0:0:0:
284,232,68703,2,0,P|300:288|272:348,2,105,0|4|8,0:0|0:0|0:0,0:0:0:0:
244,166,69794,5,2,0:0:0:0:
156,152,79067,6,0,P|260:120|360:160,1,210,4|0,0:0|0:0,0:0:0:0:
356,230,80158,2,0,P|252:262|152:222,1,210,0|0,0:0|0:0,0:0:0:0:
96,184,81249,6,0,P|96:88|272:64,2,280,4|0|4,0:0|0:0|0:0,0:0:0:0:
212,284,83976,5,0,0:0:0:0:
296,156,84521,2,0,P|360:156|348:328,1,280,0|4,0:0|0:0,0:0:0:0:
212,284,86158,5,0,0:0:0:0:
124,156,86703,2,0,P|124:92|212:56,1,140,2|2,0:0|0:0,0:0:0:0:
256,32,87521,1,2,0:0:0:0:
330,51,87794,6,0,P|401:131|321:227,2,245,4|0|0,0:0|0:0|0:0,0:0:0:0:
252,51,89976,2,0,P|181:130|261:226,2,245,4|0|0,0:0|0:0|0:0,0:0:0:0:
328,51,92158,5,4,0:0:0:0:
444,152,92703,1,0,0:0:0:0:
328,253,93249,1,0,0:0:0:0:
212,152,93794,1,0,0:0:0:0:
116,32,94339,6,0,P|48:88|72:216,1,210,4|0,0:0|0:0,0:0:0:0:
104,264,95430,2,0,P|180:304|240:292,1,140,0|2,0:0|0:0,0:0:0:0:
344,172,96521,6,0,P|280:52|168:80,1,245,4|4,0:0|0:0,0:0:0:0:
104,144,97885,2,0,P|96:232|184:288,1,175,8|4,0:0|0:0,0:0:0:0:
272,304,98976,1,8,0:0:0:0:
344,276,99249,1,0,0:0:0:0:
400,224,99521,2,0,P|372:148|320:116,2,140,8|8|8,0:0|0:0|0:0,0:0:0:0:
400,300,100885,6,0,P|280:348|200:256,1,245,4|4,0:0|0:0,0:0:0:0:
196,164,102249,2,0,P|116:120|52:172,1,175,8|4,0:0|0:0,0:0:0:0:
32,276,103339,2,0,P|80:344|184:324,1,175,8|4,0:0|0:0,0:0:0:0:
256,268,104430,1,8,0:0:0:0:
304,208,104703,2,0,P|300:148|244:96,1,140,0|4,0:0|0:0,0:0:0:0:
92,60,105794,6,0,P|32:132|32:160,1,105,0|4,0:0|0:0,0:0:0:0:
56,252,106612,1,8,0:0:0:0:
124,288,106885,2,0,P|150:331|212:356,2,105,0|4|8,0:0|0:0|0:0,0:0:0:0:
148,215,107976,2,0,P|135:166|162:104,2,105,0|4|8,0:0|0:0|0:0,0:0:0:0:
204,268,109067,2,0,P|276:292|344:252,1,140,0|4,0:0|0:0,0:0:0:0:
420,140,110158,6,0,P|400:76|344:56,1,105,0|4,0:0|0:0,0:0:0:0:
256,48,110976,2,0,P|168:76|140:156,1,175,8|4,0:0|0:0,0:0:0:0:
144,264,112067,2,0,P|220:300|308:244,1,175,8|4,0:0|0:0,0:0:0:0:
388,196,113158,1,8,0:0:0:0:
452,236,113430,6,0,P|456:296|384:352,1,140,2|4,0:0|0:0,0:0:0:0:
120,188,122703,6,0,P|136:272|300:280,1,245,4|4,0:0|0:0,0:0:0:0:
356,220,124067,2,0,P|360:172|260:80,1,175,0|4,0:0|0:0,0:0:0:0:
176,136,125158,2,0,P|212:252|280:276,1,175,0|4,0:0|0:0,0:0:0:0:
368,272,126249,2,0,P|452:192|412:96,1,210,0|4,0:0|0:0,0:0:0:0:
372,60,127339,5,0,0:0:0:0:
300,32,127612,2,0,P|232:28|196:48,1,105,0|4,0:0|0:0,0:0:0:0:
132,136,128430,1,0,0:0:0:0:
95,204,128703,2,0,P|44:249|32:288,2,105,0|4|0,0:0|0:0|0:0,0:0:0:0:
172,204,129794,2,0,P|223:249|235:288,1,105,0|4,0:0|0:0,0:0:0:0:
334,340,130612,2,0,P|414:280|390:160,1,210,0|4,0:0|0:0,0:0:0:0:
308,60,131976,6,0,P|232:52|196:64,1,105,0|4,0:0|0:0,0:0:0:0:
144,156,132794,1,0,0:0:0:0:
204,204,133067,2,0,P|280:212|316:200,1,105,0|4,0:0|0:0,0:0:0:0:
376,296,133885,1,0,0:0:0:0:
308,332,134158,2,0,P|232:340|196:328,1,105,0|4,0:0|0:0,0:0:0:0:
104,276,134976,2,0,P|80:200|104:148,1,140
148,84,135794,6,0,P|268:32|372:88,1,245,4|4,0:0|0:0,0:0:0:0:
420,180,137158,2,0,P|396:252|300:296,1,175,0|4,0:0|0:0,0:0:0:0:
196,292,138249,2,0,P|118:255|88:176,1,175,0|4,0:0|0:0,0:0:0:0:
188,116,139339,2,0,P|256:100|332:120,1,140
356,184,140158,6,0,P|252:264|152:168,2,280,4|0|4,0:0|0:0|0:0,0:0:0:0:
256,68,142885,1,0,0:0:0:0:
104,88,143430,2,0,B|52:132|52:132|48:264|152:336,1,280,0|4,0:0|0:0,0:0:0:0:
256,228,145067,5,0,0:0:0:0:
380,320,145612,2,0,B|464:264|460:132|460:132|408:88,2,280,0|4|0,0:0|0:0|0:0,0:0:0:0:
236,272,148339,1,0,0:0:0:0:
356,176,148885,6,0,P|252:96|152:192,2,280,4|0|4,0:0|0:0|0:0,0:0:0:0:
256,292,151612,1,0,0:0:0:0:
104,316,152158,2,0,B|72:260|72:260|188:300|244:176,1,280,0|4,0:0|0:0,0:0:0:0:
356,280,153794,5,0,0:0:0:0:
456,164,154339,2,0,P|416:64|240:56,1,280,0|4,0:0|0:0,0:0:0:0:
256,196,155976,1,0,0:0:0:0:
200,340,156521,2,0,P|104:328|88:288,1,140,0|2,0:0|0:0,0:0:0:0:
48,152,157612,6,0,P|152:104|232:164,1,210,4|0,0:0|0:0,0:0:0:0:
256,220,158703,2,0,P|360:268|440:208,1,210
476,156,159794,2,0,P|436:48|337:34,1,210,4|0,2:0|0:0,0:0:0:0:
296,84,160885,2,0,P|325:181|421:208,1,210,0|0,2:0|0:0,0:0:0:0:
256,192,161976,12,2,165249,0:0:0:0:
360,80,166339,6,0,P|260:28|136:104,2,245,4|0|0,0:0|0:0|0:0,0:0:0:0:
392,152,168521,2,0,P|368:268|232:296,2,245,4|0|0,0:0|0:0|0:0,0:0:0:0:
400,76,170703,5,4,0:0:0:0:
256,20,171249,1,0,0:0:0:0:
112,76,171794,1,2,0:0:0:0:
44,216,172339,1,0,0:0:0:0:
160,316,172885,6,0,P|260:352|356:300,1,210,4|0,0:0|0:0,0:0:0:0:
388,244,173976,2,0,P|392:152|344:96,1,140,0|2,0:0|0:0,0:0:0:0:
108,320,183794,5,4,0:0:0:0:
204,200,184339,1,0,0:0:0:0:
300,320,184885,2,0,P|404:284|440:124,2,280
148,296,187612,1,0,0:0:0:0:
88,156,188158,6,0,P|96:64|260:48,1,280,4|0,0:0|0:0,0:0:0:0:
388,124,189794,1,0,0:0:0:0:
444,268,190339,1,0,0:0:0:0:
314,352,190885,1,0,0:0:0:0:
198,352,191294,6,0,P|54:300|94:152,1,315,4|4,0:0|0:0,0:0:0:0:
204,80,193067,6,0,P|276:72|320:88,2,105,0|4|8,0:0|0:0|0:0,0:0:0:0:
148,132,194158,2,0,P|136:192|164:248,2,105,0|4|8,0:0|0:0|0:0,0:0:0:0:
204,80,195249,2,0,P|288:96|316:128,1,105,0|4,0:0|0:0,0:0:0:0:
356,208,196067,1,8,0:0:0:0:
320,276,196339,2,0,P|224:296|180:264,1,140,0|4,0:0|0:0,0:0:0:0:
92,160,197430,6,0,P|152:112|192:116,1,105,0|4,0:0|0:0,0:0:0:0:
256,196,198249,1,8,0:0:0:0:
324,156,198521,2,0,P|336:84|308:40,1,105,0|4,0:0|0:0,0:0:0:0:
212,24,199339,1,8,0:0:0:0:
140,56,199612,2,0,P|124:105|139:154,2,105,0|4|0,0:0|0:0|0:0,0:0:0:0:
212,24,200703,2,0,P|280:80|276:156,1,140,0|4,0:0|0:0,0:0:0:0:
228,272,201794,6,0,P|172:288|112:260,1,105,0|4,0:0|0:0,0:0:0:0:
48,192,202612,1,8,0:0:0:0:
64,116,202885,2,0,P|120:68|172:72,1,105,0|4,0:0|0:0,0:0:0:0:
264,64,203703,1,8,0:0:0:0:
336,88,203976,2,0,P|388:144|392:200,1,105,0|4,0:0|0:0,0:0:0:0:
356,280,204794,2,0,P|260:292|208:188,1,210,8|4,0:0|0:0,0:0:0:0:
288,76,206158,6,0,P|232:32|172:40,1,105,0|4,0:0|0:0,0:0:0:0:
120,112,206976,1,8,0:0:0:0:
140,188,207249,2,0,P|192:244|244:248,2,105,0|4|8,0:0|0:0|0:0,0:0:0:0:
120,112,208339,2,0,P|172:68|236:76,1,105,0|4,0:0|0:0,0:0:0:0:
320,92,209158,1,8,0:0:0:0:
380,136,209430,6,0,P|412:212|376:280,1,140,0|4,0:0|0:0,0:0:0:0:
108,156,218703,6,0,P|256:32|404:160,1,419.999999999999,4|0,0:0|0:0,0:0:0:0:
432,308,220885,2,0,P|292:320|260:200,1,280,4|0,0:0|0:0,0:0:0:0:
404,164,222521,1,0,0:0:0:0:
300,48,223067,6,0,P|156:96|152:224,2,280,4|0|4,0:0|0:0|0:0,0:0:0:0:
404,164,225794,1,0,0:0:0:0:
336,304,226339,1,0,0:0:0:0:
180,304,226885,6,2,P|128:252|124:216,1,105,2|4,0:0|0:0,0:0:0:0:
