osu file format v12

[General]
AudioFilename: 24747_newgrounds_b0unc3.mp3
AudioLeadIn: 0
PreviewTime: 74895
Countdown: 1
SampleSet: Soft
StackLeniency: 0.7
Mode: 0
LetterboxInBreaks: 1
WidescreenStoryboard: 0

[Editor]
Bookmarks: 20426,47661,74895,88512,102129,108937,122554,136171,137873,151490
DistanceSpacing: 0.9
BeatDivisor: 4
GridSize: 8

[Metadata]
Title:Tetris Reborn
TitleUnicode:Tetris Reborn
Artist:B0UNC3
ArtistUnicode:B0UNC3
Creator:Tatsuo
Version:Tatsuo vs Yunacat
Source:Newgrounds
Tags:Trance Yunacat x0r
BeatmapID:99426
BeatmapSetID:30044

[Difficulty]
HPDrainRate:2
CircleSize:3
OverallDifficulty:2
ApproachRate:2
SliderMultiplier:1.2
SliderTickRate:2

[Events]
//Background and Video events
0,0,"tetris-depot-wallpapers_6220_1280x1024.jpg",0,0
//Break Periods
2,102328,107377
//Storyboard Layer 0 (Background)
//Storyboard Layer 1 (Fail)
//Storyboard Layer 2 (Pass)
//Storyboard Layer 3 (Foreground)
Sprite,Foreground,Centre,"sb\yunacat.png",320,240 M,0,5958,6809,353,248 F,0,5958,6809,0,1 S,0,5958,18618,0.8207997 F,0,6809,12767,1 M,0,6809,13618,353,248,311,248 F,0,12767,13618,1,0 M,0,13618,18724,311,248,502,424 F,0,13618,18724,0 S,0,18618,18724,0.8207997,0.6543989 M,0,18724,19575,502,424,501,425 F,0,18724,19575,0,0.1984001 F,0,19575,20426,0.1984001 F,0,20426,47235,0.1984001 F,0,47235,47661,0.1984001,1 F,0,47661,74469,1 F,0,74469,74895,1,0.1984001 F,0,74895,88299,0.1984001,0.2153353 F,0,88299,88512,0.2153353,1 F,0,88512,88724,1,0.2153353 F,0,88724,88937,0.2153353,1 F,0,88937,89150,1,0.2153353 F,0,89150,89363,0.2153353,1 F,0,89363,89575,1,0.2153353 F,0,89575,89788,0.2153353,1 F,0,89788,90001,1,0.2153353 F,0,90001,90214,0.2153353,1 F,0,90214,90426,1,0.2153353 F,0,90426,90639,0.2153353,1 F,0,90639,90852,1,0.2153353 F,0,90852,91065,0.2153353,1 F,0,91065,91278,1,0.2153353 F,0,91278,91490,0.2153353,1 F,0,91490,91703,1,0.2153353 F,0,91703,91916,0.2153353,1 F,0,91916,92129,1,0.2153353 F,0,92129,92341,0.2153353,1 F,0,92341,92554,1,0.2153353 F,0,92554,92767,0.2153353,1 F,0,92767,92980,1,0.2153353 F,0,92980,93192,0.2153353,1 F,0,93192,93405,1,0.2153353 F,0,93405,93618,0.2153353,1 F,0,93618,93831,1,0.2153353 F,0,93831,94043,0.2153353,1 F,0,94043,94256,1,0.2153353 F,0,94256,94469,0.2153353,1 F,0,94469,94682,1,0.2153353 F,0,94682,94895,0.2153353,1 F,0,94895,95107,1,0.2153353 F,0,95107,95320,0.2153353,1 F,0,95320,95533,1,0.2153353 F,0,95533,95746,0.2153353,1 F,0,95746,95958,1,0.2153353 F,0,95958,96171,0.2153353,1 F,0,96171,96384,1,0.2153353 F,0,96384,96597,0.2153353,1 F,0,96597,96809,1,0.2153353 F,0,96809,97022,0.2153353,1 F,0,97022,97235,1,0.2153353 F,0,97235,97448,0.2153353,1 F,0,97448,97661,1,0.2153353 F,0,97661,97873,0.2153353,1 F,0,97873,98086,1,0.2153353 F,0,98086,98299,0.2153353,1 F,0,98299,98512,1,0.2153353 F,0,98512,98724,0.2153353,1 F,0,98724,98937,1,0.2153353 F,0,98937,99150,0.2153353,1 F,0,99150,99363,1,0.2153353 F,0,99363,99575,0.2153353,1 F,0,99575,99788,1,0.2153353 F,0,99788,100001,0.2153353,1 F,0,100001,100214,1,0.2153353 F,0,100214,100426,0.2153353,1 F,0,100426,100639,1,0.2153353 F,0,100639,100852,0.2153353,1 F,0,100852,101065,1,0.2153353 F,0,101065,101278,0.2153353,1 F,0,101278,101490,1,0.2153353 F,0,101490,101703,0.2153353,1 F,0,101703,101916,1,0.2153353 F,0,101916,102129,0.2153353 F,0,102129,108937,0.2153353 F,0,108937,122129,0.2153353 F,0,122129,122554,0.2153353,1 F,0,122554,135746,1 F,0,135746,136171,1,0.2153353 F,0,136171,137873,0.2153353,0.2301055 F,0,137873,151278,0.2301055 F,0,151278,151490,0.2301055,1 F,0,151490,151703,1,0.2301055 F,0,151703,151916,0.2301055,1 F,0,151916,152129,1,0.2301055 F,0,152129,152341,0.2301055,1 F,0,152341,152554,1,0.2301055 F,0,152554,152767,0.2301055,1 F,0,152767,152980,1,0.2301055 F,0,152980,153192,0.2301055,1 F,0,153192,153405,1,0.2301055 F,0,153405,153618,0.2301055,1 F,0,153618,153831,1,0.2301055 F,0,153831,154043,0.2301055,1 F,0,154043,154256,1,0.2301055 F,0,154256,154469,0.2301055,1 F,0,154469,154682,1,0.2301055 F,0,154682,154895,0.2301055,1 F,0,154895,155107,1,0.2301055 F,0,155107,155320,0.2301055,1 F,0,155320,155533,1,0.2301055 F,0,155533,155746,0.2301055,1 F,0,155746,155958,1,0.2301055 F,0,155958,156171,0.2301055,1 F,0,156171,156384,1,0.2301055 F,0,156384,156597,0.2301055,1 F,0,156597,156809,1,0.2301055 F,0,156809,157022,0.2301055,1 F,0,157022,157235,1,0.2301055 F,0,157235,157448,0.2301055,1 F,0,157448,157660,1,0.2301055 F,0,157660,157873,0.2301055,1 F,0,157873,158086,1,0.2301055 F,0,158086,158299,0.2301055,1 F,0,158299,158512,1,0.2301055 F,0,158512,158724,0.2301055,1 F,0,158724,158937,1,0.2301055 F,0,158937,159150,0.2301055,1 F,0,159150,159363,1,0.2301055 F,0,159363,159575,0.2301055,1 F,0,159575,159788,1,0.2301055 F,0,159788,160001,0.2301055,1 F,0,160001,160214,1,0.2301055 F,0,160214,160426,0.2301055,1 F,0,160426,160639,1,0.2301055 F,0,160639,160852,0.2301055,1 F,0,160852,161065,1,0.2301055 F,0,161065,161278,0.2301055,1 F,0,161278,161490,1,0.2301055 F,0,161490,161703,0.2301055,1 F,0,161703,161916,1,0.2301055 F,0,161916,162129,0.2301055,1 F,0,162129,162341,1,0.2301055 F,0,162341,162554,0.2301055,1 F,0,162554,162767,1,0.2301055 F,0,162767,162980,0.2301055,1 F,0,162980,163192,1,0.2301055 F,0,163192,163405,0.2301055,1 F,0,163405,163618,1,0.2301055 F,0,163618,163831,0.2301055,1 F,0,163831,164043,1,0.2301055 F,0,164043,164256,0.2301055,1 F,0,164256,164469,1,0.2301055 F,0,164469,164682,0.2301055,1 F,0,164682,164895,1,0.2301055 F,0,164895,165107,0.2301055 F,0,165107,165533,0.2301055,1 F,0,165533,167660,1,0
//Storyboard Sound Samples
//Background Colour Transformations
3,100,163,162,255

[TimingPoints]
20427,425.531737465428,4,2,1,100,1,0
47767,-100,4,1,1,100,0,0
58299,-100,4,2,1,100,0,0
61278,-100,4,1,1,100,0,0
74895,-100,4,1,1,100,0,1
102129,-100,4,1,1,100,0,0
108937,-100,4,2,1,100,0,0
136171,-100,4,1,1,0,0,0
137873,-100,4,1,1,100,0,1
165107,-100,4,1,1,100,0,0

[Colours]
Combo1 : 145,155,223
Combo2 : 218,133,169
Combo3 : 218,177,112
Combo4 : 145,191,153

[HitObjects]
64,192,20426,2,0,L|64:256|128:256,2,120
160,120,21703,1,8,0:0:0:0:
256,192,22129,1,0,0:0:0:0:
160,264,22554,2,0,B|160:400,2,120,0|0|8,0:0|0:0|0:0,0:0:0:0:
80,176,23831,5,0,0:0:0:0:
200,176,24256,1,0,0:0:0:0:
320,176,24682,1,0,0:0:0:0:
320,296,25107,1,8,0:0:0:0:
216,232,25533,6,0,L|216:112,2,120
96,232,26809,2,0,L|32:232,1,60,8|0,0:0|0:0,0:0:0:0:
96,128,27448,5,0,0:0:0:0:
192,56,27873,2,0,L|264:56,1,60,0|8,0:0|0:0,0:0:0:0:
376,56,28512,1,8,0:0:0:0:
376,176,28937,1,0,0:0:0:0:
376,352,29575,5,8,0:0:0:0:
320,352,29788,2,0,L|248:352,2,60,0|8|8,0:0|0:0|0:0,0:0:0:0:
256,248,30639,5,0,0:0:0:0:
256,128,31065,1,8,0:0:0:0:
256,8,31490,1,0,0:0:0:0:
136,8,31916,1,8,0:0:0:0:
136,128,32341,2,0,L|136:200|208:200,2,120
368,192,34044,5,8,0:0:0:0:
248,192,34469,1,8,0:0:0:0:
248,72,34895,1,0,0:0:0:0:
128,72,35320,1,8,0:0:0:0:
128,192,35746,5,0,0:0:0:0:
128,312,36171,1,0,0:0:0:0:
248,312,36597,1,0,0:0:0:0:
368,312,37022,1,8,0:0:0:0:
472,248,37448,6,0,L|472:184|400:184,2,120
352,248,38724,2,0,L|232:248,2,120,8|0|0,0:0|0:0|0:0,0:0:0:0:
352,128,40001,1,0,0:0:0:0:
232,128,40426,2,0,L|152:128,1,60,8|0,0:0|0:0,0:0:0:0:
64,72,41065,6,0,L|64:208,1,120
64,248,41703,1,8,0:0:0:0:
144,336,42129,2,0,L|208:336|208:280,1,120,8|0,0:0|0:0,0:0:0:0:
256,104,43192,5,8,0:0:0:0:
256,168,43405,2,0,L|256:232,2,60,0|8|8,0:0|0:0|0:0,0:0:0:0:
256,288,44256,5,0,0:0:0:0:
376,288,44682,1,0,0:0:0:0:
376,168,45107,1,0,0:0:0:0:
496,168,45533,1,8,0:0:0:0:
256,192,45958,12,4,47661,0:0:0:0:
88,64,48086,5,0,0:0:0:0:
160,144,48512,1,0,0:0:0:0:
80,216,48937,1,0,0:0:0:0:
152,296,49363,1,0,0:0:0:0:
248,168,50001,6,0,B|344:80|440:208,1,180,0|0,0:0|0:0,0:0:0:0:
408,280,51065,1,0,0:0:0:0:
304,264,51490,2,0,B|248:320|184:264,1,120,0|0,0:0|0:0,0:0:0:0:
192,168,52341,2,0,B|248:120|304:168,1,120
392,216,53192,1,0,0:0:0:0:
392,104,53618,1,0,0:0:0:0:
280,112,54044,6,0,B|216:112,2,60,8|8|0,0:0|0:0|0:0,0:0:0:0:
288,216,54895,2,0,B|256:280|288:344,1,120
176,328,55746,2,0,B|208:264|176:200,1,120
120,64,56809,6,0,B|208:24|296:64,1,180
296,168,57873,1,0,0:0:0:0:
184,168,58299,2,0,B|184:296,1,120
296,288,59150,1,0,0:0:0:0:
392,232,59575,5,0,0:0:0:0:
464,152,60001,1,0,0:0:0:0:
392,72,60426,1,0,0:0:0:0:
80,40,61278,5,4,0:0:0:0:
176,40,61703,2,0,B|256:40|320:40,1,120,8|0,0:0|0:0,0:0:0:0:
232,136,62554,2,0,B|320:136|368:136,1,120,8|0,0:0|0:0,0:0:0:0:
352,256,63405,5,8,0:0:0:0:
232,256,63831,2,0,B|232:176|232:120,1,120,0|8,0:0|0:0,0:0:0:0:
128,120,64682,1,0,0:0:0:0:
144,224,65107,6,0,B|24:224,1,120,8|0,0:0|0:0,0:0:0:0:
24,336,65958,1,8,0:0:0:0:
136,336,66384,5,0,0:0:0:0:
240,336,66809,1,8,0:0:0:0:
352,336,67235,1,0,0:0:0:0:
464,336,67661,2,0,B|464:240|464:184,1,120,8|4,0:0|0:0,0:0:0:0:
472,112,68512,6,0,B|472:8,2,60,8|8|0,0:0|0:0|0:0,0:0:0:0:
368,120,69363,1,8,0:0:0:0:
368,16,69788,1,0,0:0:0:0:
208,48,70426,6,0,B|208:128,1,60,8|0,0:0|0:0,0:0:0:0:
208,216,71065,2,0,B|128:216|104:136,2,120,8|0|8,0:0|0:0|0:0,0:0:0:0:
256,192,72341,12,0,74469,0:0:0:0:
88,72,74895,6,0,L|144:120|72:176|136:224,2,240,0|0|0,0:0|0:0|0:0,0:0:0:0:
200,120,77022,1,8,0:0:0:0:
256,224,77448,1,0,0:0:0:0:
352,152,77873,1,8,0:0:0:0:
424,248,78299,6,0,L|256:248|256:320,2,240
464,136,80426,1,8,0:0:0:0:
360,80,80852,2,0,L|240:80,1,120,8|8,0:0|0:0,0:0:0:0:
144,152,81703,6,0,L|144:216|200:216,1,120,0|8,0:0|0:0,0:0:0:0:
320,216,82554,2,0,L|392:216|392:264,1,120,0|8,0:0|0:0,0:0:0:0:
288,320,83405,2,0,L|168:320,2,120,0|8|0,0:0|0:0|0:0,0:0:0:0:
408,320,84682,1,8,0:0:0:0:
464,216,85107,6,0,L|464:152|408:152,1,120,0|8,0:0|0:0,0:0:0:0:
320,232,85958,1,0,0:0:0:0:
272,272,86171,1,0,0:0:0:0:
224,232,86384,1,8,0:0:0:0:
136,152,86809,5,0,0:0:0:0:
224,72,87235,2,0,L|344:72,1,120,8|8,0:0|0:0,0:0:0:0:
128,72,88512,5,0,0:0:0:0:
72,168,88937,2,0,B|96:224|64:296,1,120,8|0,0:0|0:0,0:0:0:0:
176,288,89788,2,0,B|152:216|192:144,1,120,8|0,0:0|0:0,0:0:0:0:
240,80,90639,5,8,0:0:0:0:
352,80,91065,2,0,B|352:184|352:216,1,120,0|8,0:0|0:0,0:0:0:0:
464,200,91916,1,0,0:0:0:0:
408,296,92341,6,0,B|312:296|272:296,1,120,8|0,0:0|0:0,0:0:0:0:
176,296,93192,2,0,B|96:296,2,60,8|8|0,0:0|0:0|0:0,0:0:0:0:
104,216,94043,5,8,0:0:0:0:
72,112,94469,2,0,B|72:48|128:64|112:64,1,60
144,32,94895,1,8,0:0:0:0:
248,32,95320,5,0,0:0:0:0:
360,32,95746,2,0,B|432:24|480:88,1,120,8|0,0:0|0:0,0:0:0:0:
432,176,96597,2,0,B|352:192|320:112,1,120,8|0,0:0|0:0,0:0:0:0:
296,88,97235,1,0,0:0:0:0:
184,88,97661,6,0,B|128:144|248:176|128:232,1,120,8|0,0:0|0:0,0:0:0:0:
120,200,98299,1,8,0:0:0:0:
64,200,98512,2,0,B|24:184|64:96,1,60
112,64,99150,6,0,B|184:32|256:80,1,120,8|0,0:0|0:0,0:0:0:0:
232,160,100001,2,0,B|296:200|352:160|352:160,1,120,8|0,0:0|0:0,0:0:0:0:
352,56,100852,5,8,0:0:0:0:
464,56,101278,1,0,0:0:0:0:
464,160,101703,2,0,B|464:240,2,60,8|8|4,0:0|0:0|0:0,0:0:0:0:
464,48,108937,6,0,L|464:112|392:112,1,120,0|8,0:0|0:0,0:0:0:0:
288,112,109788,2,0,L|160:112,1,120,0|8,0:0|0:0,0:0:0:0:
168,232,110639,1,0,0:0:0:0:
288,232,111065,2,0,L|360:232,2,60,8|0|0,0:0|0:0|0:0,0:0:0:0:
168,232,111916,1,8,0:0:0:0:
48,232,112341,6,0,L|48:104,1,120,0|8,0:0|0:0,0:0:0:0:
112,112,112980,1,0,0:0:0:0:
168,112,113192,1,0,0:0:0:0:
288,112,113618,1,8,0:0:0:0:
288,232,114043,6,0,L|232:232|232:232|168:232,1,120,0|8,0:0|0:0,0:0:0:0:
168,352,114895,2,0,L|288:352,1,120,0|8,0:0|0:0,0:0:0:0:
456,288,115958,2,0,L|456:152,1,120
392,168,116597,1,8,0:0:0:0:
272,168,117022,5,8,0:0:0:0:
152,168,117448,2,0,L|64:168|64:272,1,180,0|0,0:0|0:0,0:0:0:0:
64,320,118299,1,8,0:0:0:0:
184,320,118724,1,8,0:0:0:0:
224,208,119150,6,0,L|224:80,2,120,0|8|0,0:0|0:0|0:0,0:0:0:0:
344,208,120426,2,0,L|344:336,2,120,8|0|0,0:0|0:0|0:0,0:0:0:0:
344,88,121703,1,0,0:0:0:0:
128,80,122554,5,0,0:0:0:0:
128,192,122980,2,0,B|136:240|184:248,1,60,8|0,0:0|0:0,0:0:0:0:
224,152,123618,2,0,B|256:120|224:80|224:80,1,60,0|8,0:0|0:0,0:0:0:0:
336,56,124256,6,0,B|408:72|408:176,1,120,0|8,0:0|0:0,0:0:0:0:
400,248,125107,2,0,B|376:320|264:312,1,120,0|8,0:0|0:0,0:0:0:0:
280,208,125958,2,0,B|264:136|184:120,1,120,0|8,0:0|0:0,0:0:0:0:
96,128,126809,2,0,B|32:152|16:216,1,120,0|8,0:0|0:0,0:0:0:0:
64,320,127660,2,0,B|160:320|200:320,1,120
296,320,128512,1,0,0:0:0:0:
376,248,128937,6,0,B|416:240|392:176,1,60,8|0,0:0|0:0,0:0:0:0:
384,96,129575,2,0,B|352:32|272:32,1,120
232,32,130214,2,0,B|152:32|120:112,1,120,0|8,0:0|0:0,0:0:0:0:
64,168,131065,6,0,B|64:288,1,120,0|8,0:0|0:0,0:0:0:0:
176,288,131916,1,0,0:0:0:0:
216,256,132129,2,0,B|240:192|288:232,1,60,0|8,0:0|0:0,0:0:0:0:
336,296,132767,6,0,B|368:240|336:152,1,120,0|8,0:0|0:0,0:0:0:0:
336,72,133618,1,0,0:0:0:0:
232,72,134043,1,8,0:0:0:0:
256,192,134469,12,0,136171,0:0:0:0:
80,88,137873,5,0,0:0:0:0:
176,160,138299,1,0,0:0:0:0:
80,232,138724,2,0,L|136:296,2,60,0|0|8,0:0|0:0|0:0,0:0:0:0:
176,160,139575,1,0,0:0:0:0:
264,248,140001,2,0,L|311:289|363:254,2,120,0|0|8,0:0|0:0|0:0,0:0:0:0:
312,136,141278,5,0,0:0:0:0:
192,136,141703,2,0,L|192:272,1,120
128,256,142341,1,0,0:0:0:0:
64,256,142554,1,8,0:0:0:0:
72,136,142980,6,0,L|72:16,2,120
192,136,144256,1,8,0:0:0:0:
312,136,144682,6,0,L|448:136,2,120
312,200,145746,1,0,0:0:0:0:
312,256,145958,2,0,L|176:256,1,120,8|0,0:0|0:0,0:0:0:0:
192,72,147022,2,0,L|192:152,1,60,8|0,0:0|0:0,0:0:0:0:
72,136,147660,1,8,0:0:0:0:
72,256,148086,6,0,L|72:384,2,120
192,256,149363,2,0,L|192:128,1,120,8|0,0:0|0:0,0:0:0:0:
312,136,150214,1,0,0:0:0:0:
312,256,150639,1,0,0:0:0:0:
224,200,151065,5,8,0:0:0:0:
168,200,151278,1,8,0:0:0:0:
112,200,151490,1,0,0:0:0:0:
88,96,151916,6,0,B|128:48|232:56,1,120,8|0,0:0|0:0,0:0:0:0:
248,56,152554,2,0,B|320:48|376:128,1,120,8|8,0:0|0:0,0:0:0:0:
376,152,153192,1,0,0:0:0:0:
288,216,153618,6,0,B|232:248|136:200,1,120,8|0,0:0|0:0,0:0:0:0:
176,104,154469,2,0,B|232:136|296:104,1,120,8|0,0:0|0:0,0:0:0:0:
400,96,155320,6,0,B|416:168|384:224,1,120,8|0,0:0|0:0,0:0:0:0:
304,144,156171,2,0,B|248:104|152:160,1,120,8|0,0:0|0:0,0:0:0:0:
104,208,157022,1,8,0:0:0:0:
192,272,157448,2,0,B|280:272,2,60,0|0|8,0:0|0:0|0:0,0:0:0:0:
192,160,158299,5,0,0:0:0:0:
296,160,158724,1,8,0:0:0:0:
304,48,159150,2,0,B|296:0|240:8,1,60
208,8,159575,2,0,B|128:16|72:64|64:136,1,180,8|0,0:0|0:0,0:0:0:0:
96,216,160639,6,0,B|128:272|224:272,1,120,0|8,0:0|0:0,0:0:0:0:
248,272,161278,2,0,B|320:264|368:176,1,120,8|0,0:0|0:0,0:0:0:0:
248,160,162129,1,8,0:0:0:0:
248,56,162554,6,0,B|280:24|328:56,1,60
360,56,162980,1,8,0:0:0:0:
360,160,163405,5,0,0:0:0:0:
360,272,163831,1,8,0:0:0:0:
248,272,164256,1,0,0:0:0:0:
248,160,164682,2,0,B|248:48|248:136,2,60,8|8|4,0:0|0:0|0:0,0:0:0:0:
