osu file format v7

[General]
AudioFilename: Paradise on Earth.mp3
AudioLeadIn: 0
PreviewTime: 95190
Countdown: 1
SampleSet: Normal
StackLeniency: 0.7
Mode: 0
LetterboxInBreaks: 1

[Editor]
DistanceSpacing: 1.5
BeatDivisor: 4
GridSize: 8

[Metadata]
Title:Paradise on Earth
Artist:B0UNC3
Creator:lthefuryl
Version:Champion
Source:
Tags:trance techno

[Difficulty]
HPDrainRate:8
CircleSize:4
OverallDifficulty:8
SliderMultiplier:1.4
SliderTickRate:1

[Events]
//Background and Video events
0,0,"Fantasy2.jpg"
//Break Periods
2,108817,111224
2,125600,141014
//Storyboard Layer 0 (Background)
//Storyboard Layer 1 (Fail)
//Storyboard Layer 2 (Pass)
//Storyboard Layer 3 (Foreground)
//Storyboard Sound Samples
//Background Colour Transformations
3,100,163,162,255

[TimingPoints]
28058,419.58041958042,4,1,0,70,1,0
95190,-100,4,1,2,70,0,1
108722,-100,4,2,0,70,0,0
141764,-100,4,1,0,70,0,0
169037,-100,4,1,2,70,0,1
182568,-100,4,1,2,70,0,0

[Colours]
Combo1 : 0,64,128
Combo2 : 193,149,253
Combo3 : 128,128,255
Combo4 : 64,100,247

[HitObjects]
160,120,28058,1,0
352,208,28477,2,0,B|384:240|352:280,1,70
152,240,29106,1,0
240,176,29316,1,0
144,128,29526,1,0
216,56,29736,2,0,B|256:32|304:64,1,70,8|0
336,144,30155,2,0,B|336:192|400:192,1,70
216,296,30785,5,0
120,248,30995,1,0
120,248,31204,1,0
200,184,31414,1,8
200,184,31624,2,0,B|200:136|144:136,1,70
158,136,32044,1,0
360,64,32463,5,0
376,112,32568,1,0
344,152,32673,1,0
256,96,32883,1,0
160,136,33092,1,8
224,216,33302,1,0
120,248,33512,1,0
200,320,33722,1,0
376,208,34141,5,0
376,208,34246,1,0
376,208,34351,1,0
376,208,34561,1,0
304,280,34771,1,8
136,152,35190,2,0,B|144:112|184:104,1,70
392,80,35820,6,0,B|344:80|320:136,1,70
328,216,36239,1,0
328,224,36344,1,0
328,232,36449,1,8
256,312,36659,1,8
176,240,36869,1,8
72,216,37078,1,8
200,48,37498,6,0,B|240:56|248:104,1,70
152,136,37918,2,0,B|160:176|208:184,1,70
304,184,38337,1,8
328,288,38547,1,0
320,288,38652,1,0
312,288,38757,1,8
120,208,39176,5,0
120,208,39281,1,0
120,208,39386,1,0
152,312,39596,1,0
224,240,39806,1,0
192,144,40016,2,0,B|216:64,1,70,8|0
304,128,40435,2,0,B|368:80,1,70,8|0
360,86,40750,1,0
360,86,40855,1,0
360,86,40960,1,0
360,86,41064,1,0
360,86,41169,1,0
360,86,41274,1,0
392,184,41484,5,8
392,184,41694,1,0
328,264,41904,1,0
416,320,42113,2,0,B|392:352|344:344,1,70,0|8
256,296,42533,1,0
160,328,42743,2,0,B|128:304|144:256,1,70
224,200,43162,1,8
136,136,43372,1,0
136,128,43477,1,0
136,120,43582,1,0
232,72,43792,5,0
312,144,44002,1,8
216,56,44211,1,0
328,160,44421,1,0
200,40,44631,1,0
344,176,44841,1,8
256,232,45051,2,0,B|248:280|288:320,1,70
376,304,45470,1,0
424,280,45575,1,0
424,224,45680,1,8
408,128,45890,5,0
440,88,45995,1,0
408,48,46099,1,0
304,80,46309,1,0
200,56,46519,1,8
152,152,46729,1,0
400,312,47778,5,0
304,272,47988,1,0
208,320,48197,2,0,B|168:288|120:336|80:272,1,140,4|0
128,176,48827,1,0
128,176,49037,1,0
224,216,49246,1,0
296,144,49456,1,0
296,136,49561,1,0
296,128,49666,1,0
216,64,49876,1,4
112,48,50085,1,0
152,144,50295,6,0,B|72:176,1,70
168,232,50715,2,0,B|192:304,1,70
296,272,51135,1,0
296,272,51239,1,0
296,272,51344,1,0
392,312,51554,1,4
368,208,51764,1,0
352,160,51869,1,0
296,152,51974,1,0
224,80,52183,2,0,B|176:56|144:112,1,70
216,176,52603,1,0
208,184,52708,1,0
200,192,52813,1,0
96,176,53023,2,0,B|72:216|104:256,1,70,0|4
360,312,54491,6,0,B|400:296|384:240,1,70
280,272,54911,2,0,B|248:232|320:200|288:136,1,140,8|0
289,139,55540,1,0
192,184,55750,1,8
184,176,55855,1,0
176,168,55960,1,0
208,72,56169,2,0,B|176:40|120:80,1,70
80,144,56589,1,8
120,240,56799,1,0
128,240,56904,1,0
136,240,57009,1,0
144,240,57113,1,0
152,240,57218,1,0
224,320,57428,5,8
224,320,57638,1,0
280,232,57848,2,0,B|296:272|352:264,1,70
352,160,58267,1,8
456,144,58477,1,0
440,96,58582,1,0
392,72,58687,1,0
72,312,59106,5,8
160,256,59316,1,0
144,208,59421,1,0
176,168,59526,1,0
264,224,59736,1,0
312,128,59946,1,8
384,312,61204,5,0
296,256,61414,2,0,B|344:256|352:200,1,70,0|8
256,168,61834,2,0,B|224:144|240:96,1,70
344,88,62253,1,0
248,40,62463,1,8
240,40,62568,1,0
232,40,62673,1,0
144,96,62883,1,0
216,168,63092,2,0,B|240:208|200:240,1,70,0|8
112,192,63512,1,0
72,232,63617,1,0
112,264,63722,1,0
208,312,63932,2,0,B|240:336|288:304,1,70,0|8
272,208,64351,6,0,B|288:168|352:168,1,70
352,280,64771,2,0,B|400:280|416:224,1,70,0|8
432,144,65190,1,0
432,144,65295,1,0
432,144,65400,1,0
344,88,65610,1,0
344,192,65820,1,8
256,144,66030,1,0
256,144,66134,1,0
256,144,66239,1,0
168,80,66449,1,0
88,144,66659,2,0,B|152:184,1,70,8|0
56,240,67078,2,0,B|80:320,1,70
176,272,67498,5,8
176,272,67603,1,0
176,272,67708,1,0
272,312,67918,1,0
336,232,68127,1,0
296,136,68337,1,8
400,120,68547,1,0
360,24,68757,1,0
152,64,69176,5,8
144,72,69281,1,0
136,80,69386,1,0
184,176,69596,1,8
88,216,69806,1,0
168,280,70016,1,8
272,256,70225,1,0
280,256,70330,1,0
288,256,70435,1,8
296,256,70540,1,0
304,256,70645,1,0
280,152,70855,2,0,B|240:136|232:88,1,70,8|0
336,64,71274,5,8
376,96,71379,1,0
384,152,71484,1,0
280,152,71694,2,0,B|248:192|176:192,1,105,8|0
136,192,72113,1,8
176,96,72323,2,0,B|136:80|88:112,1,70,0|8
56,192,72743,1,0
96,288,72953,1,8
192,256,73162,1,0
280,312,73372,1,8
280,312,73477,1,0
280,312,73582,5,0
320,216,73792,1,8
320,208,73897,1,0
320,200,74002,1,0
376,112,74211,1,8
336,80,74316,1,0
288,96,74421,1,0
208,168,74631,1,8
144,88,74841,5,0
144,88,74946,1,0
144,88,75051,1,8
96,288,75470,1,8
304,320,75890,1,8
336,280,75995,1,0
304,240,76099,1,0
400,192,76309,2,0,B|424:160|392:128,1,70,8|0
288,152,76729,1,8
240,64,76939,5,0
232,72,77044,1,0
224,80,77148,1,8
216,88,77253,1,0
208,96,77358,1,0
144,176,77568,1,8
208,256,77778,1,0
216,248,77883,1,0
224,240,77988,1,8
232,232,78092,1,0
240,224,78197,1,0
248,216,78302,1,0
256,208,78407,2,0,B|304:176|376:216,1,105,8|0
356,206,78827,1,8
368,312,79037,6,0,B|472:304,1,70,0|8
464,216,79456,1,0
416,128,79666,2,0,B|352:88,1,70,8|0
256,128,80085,1,8
224,88,80190,1,0
240,40,80295,1,0
136,56,80505,2,0,B|120:104|144:128,1,70,8|0
184,216,80925,1,8
136,240,81030,1,0
88,216,81134,1,0
48,248,81239,1,0
72,296,81344,1,8
168,336,81554,1,0
264,296,81764,5,8
272,288,81869,1,0
280,280,81974,1,0
288,272,82078,1,0
296,264,82183,2,0,B|320:224|384:240,1,70,8|0
408,144,82603,1,8
384,96,82708,1,0
328,104,82813,1,0
240,160,83023,1,8
184,72,83232,2,0,B|136:56|112:104,1,70,0|8
128,192,83652,1,0
96,232,83757,2,0,B|48:208,2,35,0|8|0
120,280,84071,1,0
216,248,84281,1,8
288,328,84491,6,0,B|320:296,1,35
312,303,84701,2,0,B|368:296,1,35,8|0
347,298,84911,2,0,B|384:280,1,35,0|0
424,256,85120,1,8
400,152,85330,1,0
304,200,85540,1,8
304,96,85750,2,0,B|272:24,1,70,0|8
232,128,86169,2,0,B|160:88,1,70,0|8
120,184,86589,1,0
192,264,86799,5,8
184,272,86904,1,0
176,280,87009,1,0
104,352,87218,1,8
112,344,87323,1,0
120,336,87428,1,0
224,344,87638,1,8
312,288,87848,2,0,B|320:240|248:232,1,70,0|8
200,168,88267,2,0,B|168:136|200:96,1,70,0|8
296,64,88687,6,0,B|344:80|344:128,1,70,0|8
400,200,89106,1,0
400,200,89211,1,0
400,200,89316,1,8
296,224,89526,1,0
208,176,89736,1,8
208,176,89946,1,0
168,272,90155,1,8
96,176,90365,2,0,B|136:216,1,35
96,176,90575,2,0,B|64:208,1,35,8|0
96,176,90785,2,0,B|96:136,1,35
96,88,90995,1,8
192,136,91204,1,0
256,64,91414,6,0,B|304:64,1,35,8|0
320,112,91624,1,0
304,160,91729,1,8
336,200,91834,2,0,B|368:224|416:200,1,70
456,216,92148,1,8
456,272,92253,1,0
360,304,92463,2,0,B|328:336|272:312,1,70,0|8
208,256,92883,1,0
192,208,92988,1,0
144,192,93092,1,8
104,288,93302,1,0
200,328,93512,6,0,B|152:352,2,35,8|0|0
456,240,93932,2,0,B|480:280,2,35,8|0|0
304,64,94351,2,0,B|344:40,2,35,8|0|0
56,144,94771,2,0,B|32:104,2,35,8|0|0
256,192,95190,5,8
256,192,95610,1,2
328,272,95820,1,0
328,272,96030,1,2
368,240,96134,1,0
408,200,96239,1,0
408,200,96449,2,0,B|424:160|384:128,1,70,2|0
393,136,96869,1,2
304,88,97078,1,0
296,88,97183,1,0
288,88,97288,1,2
280,88,97393,1,0
272,88,97498,1,0
200,168,97708,1,2
112,104,97918,5,0
80,208,98127,1,2
72,200,98232,1,0
64,192,98337,1,0
160,240,98547,1,2
72,320,98757,6,0,B|152:320,1,70,0|2
440,320,99176,2,0,B|440:240,1,70,0|2
440,56,99596,2,0,B|352:56,1,70,0|2
72,56,100016,2,0,B|72:136,1,70,0|2
72,126,100330,1,0
72,126,100435,1,0
152,192,100645,2,0,B|184:152,2,35,2|0|0
64,248,101064,2,0,B|24:224,2,35,2|0|0
160,280,101484,1,2
168,280,101589,1,0
176,280,101694,1,0
184,280,101799,1,0
192,280,101904,1,2
288,320,102113,5,0
416,120,102323,1,2
144,152,102533,1,0
232,88,102743,1,2
232,88,102848,1,0
312,160,103058,1,0
312,160,103162,1,2
400,224,103372,1,0
416,120,103582,1,2
328,48,103792,5,0
328,48,103897,1,0
328,48,104002,1,2
232,88,104211,1,0
136,56,104421,2,0,B|112:96,1,35,2|0
176,176,104736,2,0,B|128:176,1,35,0|2
184,272,105051,1,0
232,296,105155,1,0
264,256,105260,1,2
312,184,105470,2,0,B|272:128,2,35,0|0|2
392,248,105890,1,0
432,152,106099,1,2
312,48,106414,5,0
304,48,106519,1,2
232,120,106729,1,0
128,104,106939,1,2
128,160,107044,1,0
128,216,107148,1,0
272,216,107358,1,2
272,160,107463,1,0
272,104,107568,1,0
416,104,107778,1,2
416,160,107883,1,0
416,216,107988,1,0
416,320,108197,5,2
128,320,108407,1,0
272,104,108617,1,4
312,48,111974,5,2
360,72,112183,1,0
352,128,112393,1,0
400,152,112603,1,0
416,256,112813,5,0
392,304,113023,1,0
344,288,113232,1,0
304,320,113442,1,0
168,336,113652,5,2
152,288,113862,1,0
96,280,114071,1,0
104,224,114281,1,0
48,128,114491,5,0
72,80,114701,1,0
120,88,114911,1,0
152,48,115120,1,0
320,48,115330,6,0,B|368:40|400:80,1,70,2|0
336,160,115750,2,0,B|336:200|384:216,1,70
432,296,116169,2,0,B|400:320|352:312,1,70
264,304,116589,2,0,B|256:264|200:256,1,70
200,152,117009,6,0,B|176:120|208:72,1,70,2|0
280,152,117428,2,0,B|304:120|272:80,1,70
168,88,117848,2,0,B|144:120|176:160,1,70
304,88,118267,2,0,B|336:120|304:160,1,70
400,56,118687,6,0,B|448:56|448:112,1,70,2|0
400,328,119106,2,0,B|448:328|448:272,1,70
112,328,119526,2,0,B|64:328|64:280,1,70
120,56,119946,2,0,B|64:56|64:112,1,70
64,192,120365,6,0,B|144:192,1,70,2|0
256,328,120785,2,0,B|256:248,1,70
456,192,121204,2,0,B|368:192,1,70
256,56,121624,2,0,B|256:136,1,70
344,184,122044,5,2
264,248,122253,1,0
264,248,122463,1,0
160,232,122673,1,0
80,304,122883,1,0
56,200,123092,1,0
64,192,123197,1,0
72,184,123302,1,0
112,88,123512,1,0
200,144,123722,6,0,B|200:104,1,35,2|0
200,144,123932,2,0,B|160:184,1,35,2|0
200,144,124141,2,0,B|240:184,1,35,2|0
312,112,124456,2,2,B|320:72,3,35
408,128,124981,1,2
408,128,125190,1,2
408,128,125295,1,2
408,128,125400,1,2
152,104,141764,5,0
104,192,141974,1,0
112,200,142078,1,0
120,208,142183,2,0,B|144:256|208:216|256:256,1,140,0|8
352,280,142813,1,0
400,184,143023,1,0
400,184,143127,1,0
400,184,143232,1,0
312,120,143442,1,8
312,120,143652,1,0
312,120,143757,1,0
312,120,143862,1,0
112,64,144281,5,8
400,320,144701,1,0
264,160,145120,5,8
120,256,145330,1,0
152,296,145435,1,0
200,312,145540,1,0
296,272,145750,2,0,B|368:256|392:176,1,140
384,128,146274,1,0
344,96,146379,1,8
256,160,146589,1,0
256,160,146799,1,8
184,88,147009,1,0
176,88,147113,1,0
168,88,147218,1,0
96,168,147428,2,0,B|128:216|96:280|168:296,1,140
208,288,147953,1,8
264,288,148058,2,0,B|328:325|408:301,1,140,0|8
360,208,148687,5,0
336,160,148792,1,0
280,160,148897,2,0,B|232:168|216:112,1,70
216,80,149211,1,0
264,56,149316,2,0,B|304:24|352:72,1,70,8|0
424,96,149736,1,0
440,200,149946,1,0
432,208,150051,1,0
424,216,150155,1,8
320,192,150365,1,0
248,272,150575,1,0
296,288,150680,1,0
344,304,150785,1,0
248,344,150995,6,0,B|168:336|120:272,1,140,8|0
160,72,151834,5,8
168,72,151939,1,0
176,72,152044,1,0
184,72,152148,1,0
192,72,152253,1,0
272,136,152463,2,0,B|360:104|400:192,1,140
408,224,152988,1,0
376,264,153092,1,8
168,304,153512,2,0,B|136:272,1,35,8|0
184,248,153722,2,0,B|216:216,1,35
160,200,153932,2,0,B|128:168,1,35
168,136,154141,1,0
368,88,154561,5,0
320,64,154666,1,0
296,112,154771,1,8
392,296,155190,1,8
296,256,155400,1,0
248,280,155505,1,0
256,336,155610,1,0
152,312,155820,5,0
152,312,156030,1,8
88,232,156239,2,0,B|64:200|96:160,1,70
192,200,156659,1,0
296,200,156869,2,0,B|320:232|368:208,1,70,8|0
400,176,157183,1,0
376,128,157288,1,0
288,72,157498,1,0
280,80,157603,1,0
272,88,157708,1,8
264,96,157813,1,0
256,104,157918,1,0
152,120,158127,1,0
152,224,158337,5,0
160,224,158442,1,0
168,224,158547,1,8
176,224,158652,1,0
184,224,158757,1,0
192,224,158862,1,0
200,224,158967,2,0,B|272:216|312:288,1,105
288,312,159386,1,8
184,336,159596,1,0
88,304,159806,2,0,B|56:264|72:192,1,105
69,203,160225,1,8
160,152,160435,1,0
256,200,160645,5,0
256,200,160750,1,0
256,200,160855,1,0
360,184,161064,1,8
384,232,161169,1,0
368,280,161274,1,0
368,280,161484,1,0
384,232,161589,1,0
360,184,161694,1,0
256,200,161904,1,8
192,112,162113,6,0,B|168:80,2,35
128,200,162533,2,0,B|64:184,2,35,0|0|8
160,296,162953,2,0,B|128:312,6,35,0|0|0|0|0|0|8
264,312,163792,2,0,B|264:352,2,35,0|0|0
360,264,164211,1,0
288,192,164421,1,8
256,152,164526,1,0
288,112,164631,1,0
392,104,164841,2,0,B|424:136|408:176,1,70,0|0
360,264,165260,5,8
264,296,165470,1,0
168,248,165680,1,0
72,280,165890,2,0,B|32:256|64:200,1,70,0|8
136,152,166309,2,0,B|96:128|128:72,1,70,0|0
224,112,166729,1,0
264,208,166939,1,8
168,248,167148,1,0
264,208,167358,6,0,B|312:200|328:256,1,70,0|0
272,328,167778,1,8
272,328,167883,1,0
272,328,167988,1,0
376,328,168197,1,0
392,280,168302,1,0
368,232,168407,1,0
320,136,168617,1,8
312,136,168722,1,0
304,136,168827,1,0
296,136,168932,1,0
288,136,169037,1,2
216,56,169246,5,0
320,56,169456,1,2
120,112,169875,1,0
120,112,169980,1,0
120,112,170085,1,0
200,176,170295,2,0,B|192:216|144:224,1,70
48,240,170715,1,2
128,304,170924,1,0
176,328,171029,1,0
224,304,171134,1,2
272,328,171239,1,0
320,304,171344,1,0
368,208,171554,5,0
144,208,171764,1,0
192,120,171973,5,0
200,112,172078,1,0
208,104,172183,1,0
304,144,172393,1,2
440,72,172708,1,0
440,72,172813,1,2
400,168,173023,1,0
400,168,173232,2,0,B|424:240,1,70
320,240,173652,2,0,B|248:280,1,70
176,208,174071,1,2
128,304,174281,5,0
48,232,174491,1,2
48,232,174596,1,0
48,232,174701,1,0
88,136,174910,1,0
136,112,175015,1,0
144,56,175120,1,0
248,80,175330,1,0
312,160,175540,5,0
360,136,175645,1,0
400,168,175750,2,0,B|440:176|440:224,1,70,2|0
416,264,176064,1,0
392,312,176169,2,0,B|360:336|296:288|248:328,1,140,2|0
224,280,176694,1,0
176,304,176798,1,0
160,200,177008,2,0,B|184:168|152:136,1,70
56,176,177428,2,0,B|32:136|64:96,1,70,2|0
96,80,177743,5,0
144,56,177848,1,2
184,88,177953,1,0
224,56,178058,1,0
264,176,178267,1,0
352,120,178477,1,0
352,128,178582,1,0
352,136,178687,1,0
352,144,178791,1,0
352,152,178896,1,0
352,160,179001,1,0
352,168,179106,1,2
248,288,179421,1,0
200,272,179526,1,2
176,168,179736,6,0,B|280:160,1,70
208,64,180155,1,0
112,104,180365,2,0,B|56:168,1,70
160,200,180785,2,0,B|112:168,2,35,2|0|0
136,344,181204,2,0,B|216:296,1,70,2|0
176,208,181624,1,0
184,208,181729,1,0
192,208,181833,1,0
200,208,181938,1,0
208,208,182043,1,0
216,208,182148,1,0
224,208,182253,1,2
232,208,182358,1,2
240,208,182463,1,6
