osu file format v7

[General]
AudioFilename: Paradise on Earth.mp3
AudioLeadIn: 0
PreviewTime: 95190
Countdown: 1
SampleSet: Normal
StackLeniency: 0.7
Mode: 0
LetterboxInBreaks: 1

[Editor]
Bookmarks: 68757,71064,95610
DistanceSpacing: 1
BeatDivisor: 2
GridSize: 8

[Metadata]
Title:Paradise on Earth
Artist:B0UNC3
Creator:lthefuryl
Version:Beginner
Source:
Tags:trance techno

[Difficulty]
HPDrainRate:2
CircleSize:3
OverallDifficulty:2
SliderMultiplier:1
SliderTickRate:1

[Events]
//Background and Video events
0,0,"Fantasy1.jpg"
//Break Periods
//Storyboard Layer 0 (Background)
//Storyboard Layer 1 (Fail)
//Storyboard Layer 2 (Pass)
//Storyboard Layer 3 (Foreground)
//Storyboard Sound Samples
//Background Colour Transformations
3,100,163,162,255

[TimingPoints]
28058,419.58041958042,4,1,0,70,1,0
64561,-200,4,1,0,70,0,0
64770,-100,4,1,0,70,0,0
68337,-100,4,2,0,90,0,0
95190,-100,4,1,0,70,0,1
108617,-100,4,1,0,70,0,0

[Colours]
Combo1 : 0,56,113
Combo2 : 0,105,155
Combo3 : 74,74,255
Combo4 : 0,155,230

[HitObjects]
360,192,28058,1,0
312,104,28477,1,0
208,104,28897,1,0
160,192,29316,1,0
208,280,29736,1,2
312,280,30155,1,0
408,104,30995,5,0
408,104,31414,1,2
192,248,32673,5,0
240,168,33092,1,4
136,168,33512,1,0
96,64,34771,6,0,B|208:64,1,100
168,264,36030,1,0
72,264,36449,2,0,B|40:216|72:128,1,100,8|0
328,96,37708,5,0
232,96,38127,2,0,B|200:144|240:208,1,100,8|0
136,160,38967,6,0,B|88:192|104:264,1,100
192,296,39806,2,0,B|248:264|232:192,1,100
328,168,40645,1,0
104,72,41484,6,0,B|152:120,1,50
192,104,41904,2,0,B|240:64|288:104,1,100
56,320,43162,5,8
112,280,43372,2,0,B|144:248|80:224|120:176,1,100
208,224,44211,2,0,B|240:256|272:192|320:240,1,100
352,224,44841,2,0,B|352:152,1,50,8|0
168,88,45890,5,0
256,144,46309,2,0,B|296:192|256:248,1,100
112,296,47778,5,0
208,296,48197,2,0,B|272:320|320:264,1,100
288,184,49037,1,0
208,128,49456,1,0
120,176,49876,1,4
408,104,51135,5,0
272,104,51554,2,0,B|256:152|328:144|312:208,1,100
232,240,52393,1,0
312,296,52813,1,0
312,296,53232,1,0
352,80,54491,5,0
296,168,54911,1,0
200,128,55330,1,0
136,208,55750,2,0,B|136:272|200:272,1,100
296,272,56589,1,8
392,72,57848,6,0,B|360:120|288:120,1,100
208,144,58687,1,0
256,232,59106,1,8
208,320,59526,2,0,B|232:352|264:288|312:320,1,100,0|8
120,96,61204,5,0
200,152,61624,2,0,B|256:184|304:144,1,100
368,224,62463,1,0
296,288,62883,2,0,B|248:320|192:288,1,100,0|4
128,104,64561,6,0,B|128:72,2,25
152,200,65400,1,0
240,152,65820,2,0,B|280:112|352:144,1,100
416,192,66659,1,0
352,264,67078,2,0,B|328:304|296:232|240:280,1,100
160,272,67918,1,0
160,176,68337,6,0,B|184:120|256:136,1,100,8|0
272,232,69176,1,0
208,312,69596,1,0
112,288,70016,1,8
208,312,70435,1,0
272,232,70855,1,0
328,152,71274,5,0
328,152,71484,1,0
328,152,71694,1,8
232,152,72113,2,2,B|168:144|152:80,1,100
248,56,72953,1,0
344,56,73372,1,8
400,136,73792,1,0
352,224,74211,1,0
256,208,74631,1,0
256,208,75051,1,8
168,256,75470,6,0,B|176:320|240:336,1,100
312,280,76309,1,0
376,200,76729,1,8
328,112,77148,1,0
328,112,77568,1,0
224,112,77988,5,0
160,184,78407,1,8
248,224,78827,1,0
248,224,79246,1,0
312,152,79666,1,0
312,152,80085,1,8
224,112,80505,1,0
160,184,80925,1,0
184,280,81344,1,0
184,280,81764,5,8
280,280,82183,1,0
360,224,82603,1,0
360,224,83023,1,0
280,168,83442,1,8
240,80,83862,2,2,B|176:80|176:144,1,100
96,200,84701,5,0
112,296,85120,1,8
216,296,85540,1,0
312,256,85960,1,0
216,296,86379,1,0
192,200,86799,2,0,B|192:136|272:136,1,100
344,88,87638,1,0
344,88,88058,1,0
248,56,88477,6,0,B|136:56,1,100,8|0
136,152,89316,2,0,B|80:152,4,50
168,248,90575,2,0,B|232:248,1,50,0|0
272,248,90995,2,0,B|272:176|344:176,1,100
384,96,91834,5,8
296,48,92253,1,0
208,96,92673,1,0
208,192,93092,1,0
296,240,93512,1,8
384,192,93932,1,0
384,96,94351,2,0,B|384:32|312:32,1,100
272,120,95190,5,8
200,192,95610,1,0
128,120,96030,1,0
56,192,96449,2,0,B|24:240|64:288,1,100,0|8
160,288,97288,2,0,B|192:248|216:328|272:272,1,100
312,208,98127,5,0
232,144,98547,1,8
232,40,98967,1,0
328,40,99386,1,0
408,104,99806,1,0
408,200,100225,1,8
344,280,100645,2,2,B|296:312|232:272,1,100
176,216,101484,1,0
176,112,101904,6,0,B|200:136|232:80|272:120,1,100,8|0
336,192,102743,2,0,B|392:192,4,50
336,296,104002,1,0
256,240,104421,1,0
256,136,104841,5,0
160,136,105260,1,8
104,216,105680,1,0
160,296,106099,2,2,B|224:336|272:280,1,100
256,192,106729,12,4,108617
