osu file format v9

[General]
AudioFilename: Lunatic.mp3
AudioLeadIn: 0
PreviewTime: 65011
Countdown: 0
SampleSet: Soft
StackLeniency: 0.7
Mode: 0
LetterboxInBreaks: 1

[Editor]
Bookmarks: 15011,28338,61047,146672
DistanceSpacing: 1.6
BeatDivisor: 4
GridSize: 8

[Metadata]
Title:Lunatic
Artist:B0UNC3
Creator:I_Tatsuo_I
Version:Neko Trance
Source:Newgrounds
Tags:Trance

[Difficulty]
HPDrainRate:5
CircleSize:4
OverallDifficulty:5
ApproachRate:6
SliderMultiplier:1.2
SliderTickRate:1

[Events]
//Background and Video events
0,0,"circle left cyan.png"
//Break Periods
2,28538,33955
2,84788,90622
//Storyboard Layer 0 (Background)
//Storyboard Layer 1 (Fail)
//Storyboard Layer 2 (Pass)
//Storyboard Layer 3 (Foreground)
Sprite,Foreground,Centre,"beatmapby.png",320,240 M,0,7088,7505,209,119,211,119 F,0,7088,7505,0,1 S,0,7505,,0.4752001 F,0,7505,11255,1 M,0,7505,11672,211,119,227,119 F,0,11255,11672,1,0
Sprite,Foreground,Centre,"nekoroll.png",320,240 S,0,7922,,0.4944001 M,0,7922,8338,306,166,304,166 F,0,7922,8338,0,1 F,0,8338,11672,1 M,0,8338,12088,304,166,282,166 F,0,11672,12088,1,0
//Storyboard Sound Samples
//Background Colour Transformations
3,100,163,162,255

[TimingPoints]
1672,416.666666666667,4,2,1,50,1,0
15109,-100,4,2,1,80,0,0
15317,-100,4,2,1,40,0,0
15526,-100,4,2,1,80,0,0
16151,-100,4,2,1,40,0,0
16359,-100,4,2,1,80,0,0
16984,-100,4,2,1,40,0,0
17192,-100,4,2,1,80,0,0
17817,-100,4,2,1,40,0,0
18026,-100,4,2,1,80,0,0
18442,-100,4,2,1,80,0,0
18651,-100,4,2,1,40,0,0
18859,-100,4,2,1,80,0,0
19484,-100,4,2,1,40,0,0
19692,-100,4,2,1,80,0,0
20317,-100,4,2,1,40,0,0
20526,-100,4,2,1,80,0,0
21151,-100,4,2,1,40,0,0
21359,-100,4,2,1,80,0,0
21567,-100,4,2,1,50,0,0
21776,-100,4,2,1,80,0,0
21984,-100,4,2,1,40,0,0
22192,-100,4,2,1,80,0,0
22817,-100,4,2,1,40,0,0
23026,-100,4,2,1,80,0,0
23651,-100,4,2,1,40,0,0
23859,-100,4,2,1,80,0,0
24484,-100,4,2,1,40,0,0
24692,-100,4,2,1,80,0,0
25317,-100,4,2,1,40,0,0
25526,-100,4,2,1,80,0,0
26151,-100,4,2,1,40,0,0
26359,-100,4,2,1,80,0,0
26984,-100,4,2,1,40,0,0
27192,-100,4,2,1,80,0,0
27817,-100,4,2,1,40,0,0
28026,-100,4,2,1,80,0,0
28234,-100,4,2,1,50,0,0
28442,-100,4,2,1,80,0,0
34901,-100,4,2,1,40,0,0
35011,-200,4,2,1,50,0,0
35109,-200,4,2,1,30,0,0
46672,-200,4,2,1,20,0,0
48234,-100,4,2,1,20,0,0
48344,-100,4,2,1,50,0,0
48442,-100,4,2,1,80,0,0
48651,-100,4,2,1,70,0,0
48859,-100,4,2,1,80,0,0
49484,-100,4,2,1,70,0,0
49692,-100,4,2,1,80,0,0
50317,-100,4,2,1,70,0,0
50526,-100,4,2,1,80,0,0
51151,-100,4,2,1,70,0,0
51359,-100,4,2,1,80,0,0
51984,-100,4,2,1,70,0,0
52192,-100,4,2,1,80,0,0
52817,-100,4,2,1,70,0,0
53026,-100,4,2,1,80,0,0
53651,-100,4,2,1,70,0,0
53859,-100,4,2,1,80,0,0
54484,-100,4,2,1,70,0,0
54692,-100,4,2,1,80,0,0
55317,-100,4,2,1,70,0,0
55526,-100,4,2,1,80,0,0
56151,-100,4,2,1,70,0,0
56359,-100,4,2,1,80,0,0
56984,-100,4,2,1,70,0,0
57192,-100,4,2,1,80,0,0
57817,-100,4,2,1,70,0,0
58026,-100,4,2,1,80,0,0
58651,-100,4,2,1,70,0,0
58859,-100,4,2,1,80,0,0
59484,-100,4,2,1,70,0,0
59692,-100,4,2,1,80,0,0
60317,-100,4,2,1,70,0,0
60526,-100,4,2,1,80,0,0
61151,-100,4,2,1,70,0,0
61359,-100,4,2,1,80,0,0
63130,-100,4,2,1,20,0,0
65005,-100,4,2,1,50,0,1
65109,-100,4,2,1,80,0,1
65317,-100,4,2,1,40,0,1
65526,-100,4,2,1,80,0,1
66151,-100,4,2,1,40,0,1
66359,-100,4,2,1,80,0,1
66984,-100,4,2,1,40,0,1
67192,-100,4,2,1,80,0,1
67817,-100,4,2,1,40,0,1
68026,-100,4,2,1,80,0,1
68651,-100,4,2,1,40,0,1
68859,-100,4,2,1,80,0,1
69484,-100,4,2,1,40,0,1
69692,-100,4,2,1,80,0,1
70317,-100,4,2,1,40,0,1
70526,-100,4,2,1,80,0,1
71151,-100,4,2,1,40,0,1
71359,-100,4,2,1,60,0,1
71984,-100,4,2,1,40,0,1
72192,-100,4,2,1,60,0,1
72817,-100,4,2,1,40,0,1
73026,-100,4,2,1,60,0,1
73651,-100,4,2,1,40,0,1
73859,-100,4,2,1,60,0,1
74484,-100,4,2,1,40,0,1
74692,-100,4,2,1,60,0,1
75317,-100,4,2,1,40,0,1
75526,-100,4,2,1,60,0,1
76151,-100,4,2,1,40,0,1
76359,-100,4,2,1,80,0,1
76672,-200,4,2,1,40,0,1
77719,-100,4,2,1,60,0,0
78234,-100,4,2,1,40,0,0
78442,-100,4,2,1,80,0,0
78651,-100,4,2,1,70,0,0
78859,-100,4,2,1,80,0,0
79484,-100,4,2,1,70,0,0
79692,-100,4,2,1,80,0,0
80317,-100,4,2,1,70,0,0
80526,-100,4,2,1,80,0,0
81151,-100,4,2,1,70,0,0
81359,-100,4,2,1,80,0,0
81984,-100,4,2,1,70,0,0
82192,-100,4,2,1,80,0,0
82817,-100,4,2,1,70,0,0
83026,-100,4,2,1,80,0,0
83651,-100,4,2,1,70,0,0
83859,-100,4,2,1,80,0,0
84484,-100,4,2,1,70,0,0
84692,-100,4,2,1,80,0,0
84901,-100,4,2,1,50,0,0
85109,-100,4,2,1,80,0,0
91672,-100,4,2,1,20,0,0
93338,-100,4,2,1,50,0,0
93442,-100,4,2,1,80,0,0
93651,-100,4,2,1,70,0,0
93859,-100,4,2,1,80,0,0
94484,-100,4,2,1,70,0,0
94692,-100,4,2,1,80,0,0
95317,-100,4,2,1,70,0,0
95526,-100,4,2,1,80,0,0
96151,-100,4,2,1,70,0,0
96359,-100,4,2,1,80,0,0
96984,-100,4,2,1,70,0,0
97192,-100,4,2,1,80,0,0
97817,-100,4,2,1,70,0,0
98026,-100,4,2,1,80,0,0
98651,-100,4,2,1,70,0,0
98859,-100,4,2,1,80,0,0
99484,-100,4,2,1,70,0,0
99692,-100,4,2,1,80,0,0
100317,-100,4,2,1,70,0,0
100526,-100,4,2,1,80,0,0
101151,-100,4,2,1,70,0,0
101359,-100,4,2,1,80,0,0
101984,-100,4,2,1,70,0,0
102192,-100,4,2,1,80,0,0
102817,-100,4,2,1,70,0,0
103026,-100,4,2,1,80,0,0
103651,-100,4,2,1,70,0,0
103859,-100,4,2,1,80,0,0
104484,-100,4,2,1,70,0,0
104692,-100,4,2,1,80,0,0
104901,-100,4,2,1,50,0,0
105109,-100,4,2,1,80,0,0
106672,-100,4,2,1,40,0,1
106776,-100,4,2,1,80,0,1
106984,-100,4,2,1,40,0,1
107192,-100,4,2,1,60,0,1
107817,-100,4,2,1,40,0,1
108026,-100,4,2,1,60,0,1
108651,-100,4,2,1,40,0,1
108859,-100,4,2,1,60,0,1
109484,-100,4,2,1,40,0,1
109692,-100,4,2,1,60,0,1
110317,-100,4,2,1,40,0,1
110526,-100,4,2,1,60,0,1
111151,-100,4,2,1,40,0,1
111359,-100,4,2,1,60,0,1
111984,-100,4,2,1,40,0,1
112192,-100,4,2,1,60,0,1
112817,-100,4,2,1,40,0,1
113026,-100,4,2,1,60,0,1
113651,-100,4,2,1,40,0,1
113859,-100,4,2,1,60,0,1
114484,-100,4,2,1,40,0,1
114692,-100,4,2,1,60,0,1
115317,-100,4,2,1,40,0,1
115526,-100,4,2,1,60,0,1
116151,-100,4,2,1,40,0,1
116359,-100,4,2,1,60,0,1
116984,-100,4,2,1,40,0,1
117192,-100,4,2,1,60,0,1
117817,-100,4,2,1,40,0,1
118026,-100,4,2,1,80,0,1
118338,-200,4,2,1,60,0,1
119380,-100,4,2,1,60,0,0
119484,-100,4,2,1,40,0,0
119692,-100,4,2,1,80,0,0
120005,-100,4,2,1,60,0,1
120317,-100,4,2,1,40,0,1
120526,-100,4,2,1,60,0,1
121151,-100,4,2,1,40,0,1
121359,-100,4,2,1,60,0,1
121984,-100,4,2,1,40,0,1
122192,-100,4,2,1,60,0,1
122817,-100,4,2,1,40,0,1
123026,-100,4,2,1,60,0,1
123651,-100,4,2,1,40,0,1
123859,-100,4,2,1,60,0,1
124484,-100,4,2,1,40,0,1
124692,-100,4,2,1,60,0,1
125317,-100,4,2,1,40,0,1
125526,-100,4,2,1,60,0,1
126151,-100,4,2,1,40,0,1
126359,-100,4,2,1,60,0,1
126984,-100,4,2,1,40,0,1
127192,-100,4,2,1,60,0,1
127817,-100,4,2,1,40,0,1
128026,-100,4,2,1,60,0,1
128651,-100,4,2,1,40,0,1
128859,-100,4,2,1,60,0,1
129484,-100,4,2,1,40,0,1
129692,-100,4,2,1,60,0,1
130317,-100,4,2,1,40,0,1
130526,-100,4,2,1,60,0,1
131151,-100,4,2,1,40,0,1
131359,-100,4,2,1,60,0,1
133338,-200,4,2,1,30,0,0

[Colours]
Combo1 : 5,5,240
Combo2 : 0,158,234

[HitObjects]
152,120,15005,1,0
264,272,15422,1,0
232,80,15838,1,0
176,264,16255,1,0
312,128,16672,1,0
128,192,17088,1,0
320,216,17505,1,0
160,104,17922,1,0
160,104,18130,1,0
160,104,18338,6,0,B|224:72|304:80,1,120,0|8
440,176,19172,2,0,B|376:144|296:152,1,120,0|8
144,224,20005,1,0
296,104,20422,1,0
344,184,20630,2,0,B|424:288,1,120
424,144,21463,1,0
424,144,21672,6,0,B|304:224,1,120,0|8
152,272,22505,2,0,B|213:325|288:312,1,120
152,152,23338,2,0,B|178:228|249:254,1,120,0|8
208,48,24172,2,0,B|192:127|241:185,1,120,0|8
225,163,24797,1,0
225,163,25005,5,0
408,80,25422,2,0,B|408:224,1,120,8|0
256,88,26255,1,8
256,88,26463,1,0
120,224,26880,5,0
208,184,27088,1,8
304,184,27297,1,0
392,224,27505,1,0
224,312,27922,2,0,B|296:312,1,60,8|0
284,312,28338,1,4
352,88,35005,5,0
400,192,35422,1,0
360,296,35838,1,0
248,328,36255,1,0
192,328,36463,2,0,B|120:328,2,60
192,215,37713,5,0
192,215,37922,1,0
248,216,38130,2,0,B|320:216,2,60
248,103,39380,1,0
248,103,39588,1,0
191,103,39797,2,0,B|120:104,3,60
200,312,41880,5,0
200,312,42088,1,0
234,277,42297,1,0
234,277,42505,1,0
301,209,42922,1,0
334,175,43130,2,0,B|374:127,2,60
256,112,44380,5,0
256,112,44588,1,0
221,146,44797,2,0,B|181:194,2,60
288,216,46047,1,0
288,216,46255,1,0
321,249,46463,2,0,B|368:296,3,60
176,120,48547,6,0,B|112:96|112:96|80:152,1,120,2|0
376,128,49588,1,0
424,208,49797,1,8
264,312,50213,2,0,B|128:312,2,120,0|8|0
360,312,51255,1,0
312,232,51463,2,0,B|208:144,2,120,8|0|8
192,88,52713,1,0
128,160,52922,1,0
120,256,53130,2,0,B|224:336,2,120,8|0|8
304,312,54380,5,0
304,312,54588,1,0
376,248,54797,1,8
440,72,55213,1,0
248,72,55630,1,8
72,296,56255,1,0
72,296,56463,1,8
72,103,56880,1,0
256,64,57297,1,8
416,304,57922,5,0
320,304,58130,2,0,B|256:304|192:304,2,120,8|0|8
160,192,59380,1,0
160,96,59588,1,0
256,96,59797,2,0,B|328:96|392:96,2,120,8|0|8
96,200,61047,5,0
176,256,61255,1,0
256,304,61463,1,0
416,200,61880,5,0
336,256,62088,1,0
256,304,62297,1,0
256,112,62713,5,0
256,112,62922,1,0
256,192,63130,12,0,64588
96,64,65005,6,0,B|216:96,1,120,0|10
404,94,65838,2,0,B|284:126,1,120,0|8
96,144,66672,2,0,B|208:200,1,120,0|8
395,197,67505,2,0,B|283:253,1,120,0|8
287,250,68130,1,0
192,256,68338,6,0,B|120:280|64:240,2,120,0|8|0
327,120,69588,2,0,B|399:96|455:136,2,120,8|0|8
134,120,70838,1,0
256,264,71255,1,8
256,264,71463,1,0
256,264,71672,6,0,B|128:264,1,120,8|8
312,192,72505,2,0,B|440:192,1,120,8|8
256,120,73338,2,0,B|120:120,1,120,8|8
256,264,74172,1,8
256,264,74588,2,0,B|256:336,2,60,0|0|8
72,200,75422,5,0
256,136,75838,1,8
440,192,76255,1,0
376,264,76672,2,2,B|136:264,1,240,2|10
112,72,78755,5,2
80,264,79172,1,8
264,320,79588,1,0
264,320,79797,2,0,B|320:200,2,120,2|0|2
360,152,81047,5,0
272,104,81255,1,8
184,64,81463,2,0,B|120:176,2,120,2|0|2
96,232,82713,1,0
184,264,82922,1,8
272,296,83130,2,0,B|400:352,3,120,2|0|2|0
381,344,84588,1,2
256,192,91672,12,0,93338
456,59,94588,6,0,B|408:115,1,60,2|0
224,104,95213,1,0
224,104,95630,1,0
56,336,96255,2,0,B|104:280,1,60,2|0
288,291,96880,1,0
288,291,97297,1,0
448,192,97713,1,0
351,192,97922,1,2
256,192,98130,2,0,B|128:192,2,120
416,80,99380,5,0
448,168,99588,1,0
416,256,99797,2,0,B|328:336,1,120,2|0
327,336,100630,1,0
64,216,101255,1,0
96,128,101464,2,0,B|184:48,1,120,2|0
184,47,102297,1,0
408,232,102922,1,2
328,280,103130,2,0,B|272:312|208:280,2,120
88,120,104588,5,0
168,72,104796,2,0,B|224:40|288:72,2,120,2|0|0
128,256,106047,1,0
208,312,106255,1,0
304,312,106463,1,0
384,256,106672,6,0,B|424:192|384:136,1,120,8|8
224,48,107505,2,0,B|184:112|224:168,1,120,8|8
400,232,108338,2,0,B|280:312,1,120,8|8
120,232,109172,2,0,B|240:312,1,120,8|8
219,298,109797,1,0
312,304,110005,6,0,B|376:344|448:304,1,120,8|8
248,240,110838,2,0,B|321:223|344:143,1,120,8|8
160,240,111672,2,0,B|200:176|160:104,1,120,8|8
104,304,112505,2,0,B|87:230|7:207,1,120,8|8
29,215,113130,1,0
64,128,113338,6,0,B|160:48,1,120,8|2
252,51,113963,1,0
348,51,114172,2,0,B|444:131,1,120,8|2
464,224,114797,1,0
384,176,115005,2,0,B|312:176|312:264,1,120,8|2
256,336,115630,1,0
208,256,115838,2,0,B|208:176|120:176,1,120,8|2
72,104,116463,1,0
168,104,116672,6,0,B|240:104,2,60,8|0|8
360,104,117505,2,0,B|288:104,2,60,8|0|8
256,192,118338,12,0,119588
256,184,120005,5,8
416,72,120422,1,0
256,184,120838,1,8
104,304,121255,1,0
256,184,121672,1,8
104,72,122088,1,0
256,184,122505,1,8
408,304,122922,1,0
296,152,123338,6,0,B|360:128|424:152,1,120,8|8
232,72,124172,2,0,B|296:48|360:72,1,120,8|8
232,216,125005,2,0,B|168:240|104:216,1,120,8|8
288,296,125838,2,0,B|224:320|160:296,1,120,8|8
170,299,126463,5,0
170,299,126672,2,0,B|112:192,1,120,8|0
72,104,127297,1,2
160,64,127505,2,0,B|224:176,1,120,10|2
256,256,128130,1,2
304,168,128338,2,0,B|376:48,1,120,10|2
456,104,128963,1,2
408,192,129172,2,0,B|352:304,1,120,10|8
354,299,129797,1,0
256,296,130005,2,0,B|256:216,2,60,8|0|8
256,104,130838,2,0,B|256:168,2,60,8|0|8
256,192,131672,12,0,133338
161,192,133755,5,2
256,192,134172,1,2
352,192,134588,1,2
352,192,134797,2,0,B|424:192,2,60,2|8|0
256,208,136047,5,2
256,255,136255,1,2
256,302,136463,2,0,B|255:366,2,60,2|8|0
256,208,137713,1,2
207,208,137922,1,2
159,208,138130,2,0,B|96:208,4,60,2|8|0|0|8
176,64,140213,5,0
176,64,140422,1,0
176,64,140630,1,0
176,64,140838,2,0,B|240:64,1,60,8|0
288,64,141463,1,0
376,112,141880,1,8
432,192,142297,1,0
456,288,142713,5,0
456,288,142922,1,0
456,288,143130,2,0,B|392:288,1,60,8|0
299,288,143963,1,8
208,288,144380,1,0
208,288,144588,1,0
208,288,144797,1,8
136,224,145213,1,0
200,152,145630,1,8
288,112,146047,1,0
384,96,146463,1,0
384,96,146672,1,0
