osu file format v7

[General]
AudioFilename: Chrono Eternity.mp3
AudioLeadIn: 0
PreviewTime: 105132
Countdown: 0
SampleSet: Normal
StackLeniency: 0.7
Mode: 0
LetterboxInBreaks: 1
StoryFireInFront: 0

[Editor]
Bookmarks: 22228,23319,46954,70225,80406,105132,128403
DistanceSpacing: 0.600000023841858
BeatDivisor: 4
GridSize: 8

[Metadata]
Title:Chrono Eternity
Artist:B0UNC3
Creator:I_Tatsuo_I
Version:Soft Core
Source:Newgrounds
Tags:techno trance

[Difficulty]
HPDrainRate:2
CircleSize:3
OverallDifficulty:2
SliderMultiplier:1
SliderTickRate:0.5

[Events]
//Background and Video events
0,0,"gear-wallpaper2.jpg"
//Break Periods
2,70440,80315
2,128255,138494
//Storyboard Layer 0 (Background)
//Storyboard Layer 1 (Fail)
//Storyboard Layer 2 (Pass)
//Storyboard Layer 3 (Foreground)
//Storyboard Sound Samples
//Background Colour Transformations
3,100,163,162,255

[TimingPoints]
426.377730086336,363.61432640446,4,1,0,100,1,0
46956,-100,4,2,0,100,0,0
81848,-100,4,1,0,100,0,0
105120,-100,4,1,0,100,0,1
128391,-100,4,1,0,100,0,0
151320,-100,4,2,0,100,0,0
163229,-100,4,1,0,100,0,0
174956,-100,4,1,0,100,0,0

[Colours]
Combo1 : 127,0,255
Combo2 : 255,0,0
Combo3 : 255,255,255
Combo4 : 0,0,255

[HitObjects]
344,72,23334,2,0,B|376:80|424:112|424:152,2,100
288,56,24424,1,0
168,56,25152,1,0
80,144,25879,1,0
168,56,26606,2,0,B|200:61|218:84|229:131,2,100
80,144,28061,5,0
168,224,28788,1,0
288,224,29515,2,0,B|352:224|392:184,2,100
168,224,30969,1,0
288,224,31697,1,0
408,224,32424,6,0,B|464:224|488:160,2,100
408,104,33878,1,0
288,104,34606,1,0
232,104,34969,6,0,B|168:104|168:152|120:152,1,100
144,208,35696,2,0,B|208:208|208:256|240:248,1,100
296,248,36424,1,0
360,248,36787,2,0,B|424:248|464:216,2,100
296,248,37878,1,0
232,248,38242,5,0
176,248,38605,1,0
120,248,38969,2,0,B|96:240|88:192|128:192|104:144,2,100
160,288,40060,1,0
216,288,40423,1,0
272,288,40787,6,0,B|320:288|336:256|376:224,2,100,0|0|0
232,240,41878,1,0
144,160,42605,2,0,B|120:144|112:80|194:100,1,100
232,96,43332,1,0
232,160,43696,1,0
232,96,44060,5,0
288,96,44423,1,0
344,96,44787,1,0
392,208,45514,2,0,B|432:248|392:304,1,100
336,296,46241,2,0,B|299:245|339:205,1,100
368,152,46969,5,4
296,56,47696,1,0
224,152,48423,1,0
296,248,49150,1,0
224,152,49877,5,0
144,64,50605,1,0
224,152,51332,1,0
224,272,52059,1,0
328,336,52786,6,0,B|384:328|368:256|416:192|448:176,2,200
208,336,54968,2,0,B|152:328|168:256|120:192|88:176,2,200
272,232,57150,2,0,B|296:208|312:160|256:144|232:96|288:56|296:48,2,200
208,232,58968,5,0
168,184,59331,1,0
128,232,59695,1,0
168,272,60059,5,0
216,304,60422,1,0
264,272,60786,1,0
264,328,61149,1,0
312,296,61513,6,0,B|368:272|384:224,2,100
248,296,62604,2,0,B|192:272|176:224,2,100
280,248,63695,2,0,B|280:144,1,100
280,88,64422,5,0
224,112,64786,1,0
168,136,65149,1,0
168,200,65513,1,0
168,256,65876,6,0,B|168:296|224:304|240:248,2,100
168,200,66967,1,0
168,136,67331,1,0
224,112,67695,1,0
280,88,68058,5,0
336,88,68422,1,0
400,88,68785,2,0,B|440:88|448:152|384:160,3,100
340,154,70240,1,4
408,96,81875,5,0
368,136,82239,1,0
312,152,82603,2,0,B|272:168|192:152,3,100
160,136,84057,1,0
120,96,84421,1,0
120,152,84784,6,0,B|120:256,3,100
200,288,86421,1,0
256,304,86784,1,0
320,304,87148,1,0
376,280,87512,1,0
312,216,88057,5,0
272,176,88421,1,0
232,216,88784,1,0
184,176,89148,2,0,B|144:176|104:152|112:112,1,100
168,112,89875,2,0,B|151:75|157:29|197:20,1,100
248,56,90602,6,0,B|336:64|328:176,1,150
336,248,91693,2,0,B|344:296|288:336|232:296|240:200|256:216|176:216|160:296,1,250
192,160,93511,5,0
248,160,93875,1,0
304,160,94238,1,0
248,160,94602,1,0
248,216,94966,2,0,B|256:280|320:304,2,100
248,160,96056,1,0
248,104,96420,6,0,B|144:104,3,100
88,104,97875,1,0
128,152,98238,1,0
160,104,98602,1,0
216,104,98965,6,0,B|320:104,2,100
168,216,100420,1,0
288,216,101147,1,0
288,96,101874,1,0
256,192,102238,12,4,105147
424,88,105874,5,0
376,120,106238,1,0
328,88,106601,1,0
280,120,106965,6,0,B|208:120|184:176,1,100
248,192,107692,2,0,B|208:224|208:296,1,100
240,328,108419,1,0
304,328,108783,1,0
424,328,109510,5,0
360,328,109874,1,0
304,328,110237,1,0
184,328,110965,6,0,B|112:328|88:272,3,100
96,232,112419,1,0
144,192,112783,1,0
96,152,113146,1,0
144,112,113510,1,0
200,104,113874,6,0,B|272:104|304:152,1,100
336,176,114601,1,0
336,232,114964,1,0
336,176,115328,5,0
336,112,115692,1,0
280,144,116055,1,0
224,136,116419,1,0
200,192,116782,6,0,B|136:216|96:184,1,100
136,136,117510,2,0,B|72:144|56:64,1,100
40,32,118237,1,0
104,32,118601,5,0
160,56,118964,1,0
208,96,119328,1,0
256,128,119691,6,0,B|336:192,1,100
296,240,120419,2,0,B|216:176,1,100
184,232,121146,2,0,B|280:304,1,100
312,328,121873,2,0,B|384:232,1,100
408,200,122600,5,0
360,168,122964,1,0
320,216,123328,1,0
280,168,123691,1,0
320,120,124055,5,0
224,48,124782,1,0
136,128,125509,1,0
224,208,126236,1,0
344,208,126964,5,0
344,272,127327,1,0
344,208,127691,1,0
344,272,128055,1,0
440,72,140054,5,0
368,168,140781,1,0
296,72,141508,1,0
224,168,142235,1,0
296,72,142963,5,0
224,168,143690,1,0
296,264,144417,1,0
232,360,145144,1,0
152,272,145872,5,0
112,224,146235,1,0
152,176,146599,1,0
272,176,147326,5,0
304,224,147690,1,0
272,272,148053,1,0
152,272,148781,6,0,B|128:256|128:200|160:176,2,100,0|0|0
272,272,150235,2,0,B|296:256|296:200|264:176,2,100
152,272,151689,6,0,B|216:264|184:200|136:184|160:152|216:104,1,200
360,112,153326,1,0
480,112,154053,1,0
440,192,154598,6,0,B|416:272|352:248,2,100
440,104,155871,2,0,B|432:64|320:80|352:112,1,100
240,136,156962,1,0
176,200,157507,5,0
176,264,157871,2,0,B|176:312|200:320|256:312,1,100
392,312,159144,1,0
272,312,159871,1,0
184,312,160416,5,0
136,280,160780,1,0
104,224,161143,1,0
104,136,161689,6,0,B|104:64|192:80,1,100
288,72,162780,1,0
360,120,163325,5,0
320,168,163689,1,0
360,208,164052,1,0
440,120,164780,5,0
480,168,165143,1,0
440,208,165507,1,0
336,272,166234,6,0,B|296:264|272:328|248:312,2,100
336,152,167688,5,0
368,104,168052,1,0
304,104,168416,1,0
336,56,168779,1,0
280,56,169143,6,0,B|216:40|216:112,2,100
400,56,170597,2,0,B|472:48|448:144,2,100
336,56,171688,1,0
280,56,172052,5,0
280,56,172415,1,0
280,56,172779,1,0
256,192,173324,12,4,174961
