osu file format v9

[General]
AudioFilename: 25112_newgrounds_b0unc3.mp3
AudioLeadIn: 0
PreviewTime: 52260
Countdown: 2
SampleSet: Soft
StackLeniency: 0.7
Mode: 0
LetterboxInBreaks: 1

[Editor]
DistanceSpacing: 1
BeatDivisor: 4
GridSize: 4

[Metadata]
Title:Bleeding Heart
Artist:B0UNC3
Creator:Tatsuo
Version:Trance
Source:
Tags:Trance Nivalis

[Difficulty]
HPDrainRate:5
CircleSize:4
OverallDifficulty:5
ApproachRate:5
SliderMultiplier:1.5
SliderTickRate:2

[Events]
//Background and Video events
0,0,"Bleeding_Heart800.jpg"
//Break Periods
2,39387,44518
2,91632,101660
//Storyboard Layer 0 (Background)
//Storyboard Layer 1 (Fail)
//Storyboard Layer 2 (Pass)
//Storyboard Layer 3 (Foreground)
//Storyboard Sound Samples
//Background Colour Transformations
3,100,163,162,255

[TimingPoints]
13065,408.163265306122,4,2,0,41,1,0
13473,-100,4,2,0,28,0,0
13677,-100,4,2,0,40,0,0
14289,-100,4,2,0,31,0,0
14493,-100,4,2,0,41,0,0
15105,-100,4,2,0,31,0,0
15309,-100,4,2,0,40,0,0
15922,-100,4,2,0,31,0,0
16126,-100,4,2,0,39,0,0
16738,-100,4,2,0,31,0,0
16840,-100,4,2,0,40,0,0
17554,-100,4,2,0,31,0,0
17758,-100,4,2,0,40,0,0
18371,-100,4,2,0,31,0,0
18473,-100,4,2,0,41,0,0
19187,-100,4,2,0,30,0,0
19391,-100,4,2,0,41,0,0
19799,-100,4,2,0,31,0,0
20207,-100,4,2,0,41,0,0
20616,-100,4,2,0,30,0,0
21024,-100,4,2,0,40,0,0
21432,-100,4,2,0,29,0,0
21840,-100,4,2,0,41,0,0
22248,-100,4,2,0,30,0,0
22656,-100,4,2,0,10,0,0
23269,-100,4,2,0,23,0,0
23677,-100,4,2,0,31,0,0
24085,-100,4,2,0,41,0,0
25718,-100,4,2,0,0,0,0
25922,-100,4,1,0,41,0,0
26432,-100,4,2,0,50,0,0
39403,-100,4,2,0,64,0,0
43473,-100,4,1,0,64,0,0
45513,-200,4,2,0,51,0,0
46432,-200,4,2,0,34,0,0
47350,-200,4,2,0,21,0,0
48064,-200,4,2,0,7,0,0
48983,-200,4,2,0,0,0,0
49391,-200,4,2,0,15,0,0
49799,-200,4,2,0,25,0,0
50207,-200,4,2,0,30,0,0
50616,-200,4,2,0,35,0,0
51024,-200,4,2,0,50,0,0
51024,-200,4,2,0,39,0,0
51432,-200,4,2,0,56,0,0
51851,-100,4,1,0,64,0,0
52452,-100,4,1,0,40,0,0
52758,-100,4,2,0,61,0,0
52962,-100,4,1,0,41,0,0
53371,-100,4,1,0,41,0,0
53575,-100,4,2,0,61,0,0
53779,-100,4,1,0,41,0,0
54187,-100,4,1,0,40,0,0
54391,-100,4,2,0,60,0,0
54595,-100,4,1,0,41,0,0
56024,-100,4,2,0,61,0,0
56228,-100,4,1,0,41,0,0
57860,-100,4,2,0,61,0,0
58269,-100,4,1,0,40,0,0
59289,-100,4,2,0,59,0,0
59493,-100,4,1,0,40,0,0
59697,-100,4,1,0,32,0,0
59901,-100,4,1,0,42,0,0
60105,-100,4,2,0,61,0,0
60309,-100,4,1,0,41,0,0
60922,-100,4,2,0,59,0,0
61126,-100,4,1,0,39,0,0
62554,-100,4,2,0,61,0,0
62758,-100,4,1,0,41,0,0
63371,-100,4,2,0,61,0,0
63575,-100,4,1,0,40,0,0
64187,-100,4,2,0,61,0,0
64391,-100,4,1,0,41,0,0
65207,-100,4,2,0,41,0,0
65411,-100,4,1,0,41,0,0
65820,-100,4,2,0,61,0,0
66024,-100,4,1,0,41,0,0
66636,-100,4,2,0,60,0,0
66840,-100,4,1,0,40,0,0
69493,-100,4,2,0,59,0,0
69697,-100,4,1,0,41,0,0
71126,-100,4,2,0,59,0,0
71330,-100,4,1,0,39,0,0
72350,-100,4,2,0,60,0,0
72554,-100,4,1,0,40,0,0
73167,-100,4,2,0,60,0,0
73371,-100,4,1,0,39,0,0
74697,-100,4,2,0,60,0,0
74799,-100,4,1,0,41,0,0
75616,-100,4,2,0,58,0,0
75820,-100,4,1,0,41,0,0
76432,-100,4,2,0,61,0,0
76636,-100,4,1,0,39,0,0
78371,-100,4,2,0,41,0,1
78575,-100,4,1,0,40,0,1
78881,-100,4,2,0,61,0,1
79085,-100,4,1,0,40,0,1
79697,-100,4,2,0,59,0,1
79901,-100,4,1,0,41,0,1
80513,-100,4,2,0,61,0,1
80718,-100,4,1,0,41,0,1
85411,-100,4,2,0,61,0,1
85616,-100,4,1,0,41,0,1
86228,-100,4,2,0,59,0,1
86432,-100,4,1,0,41,0,1
87044,-100,4,2,0,59,0,1
87248,-100,4,1,0,41,0,1
87860,-100,4,2,0,60,0,1
88064,-100,4,1,0,41,0,1
91534,-100,4,1,0,41,0,0
104493,-100,4,1,0,41,0,0
104697,-100,4,2,0,31,0,0
105105,-100,4,2,0,41,0,0
105616,-100,4,2,0,32,0,0
105922,-100,4,2,0,41,0,0
106330,-100,4,2,0,31,0,0
106738,-100,4,2,0,41,0,0
107146,-100,4,2,0,30,0,0
107554,-100,4,2,0,41,0,0
108167,-100,4,2,0,30,0,0
108575,-100,4,2,0,40,0,0
108779,-100,4,2,0,30,0,0
109187,-100,4,2,0,41,0,0
109799,-100,4,2,0,31,0,0
110207,-100,4,2,0,41,0,0
110718,-100,4,1,0,31,0,0
110922,-100,4,1,0,21,0,0
111228,-100,4,2,0,30,0,0
111534,-100,4,2,0,39,0,0
112146,-100,4,2,0,29,0,0
112350,-100,4,2,0,39,0,0
112962,-100,4,2,0,32,0,0
113167,-100,4,2,0,39,0,0
113677,-100,4,2,0,29,0,0
114085,-100,4,2,0,39,0,0
114493,-100,4,2,0,31,0,0
114901,-100,4,2,0,39,0,0
115309,-100,4,2,0,31,0,0
115718,-100,4,2,0,61,0,0
131330,-100,4,2,0,39,0,0
131636,-100,4,2,0,61,0,0
135820,-100,4,2,0,40,0,0
136024,-100,4,2,0,60,0,0
137860,-100,4,2,0,42,0,0
138167,-100,4,2,0,59,0,0
140207,-100,4,2,0,40,0,0
140411,-100,4,1,0,21,0,0
140718,-100,4,1,0,31,0,0
141024,-100,4,1,0,39,0,0
141330,-100,4,1,0,49,0,0
141636,-100,4,1,0,61,0,0
145105,-100,4,1,0,39,0,0
145411,-100,4,2,0,61,0,0
146024,-100,4,1,0,41,0,0
146228,-100,4,2,0,61,0,0
146840,-100,4,1,0,41,0,0
147044,-100,4,2,0,61,0,0
148881,-100,4,1,0,41,0,0
149085,-100,4,2,0,59,0,0
150105,-100,4,1,0,40,0,0
150309,-100,4,2,0,61,0,0
150513,-100,4,1,0,41,0,0
150718,-100,4,2,0,61,0,0
150922,-100,4,1,0,40,0,0
151126,-100,4,2,0,61,0,0
151330,-100,4,1,0,40,0,0
151534,-100,4,2,0,61,0,0
151738,-100,4,1,0,39,0,0
151942,-100,4,2,0,60,0,0
152146,-100,4,1,0,41,0,0
152350,-100,4,2,0,61,0,0
152554,-100,4,1,0,41,0,0
152758,-100,4,2,0,61,0,0
152962,-100,4,1,0,41,0,0
153167,-100,4,2,0,61,0,0
153371,-100,4,1,0,41,0,0
153575,-100,4,2,0,61,0,0
153779,-100,4,1,0,41,0,0
153983,-100,4,2,0,61,0,0
154187,-100,4,1,0,41,0,0
154391,-100,4,2,0,60,0,0
154595,-100,4,1,0,41,0,0
154799,-100,4,2,0,61,0,0
155105,-100,4,1,0,41,0,0
155820,-100,4,1,0,22,0,0
156228,-100,4,1,0,41,0,0
156636,-100,4,1,0,21,0,0
157044,-100,4,1,0,40,0,0
157452,-100,4,1,0,20,0,0
157860,-100,4,1,0,41,0,0
158064,-100,4,2,0,60,0,0
158269,-100,4,1,0,41,0,0
158881,-100,4,2,0,61,0,0
159085,-100,4,1,0,39,0,0
160309,-100,4,2,0,61,0,0
160718,-100,4,1,0,41,0,0
161126,-100,4,2,0,61,0,0
161534,-100,4,1,0,40,0,0
161942,-100,4,1,0,40,0,0
162554,-100,4,2,0,59,0,0
162758,-100,4,1,0,40,0,0
163575,-100,4,2,0,60,0,0
163983,-100,4,1,0,41,0,0
164187,-100,4,2,0,61,0,0
164391,-100,4,1,0,41,0,0
165411,-100,4,2,0,61,0,0
165616,-100,4,1,0,42,0,0
166228,-100,4,2,0,61,0,0
166432,-100,4,1,0,42,0,0
166840,-100,4,1,0,41,0,0
167044,-100,4,2,0,59,0,0
167860,-100,4,2,0,39,0,0
168167,-100,4,1,0,20,0,0
168473,-100,4,1,0,29,0,0
168779,-100,4,1,0,39,0,0
169085,-100,4,1,0,49,0,0
169391,-100,4,1,0,59,0,0

[Colours]
Combo1 : 125,0,0
Combo2 : 81,81,81

[HitObjects]
152,88,13064,2,0,B|240:120|264:216|264:216,1,150,4|8
358,88,13881,2,0,B|270:120|246:216|246:216,1,150,4|8
358,294,14697,2,0,B|326:206|230:182|230:182,1,150,4|8
152,294,15513,2,0,B|184:206|280:182|280:182,1,150,4|8
312,56,16330,6,0,B|290:10|232:-16|185:15|169:42|176:56|176:56,3,150,4|8|0|8
240,88,17758,1,0
168,120,17962,2,0,B|190:166|248:192|295:161|311:134|304:120|304:120,3,150,0|8|0|8
256,288,19595,5,4
112,328,20003,1,8
184,192,20411,1,0
112,56,20820,1,8
256,96,21228,1,0
400,56,21636,1,8
328,192,22044,1,0
392,336,22452,1,8
256,264,22860,6,0,B|232:192|280:192|252:104,3,150,4|4|4|4
256,192,24493,12,0,25718
256,192,26126,5,4
336,320,26534,2,0,B|392:272,2,75,0|8|2
176,320,27350,2,0,B|120:272,2,75,0|8|2
256,192,28167,2,0,B|208:120|312:120|256:48|256:48,2,150,0|2|0
256,264,29187,1,8
193,304,29391,2,0,B|216:342|253:348|311:348|323:294|323:294,1,150,0|4
416,192,30207,6,0,B|496:192,2,75,0|2|0
344,192,30820,1,8
344,192,31024,1,0
344,341,31432,1,0
344,192,31840,2,0,B|344:104,2,75,0|2|0
344,264,32452,1,8
344,264,32656,1,4
192,256,33064,6,0,B|224:168|160:112|160:112,1,150,8|0
25,144,33881,2,0,B|113:176|169:112|169:112,1,150,8|0
296,40,34697,2,0,B|376:8,1,75,8|2
344,80,35105,2,0,B|429:92,1,75
352,128,35513,2,0,B|419:181,1,75,8|0
410,174,35922,1,4
320,296,36330,5,8
256,256,36534,1,0
192,296,36738,1,0
192,146,37146,1,8
256,184,37350,1,0
320,144,37554,1,0
256,192,37962,12,4,39187
160,128,45718,6,0,B|160:248,1,112.5
224,280,46534,2,0,B|224:152,1,112.5
288,128,47350,2,0,B|288:248,1,112.5
352,280,48167,2,0,B|352:152,1,112.5
256,192,48983,12,0,52248
336,104,52656,6,0,B|376:104|412:64|412:64,2,75,0|2|0
184,104,53473,2,0,B|144:104|108:64|108:64,2,75,0|2|0
256,240,54289,1,0
219,305,54493,1,2
293,305,54697,1,0
432,256,55105,2,0,B|344:200|416:112|416:112,1,150,0|4
312,8,55922,5,0
256,64,56126,1,2
200,8,56330,1,0
105,125,56738,2,0,B|152:216|72:264|72:264|56:280,1,150,0|4
208,176,57554,2,0,B|240:184|256:232|256:232|272:184|304:176,3,150,0|2|0|4
200,288,59187,6,0,B|173:269|183:245|183:245|152:246|154:212,2,75,0|2|0
256,336,59799,1,4
312,288,60003,2,0,B|339:269|329:245|329:245|360:246|358:212,2,75,0|2|0
352,144,60820,5,0
312,80,61024,1,2
256,128,61228,2,0,B|256:208,2,75
200,80,61840,1,0
160,144,62044,1,4
128,288,62452,6,0,B|136:232|64:216|64:216,2,75,0|2|0
256,360,63269,2,0,B|256:272,2,75,0|2|0
384,288,64085,2,0,B|376:232|448:216|448:216,2,75,0|2|0
256,360,64901,1,0
256,360,65309,5,4
256,208,65718,2,0,B|240:160|184:156,1,75,0|2
188,232,66126,1,0
188,232,66534,2,0,B|180:276|136:308,1,75,0|2
112,232,66942,2,0,B|24:232,3,75,0|0|8|0
20,160,67758,2,0,B|-20:124|4:64,3,75,0|0|8|0
72,104,68575,1,4
200,32,68983,5,0
336,96,69391,2,0,B|424:96,2,75,0|2|0
336,168,70003,1,0
336,168,70207,1,0
392,304,70616,1,0
256,368,71024,5,0
219,302,71228,1,2
293,302,71432,1,0
256,236,71636,2,0,B|256:156,1,75,0|4
256,8,72248,5,0
200,64,72452,1,2
144,120,72656,1,0
256,8,73064,1,0
312,64,73269,1,2
368,120,73473,1,0
496,192,73881,6,0,B|393:193|393:193|388:255|328:312|243:257|241:216,1,300,0|2
314,196,74901,2,0,B|284:148|230:164|230:164,1,75,0|4
184,32,75513,2,0,B|157:81|198:120|198:120,1,75,0|2
185,103,75922,1,0
96,224,76330,2,0,B|152:222|165:167|165:167,1,75,0|2
157,186,76738,1,0
256,192,77146,12,4,78371
144,192,78779,6,0,B|48:192,2,75,0|2|0
256,288,79595,2,0,B|256:368,2,75,0|2|0
368,192,80411,2,0,B|464:192,2,75,0|2|0
256,88,81228,1,0
256,88,81636,1,4
216,232,82044,6,0,B|216:336|144:360|144:360,1,150,0|0
296,232,82860,2,0,B|296:336|368:360|368:360,1,150,0|0
372,208,83677,2,0,B|344:128|256:104|160:128|136:219,1,300,0|0
256,304,84901,1,4
104,320,85309,5,0
48,264,85513,1,2
32,192,85718,1,0
40,40,86126,1,0
88,96,86330,1,2
104,168,86534,1,0
184,296,86942,5,0
216,232,87146,2,0,B|176:136,1,75,2|0
256,128,87554,1,0
328,160,87758,2,0,B|288:256,1,75,0|2
328,296,88167,1,4
472,264,88575,6,0,B|520:192|468:113|468:113,1,150,8|0
448,48,89187,2,0,B|384:120|296:80|296:80,1,150,8|0
248,48,89799,2,0,B|200:0,2,37.5,0|8|0
240,120,90207,2,0,B|162:158|167:251|167:251,1,150,8|0
168,320,90820,2,0,B|184:352|212:356|212:356,4,37.5,8|0|4|0|8
96,288,91432,1,4
256,192,102860,12,0,104493
256,336,104901,5,8
112,288,105309,1,0
256,240,105718,1,8
400,192,106126,1,0
256,144,106534,1,8
112,96,106942,1,0
256,48,107350,1,8
168,168,107758,6,0,B|152:240|80:216|80:216|20:216,2,150,0|8|0
256,48,108983,1,8
344,168,109391,2,0,B|360:240|432:216|432:216|492:216,2,150,0|8|0
256,288,110616,2,0,B|256:368,2,75,8|8|4
192,152,111432,6,0,B|120:88,2,75,8|0|0
256,16,112248,2,0,B|256:112,2,75,8|0|0
320,152,113064,2,0,B|392:88,2,75,8|0|0
456,216,113881,5,8
392,352,114289,1,0
256,296,114697,1,8
120,352,115105,1,0
56,216,115513,1,8
256,192,115922,12,0,117146
256,72,117554,5,4
368,168,117962,1,0
336,312,118371,1,0
184,312,118779,1,4
144,168,119187,1,4
144,168,120207,6,2,B|248:168,3,75,2|2|2|0
312,288,121228,2,0,B|248:216,2,75,0|2|0
392,160,122044,2,0,B|328:216,2,75,2|2|0
392,160,123473,6,0,B|392:72,3,75,2|2|2|0
360,232,124493,2,0,B|312:176,2,75,0|2|0
224,296,125309,2,6,B|288:240,2,75,2|2|2
224,296,126738,5,2
172,240,126942,2,0,B|141:266|148:327,2,75,2|2|0
228,100,127758,2,0,B|220:60|164:36,2,75,0|2|0
332,208,128575,2,0,B|370:221|419:184,2,75,0|2|0
256,192,129799,12,4,130616
144,192,131024,5,2
200,240,131228,1,0
256,288,131432,1,8
368,184,131840,2,0,B|304:240,2,75,0|0|2
312,136,132452,1,8
256,88,132656,1,2
200,136,132860,1,8
144,192,133064,2,0,B|48:192,2,75,2|0|2
200,240,133677,1,8
256,288,133881,1,4
405,288,134289,5,0
405,138,134697,1,2
330,138,134901,2,0,B|256:144|256:88|256:144|171:140,1,150
110,140,135513,1,0
256,192,135922,1,8
405,246,136330,5,0
332,248,136534,2,0,B|258:242|258:298|258:242|173:246,1,150,2|0
110,244,137146,1,4
192,368,137554,1,0
256,336,137758,1,2
320,368,137962,1,8
256,232,138371,5,0
256,80,138779,1,2
328,216,139187,2,6,B|344:184|392:168|392:168,2,75,0|2|0
256,232,139799,1,0
184,216,140003,2,6,B|168:184|120:168|120:168,1,75,2|4
128,96,140411,2,0,B|128:56,15,37.5
256,192,142044,12,0,143677
152,120,145309,6,0,B|88:192|160:272|160:272,1,150,4|0
216,232,145922,1,2
287,255,146126,2,0,B|215:319|135:247|135:247,1,150,0|0
96,312,146738,1,2
87,242,146942,2,0,B|0:269|11:353|60:400|126:372,2,225,0|0|0
224,312,148575,1,4
87,242,148983,6,0,B|174:215|163:131|114:84|48:112,1,225
79,172,149799,2,0,B|36:179|16:227,2,75,2|0|0
200,80,150616,2,0,B|176:48|136:32,2,75,0|2|0
256,216,151432,2,0,B|232:248|264:304,2,75,0|2|0
352,96,152248,6,0,B|391:100|424:45,2,75,0|2|0
464,192,153064,1,0
400,232,153269,1,2
464,272,153473,1,0
320,320,153881,5,0
256,360,154085,1,2
192,320,154289,1,0
256,280,154493,1,0
256,208,154697,2,0,B|256:192|248:168|232:160|232:160|256:160|280:160|280:160|264:152|256:136|256:104|256:104,1,150,0|4
128,192,155513,6,0,B|88:200|43:156,2,75,8|0|0
256,120,156330,1,8
256,120,156534,1,0
256,120,156738,1,0
384,192,157146,2,0,B|424:200|469:156,2,75,8|0|0
256,272,157962,5,0
256,344,158167,1,2
184,344,158371,1,4
184,200,158779,1,0
112,200,158983,1,2
112,272,159187,1,0
112,272,159595,6,0,B|208:272,1,75
184,200,160003,2,0,B|184:144|232:120,1,75
264,192,160411,2,2,B|264:280,1,75
344,264,160820,2,0,B|344:320|296:344,2,75,0|0|2
344,189,161432,2,0,B|440:189,1,75,2|4
444,41,162044,5,0
294,40,162452,1,0
219,40,162656,1,2
192,112,162860,1,0
256,160,163064,1,0
320,112,163269,1,0
256,248,163677,5,2
128,320,164085,1,0
184,368,164289,1,2
256,376,164493,1,0
328,368,164697,1,0
384,320,164901,1,4
336,176,165309,6,0,B|376:200|424:200|424:200,2,75,0|2|0
176,176,166126,2,0,B|136:200|88:200|88:200,2,75,0|2|0
256,48,166942,2,0,B|256:136,1,75,0|2
256,200,167350,1,0
208,256,167554,1,0
256,312,167758,1,0
304,256,167962,1,4
256,200,168167,6,0,B|256:152,15,37.5
256,192,169799,12,0,171432
