osu file format v9

[General]
AudioFilename: 25112_newgrounds_b0unc3.mp3
AudioLeadIn: 0
PreviewTime: 52055
Countdown: 2
SampleSet: Soft
StackLeniency: 0.7
Mode: 0
LetterboxInBreaks: 1

[Editor]
Bookmarks: 171428
DistanceSpacing: 1
BeatDivisor: 4
GridSize: 8

[Metadata]
Title:Bleeding Heart
Artist:B0UNC3
Creator:Tatsuo
Version:Soft Core
Source:Newgrounds
Tags:Trance Nivalis

[Difficulty]
HPDrainRate:2
CircleSize:3
OverallDifficulty:2
ApproachRate:2
SliderMultiplier:1.2
SliderTickRate:2

[Events]
//Background and Video events
0,0,"Bleeding_Heart800.jpg"
//Break Periods
2,39387,47423
2,91632,101300
//Storyboard Layer 0 (Background)
//Storyboard Layer 1 (Fail)
//Storyboard Layer 2 (Pass)
//Storyboard Layer 3 (Foreground)
//Storyboard Sound Samples
//Background Colour Transformations
3,100,163,162,255

[TimingPoints]
13065,408.163265306122,4,2,1,40,1,0
13269,-100,4,2,1,70,0,0
14493,-100,4,2,1,60,0,0
14901,-100,4,2,1,70,0,0
16126,-100,4,2,1,70,0,0
16534,-100,4,2,1,70,0,0
17758,-100,4,2,1,60,0,0
18167,-100,4,2,1,70,0,0
18575,-100,4,2,1,60,0,0
18983,-100,4,2,1,70,0,0
19391,-100,4,2,1,60,0,0
19799,-100,4,2,1,70,0,0
21024,-100,4,2,1,60,0,0
21432,-100,4,2,1,70,0,0
22656,-100,4,2,1,60,0,0
23065,-100,4,2,1,70,0,0
24289,-100,4,2,1,60,0,0
24697,-100,4,2,1,70,0,0
25105,-100,4,2,1,60,0,0
25513,-100,4,2,1,70,0,0
25922,-100,4,2,1,40,0,0
26330,-100,4,2,1,70,0,0
39085,-100,4,2,1,40,0,0
39289,-100,4,2,1,70,0,0
48983,-100,4,2,1,0,0,0
49391,-100,4,2,1,15,0,0
49799,-100,4,2,1,20,0,0
50207,-100,4,2,1,30,0,0
50616,-100,4,2,1,40,0,0
51024,-100,4,2,1,50,0,0
51432,-100,4,2,1,60,0,0
51840,-100,4,2,1,70,0,0
52452,-100,4,2,1,70,0,0
58983,-100,4,2,1,30,0,0
59289,-100,4,2,1,70,0,0
59799,-100,4,2,1,30,0,0
60207,-100,4,2,1,70,0,0
60616,-100,4,2,1,30,0,0
60922,-100,4,2,1,70,0,0
61432,-100,4,2,1,30,0,0
61738,-100,4,2,1,70,0,0
62248,-100,4,2,1,30,0,0
62656,-100,4,2,1,70,0,0
63065,-100,4,2,1,30,0,0
63473,-100,4,2,1,70,0,0
63677,-100,4,2,1,30,0,0
65309,-100,4,2,1,70,0,0
65513,-100,4,2,1,30,0,0
65820,-100,4,2,1,70,0,0
66330,-100,4,2,1,30,0,0
66738,-100,4,2,1,70,0,0
67146,-100,4,2,1,30,0,0
67452,-100,4,2,1,70,0,0
67962,-100,4,2,1,30,0,0
68269,-100,4,2,1,70,0,0
68779,-100,4,2,1,30,0,0
69187,-100,4,2,1,70,0,0
69697,-100,4,2,1,30,0,0
70003,-100,4,2,1,70,0,0
70411,-100,4,2,1,30,0,0
70820,-100,4,2,1,70,0,0
71330,-100,4,2,1,30,0,0
71636,-100,4,2,1,70,0,0
72044,-100,4,2,1,30,0,0
72350,-100,4,2,1,70,0,0
72860,-100,4,2,1,30,0,0
73269,-100,4,2,1,70,0,0
73677,-100,4,2,1,30,0,0
73983,-100,4,2,1,70,0,0
74493,-100,4,2,1,30,0,0
74799,-100,4,2,1,70,0,0
75309,-100,4,2,1,30,0,0
75718,-100,4,2,1,70,0,0
76126,-100,4,2,1,30,0,0
76534,-100,4,2,1,70,0,0
76738,-100,4,2,1,30,0,0
78371,-100,4,2,1,70,0,1
78575,-100,4,2,1,30,0,1
78881,-100,4,2,1,70,0,1
79391,-100,4,2,1,30,0,1
79697,-100,4,2,1,70,0,1
80207,-100,4,2,1,30,0,1
80616,-100,4,2,1,70,0,1
81024,-100,4,2,1,30,0,1
81330,-100,4,2,1,70,0,1
81840,-100,4,2,1,30,0,1
82146,-100,4,2,1,70,0,1
82656,-100,4,2,1,30,0,1
82962,-100,4,2,1,70,0,1
83473,-100,4,2,1,30,0,1
83779,-100,4,2,1,70,0,1
84289,-100,4,2,1,30,0,1
84595,-100,4,2,1,70,0,1
85105,-100,4,2,1,30,0,1
85513,-100,4,2,1,70,0,1
86024,-100,4,2,1,30,0,1
86228,-100,4,2,1,70,0,1
86738,-100,4,2,1,30,0,1
87146,-100,4,2,1,70,0,1
87554,-100,4,2,1,30,0,1
87962,-100,4,2,1,70,0,1
88473,-100,4,2,1,30,0,1
88677,-100,4,2,1,70,0,1
89187,-100,4,2,1,30,0,1
89595,-100,4,2,1,70,0,1
89799,-100,4,2,1,30,0,1
91432,-100,4,2,1,70,0,0
102860,-100,4,2,1,20,0,0
104493,-100,4,2,1,70,0,0
104697,-100,4,2,1,30,0,0
105003,-100,4,2,1,70,0,0
105616,-100,4,2,1,30,0,0
105820,-100,4,2,1,70,0,0
106330,-100,4,2,1,30,0,0
106738,-100,4,2,1,70,0,0
107146,-100,4,2,1,30,0,0
107554,-100,4,2,1,70,0,0
108064,-100,4,2,1,30,0,0
108269,-100,4,2,1,70,0,0
108779,-100,4,2,1,30,0,0
109187,-100,4,2,1,70,0,0
109595,-100,4,2,1,30,0,0
110003,-100,4,2,1,70,0,0
110411,-100,4,2,1,30,0,0
110922,-100,4,2,1,70,0,0
111228,-100,4,2,1,30,0,0
111636,-100,4,2,1,70,0,0
112044,-100,4,2,1,30,0,0
112350,-100,4,2,1,70,0,0
112962,-100,4,2,1,30,0,0
113167,-100,4,2,1,70,0,0
113677,-100,4,2,1,30,0,0
114085,-100,4,2,1,70,0,0
114493,-100,4,2,1,30,0,0
114901,-100,4,2,1,70,0,0
115411,-100,4,2,1,30,0,0
115616,-100,4,2,1,70,0,0
115922,-100,4,2,1,20,0,0
117554,-100,4,2,1,50,0,0
117758,-100,4,2,1,70,0,0
130411,-100,4,2,1,50,0,0
130718,-100,4,2,1,70,0,0
142044,-100,4,2,1,0,0,0
142452,-100,4,2,1,15,0,0
142860,-100,4,2,1,20,0,0
143269,-100,4,2,1,30,0,0
143677,-100,4,2,1,40,0,0
144085,-100,4,2,1,50,0,0
144493,-100,4,2,1,60,0,0
144901,-100,4,2,1,70,0,0
145309,-100,4,2,1,70,0,0
146330,-100,4,2,1,30,0,0
146738,-100,4,2,1,70,0,0
147248,-100,4,2,1,30,0,0
147452,-100,4,2,1,70,0,0
147962,-100,4,2,1,30,0,0
148269,-100,4,2,1,70,0,0
148779,-100,4,2,1,30,0,0
149085,-100,4,2,1,70,0,0
149595,-100,4,2,1,30,0,0
149901,-100,4,2,1,70,0,0
150513,-100,4,2,1,30,0,0
150718,-100,4,2,1,70,0,0
151228,-100,4,2,1,30,0,0
151534,-100,4,2,1,70,0,0
152044,-100,4,2,1,30,0,0
152350,-100,4,2,1,70,0,0
152962,-100,4,2,1,30,0,0
153167,-100,4,2,1,70,0,0
153779,-100,4,2,1,30,0,0
153983,-100,4,2,1,70,0,0
154493,-100,4,2,1,30,0,0
154799,-100,4,2,1,70,0,0
155309,-100,4,2,1,30,0,0
155616,-100,4,2,1,70,0,0
156126,-100,4,2,1,30,0,0
156534,-100,4,2,1,70,0,0
156942,-100,4,2,1,30,0,0
157248,-100,4,2,1,70,0,0
157758,-100,4,2,1,30,0,0
158167,-100,4,2,1,70,0,0
158677,-100,4,2,1,30,0,0
158881,-100,4,2,1,70,0,0
159391,-100,4,2,1,30,0,0
159799,-100,4,2,1,70,0,0
160309,-100,4,2,1,30,0,0
160513,-100,4,2,1,70,0,0
161024,-100,4,2,1,30,0,0
161330,-100,4,2,1,70,0,0
161942,-100,4,2,1,30,0,0
162146,-100,4,2,1,70,0,0
162758,-100,4,2,1,30,0,0
162962,-100,4,2,1,70,0,0
163575,-100,4,2,1,30,0,0
163779,-100,4,2,1,70,0,0
164391,-100,4,2,1,30,0,0
164595,-100,4,2,1,70,0,0
165105,-100,4,2,1,30,0,0
165513,-100,4,2,1,70,0,0
165922,-100,4,2,1,30,0,0
166330,-100,4,2,1,70,0,0
166840,-100,4,2,1,30,0,0
167044,-100,4,2,1,70,0,0
167554,-100,4,2,1,30,0,0
167962,-100,4,2,1,70,0,0
168167,-100,4,2,1,30,0,0

[Colours]
Combo1 : 125,0,0
Combo2 : 81,81,81

[HitObjects]
48,40,13065,2,0,B|112:48|160:80|192:128|184:216,1,240,4|0
112,304,14289,1,0
232,336,14697,2,0,B|304:360|368:344|408:320|448:232,1,240,2|0
336,184,15922,1,0
440,128,16330,2,0,B|432:56|368:24|296:24|232:72,2,240,2|0|2
336,184,18371,5,0
296,296,18779,1,2
192,240,19187,1,0
232,128,19595,6,0,B|224:56|152:32|56:40|64:136|64:136,1,240,2|0
144,216,20820,1,0
256,264,21228,2,0,B|264:336|336:360|432:352|424:256|424:256,1,240,2|0
344,176,22452,1,0
256,96,22860,2,0,B|216:136|216:136|272:168|272:168|216:200|216:200|264:248,2,240,2|0|2
376,104,24901,5,0
424,216,25309,1,2
360,320,25718,1,0
240,296,26126,5,4
120,320,26534,2,0,B|40:296,2,60
168,208,27350,1,0
72,136,27758,1,0
168,64,28167,1,0
264,136,28575,5,0
360,64,28983,2,0,B|432:64|464:112,1,120
376,192,29799,2,0,B|408:240|488:248,1,120
376,304,30616,2,0,B|328:368,2,60
272,248,31432,1,0
272,128,31840,6,0,B|272:48,2,60
160,80,32656,1,0
88,176,33065,1,0
160,272,33473,1,0
248,328,33881,6,0,B|272:360|344:304,2,60
320,232,34697,1,0
424,296,35105,1,0
416,176,35513,2,0,B|352:88,2,60
296,168,36330,5,0
248,136,36534,1,0
200,168,36738,1,0
192,288,37146,5,0
240,328,37350,1,0
288,288,37554,1,0
392,232,37962,6,0,B|472:232,2,60
272,232,38779,2,0,B|192:232,2,60,0|0|4
256,192,48983,12,4,52248
256,192,53065,5,0
168,272,53473,2,0,B|200:320|280:328,1,120
392,328,54289,2,0,B|462:321|494:273,1,120
392,208,55105,1,0
328,312,55513,1,0
264,208,55922,6,0,B|320:152,2,60
168,144,56738,2,0,B|104:88,2,60
160,264,57554,2,0,B|120:328,2,60
80,176,58371,5,0
80,56,58779,1,0
184,120,59187,6,0,B|184:56,2,60,8|0|0
296,72,60003,1,8
336,184,60411,1,0
232,232,60820,6,0,B|280:320|352:296,1,120,8|0
232,232,61636,2,0,B|184:320|112:296,1,120,8|0
232,232,62452,1,8
232,112,62860,1,0
336,168,63269,1,8
256,192,63677,12,4,65309
376,104,66126,5,0
256,128,66534,1,8
320,224,66942,1,0
224,296,67350,2,0,B|120:296,2,60,8|0|0
224,176,68167,2,0,B|304:176,2,60,8|0|0
136,96,68983,5,8
56,184,69391,2,0,B|128:200|128:296,1,120,0|8
32,344,70207,1,0
152,344,70616,1,8
240,256,71024,2,0,B|300:197,2,60,0|0|8
320,344,71840,5,0
432,312,72248,2,0,B|488:280|480:208,1,120,8|0
360,208,73064,1,8
416,104,73473,1,0
296,104,73881,6,0,B|224:64,2,60,8|0|0
232,208,74697,2,0,B|296:240,2,60,8|0|0
168,104,75513,1,8
104,208,75922,1,0
168,312,76330,1,8
256,192,76738,12,4,78371
256,192,79187,5,0
376,192,79595,2,0,B|440:200|456:272,1,120,8|0
344,304,80411,1,8
248,232,80820,1,0
152,304,81228,2,0,B|81:288|73:224,1,120,8|0
144,128,82044,6,0,B|96:72,2,60,8|0|0
264,104,82860,1,8
264,104,83064,1,0
264,104,83269,1,0
336,200,83677,2,0,B|408:200,2,60,8|0|0
232,264,84493,2,0,B|192:320,2,60,8|0|0
160,168,85309,5,8
256,96,85718,2,0,B|328:64|384:112,1,120,0|8
408,152,86330,1,0
432,208,86534,1,0
344,288,86942,5,8
240,344,87350,1,0
136,288,87758,1,8
240,224,88167,2,0,B|240:88,2,120,0|8|0
136,168,89391,1,8
256,192,89799,12,4,91432
256,192,102860,12,4,104493
264,96,105309,6,0,B|392:128,1,120,0|8
304,224,106126,1,0
200,288,106534,1,8
240,176,106942,1,0
136,240,107350,1,8
48,160,107758,6,0,B|48:288,2,120,0|8|0
152,104,108983,1,8
256,48,109391,1,0
360,104,109799,1,8
464,160,110207,1,0
360,216,110616,6,0,B|288:232,2,60,8|8|0
288,312,111432,1,8
184,256,111840,1,0
224,144,112248,2,8,B|352:96,2,120,8|0|8
112,184,113473,5,0
144,72,113881,1,8
256,40,114289,1,0
368,72,114697,1,8
400,184,115105,2,0,B|400:256|328:304,1,120,0|8
256,192,115922,12,4,117554
352,72,118371,5,0
352,312,119187,2,0,B|248:344|176:328|112:272,1,240
96,168,120411,1,0
215,168,120820,2,0,B|295:168|327:120,2,120
152,272,122044,2,0,B|272:296,1,120
464,160,123269,6,0,B|424:296,1,120
320,312,124085,1,0
352,200,124493,1,0
272,112,124901,2,0,B|184:120|176:192,1,120
160,296,125718,1,0
64,80,126534,5,0
160,152,126942,1,0
264,96,127350,2,0,B|304:48|384:56,2,120
264,216,128575,2,0,B|304:272|384:272,1,120
136,192,129799,5,0
208,288,130207,1,0
264,184,130616,2,0,B|288:120|352:96,2,120,4|0|0
336,280,131840,1,0
416,192,132248,6,0,B|472:136,2,60
336,104,133064,2,0,B|280:56,2,60
248,192,133881,2,0,B|168:216|176:304,2,120
160,112,135105,2,0,B|160:176|87:197,2,120
272,80,136330,2,0,B|400:144,1,120
344,248,137146,5,0
232,296,137554,1,0
120,248,137962,2,0,B|56:216|64:136,2,120
208,168,139187,5,0
240,120,139391,1,0
296,128,139595,1,0
296,248,140003,2,0,B|296:336|208:336,1,120
136,256,140820,6,0,B|72:216,2,60
176,144,141636,1,0
256,192,142044,12,4,145309
184,112,146126,5,0
288,168,146534,1,8
240,280,146942,2,0,B|176:328|112:296,2,120,0|8|0
360,280,148167,2,0,B|480:328,1,120,8|0
432,208,148983,6,0,B|432:120,2,60,8|0|0
320,160,149799,2,0,B|264:104|208:96,2,120,8|0|8
216,216,151024,1,0
264,328,151432,2,0,B|203:348|147:316,1,120,8|0
88,208,152248,6,0,B|48:160|112:144|72:88,2,120,8|0|8
200,208,153473,2,0,B|280:208|336:160,1,120,0|8
224,96,154289,1,0
344,96,154697,2,0,B|416:96|448:144,1,120,8|0
400,256,155513,6,0,B|368:320,2,60,8|0|0
280,248,156330,1,8
192,328,156738,1,0
104,248,157146,2,0,B|48:224|48:144,1,120,8|0
168,152,157962,1,8
280,112,158371,6,0,B|416:64,2,120,0|8|0
336,216,159595,1,8
440,280,160003,2,0,B|408:336|312:328,2,120,0|8|0
440,160,161228,6,0,B|408:104|312:112,2,120,8|0|8
336,216,162452,2,0,B|208:216,3,120,0|8|0|8
96,216,164085,2,0,B|64:168|120:152|80:88,2,120,0|8|0
168,312,165309,5,8
272,248,165718,1,0
376,312,166126,1,8
480,248,166534,2,0,B|480:104,2,120,0|8|0
376,192,167758,1,8
256,192,168167,12,4,171432
