osu file format v9

[General]
AudioFilename: 25112_newgrounds_b0unc3.mp3
AudioLeadIn: 0
PreviewTime: 52260
Countdown: 2
SampleSet: Soft
StackLeniency: 0.7
Mode: 0
LetterboxInBreaks: 1

[Editor]
Bookmarks: 171432
DistanceSpacing: 1.4
BeatDivisor: 4
GridSize: 8

[Metadata]
Title:Bleeding Heart
Artist:B0UNC3
Creator:Tatsuo
Version:Hard Style
Source:Newgrounds
Tags:Trance Nivalis

[Difficulty]
HPDrainRate:7
CircleSize:4
OverallDifficulty:8
ApproachRate:8
SliderMultiplier:1.8
SliderTickRate:2

[Events]
//Background and Video events
0,0,"Bleeding_Heart800.jpg"
//Break Periods
2,39387,49866
2,91632,102519
//Storyboard Layer 0 (Background)
//Storyboard Layer 1 (Fail)
//Storyboard Layer 2 (Pass)
//Storyboard Layer 3 (Foreground)
//Storyboard Sound Samples
//Background Colour Transformations
3,100,163,162,255

[TimingPoints]
13065,408.163265306122,4,2,1,70,1,0
13371,-100,4,2,1,60,0,0
13575,-100,4,2,1,70,0,0
13779,-100,4,2,1,60,0,0
13983,-100,4,2,1,70,0,0
14187,-100,4,2,1,60,0,0
14391,-100,4,2,1,70,0,0
14595,-100,4,2,1,60,0,0
14799,-100,4,2,1,70,0,0
15003,-100,4,2,1,60,0,0
15207,-100,4,2,1,70,0,0
15411,-100,4,2,1,60,0,0
15616,-100,4,2,1,70,0,0
15820,-100,4,2,1,60,0,0
16024,-100,4,2,1,70,0,0
16228,-100,4,2,1,60,0,0
16432,-100,4,2,1,70,0,0
16636,-100,4,2,1,60,0,0
16840,-100,4,2,1,70,0,0
17044,-100,4,2,1,60,0,0
17248,-100,4,2,1,70,0,0
17452,-100,4,2,1,60,0,0
17656,-100,4,2,1,70,0,0
17860,-100,4,2,1,60,0,0
18064,-100,4,2,1,70,0,0
18269,-100,4,2,1,60,0,0
18473,-100,4,2,1,70,0,0
18677,-100,4,2,1,60,0,0
18881,-100,4,2,1,70,0,0
19085,-100,4,2,1,60,0,0
19289,-100,4,2,1,70,0,0
19493,-100,4,2,1,60,0,0
19697,-100,4,2,1,70,0,0
19901,-100,4,2,1,60,0,0
20105,-100,4,2,1,70,0,0
20309,-100,4,2,1,60,0,0
20513,-100,4,2,1,70,0,0
20718,-100,4,2,1,60,0,0
20922,-100,4,2,1,70,0,0
21126,-100,4,2,1,60,0,0
21330,-100,4,2,1,70,0,0
21534,-100,4,2,1,60,0,0
21738,-100,4,2,1,70,0,0
21942,-100,4,2,1,60,0,0
22146,-100,4,2,1,70,0,0
22350,-100,4,2,1,60,0,0
22554,-100,4,2,1,70,0,0
22758,-100,4,2,1,60,0,0
22962,-100,4,2,1,70,0,0
23167,-100,4,2,1,60,0,0
23371,-100,4,2,1,70,0,0
23575,-100,4,2,1,60,0,0
23779,-100,4,2,1,70,0,0
23983,-100,4,2,1,60,0,0
24187,-100,4,2,1,70,0,0
24391,-100,4,2,1,60,0,0
24595,-100,4,2,1,70,0,0
24799,-100,4,2,1,60,0,0
25003,-100,4,2,1,70,0,0
25207,-100,4,2,1,60,0,0
25411,-100,4,2,1,70,0,0
25616,-100,4,2,1,60,0,0
25820,-100,4,2,1,70,0,0
50616,-100,4,2,1,20,0,0
52248,-100,4,2,1,70,0,0
52554,-100,4,1,1,40,0,0
52758,-100,4,2,1,70,0,0
52962,-100,4,1,1,40,0,0
53167,-100,4,2,1,70,0,0
53371,-100,4,1,1,40,0,0
53575,-100,4,2,1,70,0,0
53779,-100,4,1,1,40,0,0
53983,-100,4,2,1,70,0,0
54187,-100,4,1,1,40,0,0
54391,-100,4,2,1,70,0,0
54595,-100,4,1,1,40,0,0
54799,-100,4,2,1,70,0,0
55003,-100,4,1,1,40,0,0
55207,-100,4,2,1,70,0,0
55411,-100,4,1,1,40,0,0
55616,-100,4,2,1,70,0,0
55820,-100,4,1,1,40,0,0
56024,-100,4,2,1,70,0,0
56228,-100,4,1,1,40,0,0
56432,-100,4,2,1,70,0,0
56636,-100,4,1,1,40,0,0
56840,-100,4,2,1,70,0,0
57044,-100,4,1,1,41,0,0
57248,-100,4,2,1,70,0,0
57452,-100,4,1,1,40,0,0
57656,-100,4,2,1,70,0,0
57860,-100,4,2,1,70,0,0
57962,-100,4,1,1,40,0,0
58064,-100,4,2,1,70,0,0
58269,-100,4,1,1,40,0,0
58473,-100,4,1,1,40,0,0
58677,-100,4,1,1,40,0,0
58881,-100,4,2,1,70,0,0
59085,-100,4,2,1,30,0,0
59289,-100,4,2,1,70,0,0
59493,-100,4,1,1,40,0,0
59697,-100,4,2,1,70,0,0
59901,-100,4,2,1,30,0,0
60105,-100,4,2,1,70,0,0
60309,-100,4,1,1,40,0,0
60513,-100,4,2,1,70,0,0
60718,-100,4,2,1,30,0,0
60922,-100,4,2,1,70,0,0
61126,-100,4,1,1,40,0,0
61330,-100,4,2,1,70,0,0
61534,-100,4,2,1,30,0,0
61738,-100,4,2,1,70,0,0
61942,-100,4,1,1,30,0,0
62146,-100,4,2,1,70,0,0
62350,-100,4,2,1,30,0,0
62554,-100,4,2,1,70,0,0
62758,-100,4,1,1,40,0,0
62962,-100,4,2,1,70,0,0
63167,-100,4,2,1,30,0,0
63371,-100,4,2,1,70,0,0
63575,-100,4,1,1,40,0,0
63779,-100,4,2,1,70,0,0
63983,-100,4,2,1,30,0,0
64187,-100,4,2,1,70,0,0
64493,-100,4,2,1,20,0,0
65309,-100,4,2,1,70,0,0
65616,-100,4,2,1,30,0,0
65820,-100,4,2,1,70,0,0
66024,-100,4,1,1,30,0,0
66228,-100,4,2,1,70,0,0
66432,-100,4,2,1,30,0,0
66636,-100,4,2,1,70,0,0
66840,-100,4,1,1,40,0,0
67044,-100,4,2,1,70,0,0
67248,-100,4,2,1,30,0,0
67452,-100,4,2,1,70,0,0
67656,-100,4,1,1,40,0,0
67860,-100,4,2,1,70,0,0
68064,-100,4,2,1,30,0,0
68269,-100,4,2,1,70,0,0
68473,-100,4,1,1,40,0,0
68677,-100,4,2,1,70,0,0
68881,-100,4,2,1,30,0,0
69085,-100,4,2,1,70,0,0
69289,-100,4,1,1,40,0,0
69493,-100,4,2,1,70,0,0
69697,-100,4,2,1,30,0,0
69901,-100,4,2,1,70,0,0
70105,-100,4,1,1,40,0,0
70309,-100,4,2,1,70,0,0
70513,-100,4,2,1,30,0,0
70718,-100,4,2,1,70,0,0
70922,-100,4,1,1,40,0,0
71126,-100,4,2,1,70,0,0
71330,-100,4,2,1,30,0,0
71534,-100,4,1,1,30,0,0
71738,-100,4,1,1,40,0,0
71942,-100,4,2,1,70,0,0
72146,-100,4,2,1,30,0,0
72350,-100,4,2,1,70,0,0
72554,-100,4,1,1,40,0,0
72758,-100,4,2,1,70,0,0
72962,-100,4,2,1,30,0,0
73167,-100,4,2,1,70,0,0
73371,-100,4,1,1,40,0,0
73575,-100,4,2,1,70,0,0
73779,-100,4,2,1,30,0,0
73983,-100,4,2,1,70,0,0
74187,-100,4,1,1,40,0,0
74391,-100,4,2,1,70,0,0
74595,-100,4,2,1,30,0,0
74799,-100,4,2,1,70,0,0
75003,-100,4,1,1,40,0,0
75207,-100,4,2,1,70,0,0
75411,-100,4,2,1,30,0,0
75616,-100,4,2,1,70,0,0
75820,-100,4,1,1,40,0,0
76024,-100,4,2,1,70,0,0
76228,-100,4,2,1,30,0,0
76432,-100,4,2,1,70,0,0
76636,-100,4,1,1,40,0,0
76840,-100,4,2,1,70,0,0
77044,-100,4,2,1,30,0,0
77248,-100,4,2,1,70,0,0
77554,-100,4,2,1,20,0,0
78371,-100,4,2,1,70,0,1
78677,-100,4,2,1,30,0,1
78881,-100,4,2,1,70,0,1
79085,-100,4,1,1,40,0,1
79289,-100,4,2,1,70,0,1
79493,-100,4,2,1,30,0,1
79697,-100,4,2,1,70,0,1
79901,-100,4,1,1,40,0,1
80105,-100,4,2,1,70,0,1
80309,-100,4,2,1,30,0,1
80513,-100,4,2,1,70,0,1
80718,-100,4,1,1,40,0,1
80922,-100,4,2,1,70,0,1
81126,-100,4,2,1,30,0,1
81330,-100,4,2,1,70,0,1
81534,-100,4,1,1,40,0,1
81738,-100,4,2,1,70,0,1
81942,-100,4,2,1,30,0,1
82146,-100,4,2,1,70,0,1
82350,-100,4,1,1,40,0,1
82554,-100,4,2,1,70,0,1
82758,-100,4,2,1,30,0,1
82962,-100,4,2,1,70,0,1
83167,-100,4,1,1,40,0,1
83371,-100,4,2,1,70,0,1
83575,-100,4,2,1,30,0,1
83779,-100,4,2,1,70,0,1
83983,-100,4,1,1,40,0,1
84187,-100,4,2,1,70,0,1
84391,-100,4,2,1,40,0,1
84595,-100,4,2,1,70,0,1
84799,-100,4,1,1,40,0,1
85003,-100,4,2,1,70,0,1
85207,-100,4,2,1,30,0,1
85411,-100,4,2,1,70,0,1
85616,-100,4,1,1,40,0,1
85820,-100,4,2,1,70,0,1
86024,-100,4,2,1,30,0,1
86228,-100,4,2,1,70,0,1
86432,-100,4,1,1,40,0,1
86636,-100,4,2,1,70,0,1
86840,-100,4,2,1,30,0,1
87044,-100,4,2,1,70,0,1
87248,-100,4,1,1,40,0,1
87452,-100,4,2,1,70,0,1
87656,-100,4,2,1,40,0,1
87860,-100,4,2,1,70,0,1
88064,-100,4,1,1,40,0,1
88269,-100,4,2,1,70,0,1
88473,-100,4,2,1,30,0,1
88677,-100,4,2,1,70,0,1
88881,-100,4,1,1,40,0,1
89085,-100,4,2,1,70,0,1
89289,-100,4,2,1,30,0,1
89493,-100,4,2,1,70,0,1
89697,-100,4,1,1,40,0,1
89901,-100,4,2,1,70,0,1
90105,-100,4,2,1,30,0,1
90309,-100,4,2,1,70,0,1
90616,-100,4,2,1,20,0,1
91432,-100,4,2,1,70,0,0
103269,-100,4,2,1,20,0,0
104493,-100,4,2,1,70,0,0
104799,-100,4,2,1,30,0,0
105003,-100,4,2,1,70,0,0
105207,-100,4,1,1,40,0,0
105411,-100,4,2,1,70,0,0
105616,-100,4,2,1,30,0,0
105820,-100,4,2,1,70,0,0
106024,-100,4,1,1,40,0,0
106228,-100,4,2,1,70,0,0
106432,-100,4,2,1,30,0,0
106636,-100,4,2,1,70,0,0
106840,-100,4,1,1,40,0,0
107044,-100,4,2,1,70,0,0
107248,-100,4,2,1,30,0,0
107452,-100,4,2,1,70,0,0
107656,-100,4,1,1,40,0,0
107860,-100,4,2,1,70,0,0
108064,-100,4,2,1,30,0,0
108269,-100,4,2,1,70,0,0
108473,-100,4,1,1,40,0,0
108677,-100,4,2,1,70,0,0
108881,-100,4,2,1,30,0,0
109085,-100,4,2,1,70,0,0
109289,-100,4,1,1,40,0,0
109493,-100,4,2,1,70,0,0
109697,-100,4,2,1,30,0,0
109901,-100,4,2,1,70,0,0
110105,-100,4,1,1,40,0,0
110309,-100,4,2,1,70,0,0
110513,-100,4,2,1,30,0,0
110718,-100,4,2,1,30,0,0
110922,-100,4,1,1,40,0,0
111126,-100,4,2,1,70,0,0
111330,-100,4,2,1,30,0,0
111534,-100,4,2,1,70,0,0
111738,-100,4,1,1,40,0,0
111942,-100,4,2,1,70,0,0
112146,-100,4,2,1,30,0,0
112350,-100,4,2,1,70,0,0
112554,-100,4,1,1,40,0,0
112758,-100,4,2,1,70,0,0
112962,-100,4,2,1,30,0,0
113167,-100,4,2,1,70,0,0
113371,-100,4,1,1,40,0,0
113575,-100,4,2,1,70,0,0
113779,-100,4,2,1,30,0,0
113983,-100,4,2,1,70,0,0
114187,-100,4,1,1,40,0,0
114391,-100,4,2,1,70,0,0
114595,-100,4,2,1,30,0,0
114799,-100,4,2,1,70,0,0
115003,-100,4,1,1,40,0,0
115207,-100,4,2,1,70,0,0
115411,-100,4,2,1,30,0,0
115616,-100,4,2,1,70,0,0
115820,-100,4,1,1,40,0,0
116024,-100,4,2,1,70,0,0
116330,-100,4,2,1,20,0,0
117554,-200,4,2,1,70,0,0
119595,-200,4,2,1,0,0,0
119799,-200,4,2,1,70,0,0
129391,-200,4,2,1,20,0,0
130616,-100,4,2,1,70,0,0
130922,-100,4,2,1,60,0,0
131126,-100,4,2,1,70,0,0
131738,-100,4,2,1,60,0,0
131942,-100,4,2,1,70,0,0
132554,-100,4,2,1,60,0,0
132758,-100,4,2,1,70,0,0
133371,-100,4,2,1,60,0,0
133575,-100,4,2,1,70,0,0
134187,-100,4,2,1,60,0,0
134391,-100,4,2,1,70,0,0
135003,-100,4,2,1,60,0,0
135207,-100,4,2,1,70,0,0
135820,-100,4,2,1,60,0,0
136024,-100,4,2,1,70,0,0
136636,-100,4,2,1,60,0,0
136840,-100,4,2,1,70,0,0
137452,-100,4,2,1,60,0,0
137656,-100,4,2,1,70,0,0
138269,-100,4,2,1,60,0,0
138473,-100,4,2,1,70,0,0
139085,-100,4,2,1,60,0,0
139289,-100,4,2,1,70,0,0
139901,-100,4,2,1,60,0,0
140105,-100,4,2,1,70,0,0
140718,-100,4,2,1,60,0,0
140922,-100,4,2,1,70,0,0
141534,-100,4,2,1,60,0,0
141738,-100,4,2,1,70,0,0
142350,-100,4,2,1,60,0,0
142554,-100,4,2,1,70,0,0
143167,-100,4,2,1,60,0,0
143371,-100,4,2,1,70,0,0
143677,-100,4,2,1,20,0,0
145309,-100,4,2,1,70,0,0
145616,-100,4,2,1,30,0,0
145820,-100,4,2,1,70,0,0
146024,-100,4,1,1,40,0,0
146228,-100,4,2,1,70,0,0
146432,-100,4,2,1,30,0,0
146636,-100,4,2,1,70,0,0
146840,-100,4,1,1,40,0,0
147044,-100,4,2,1,70,0,0
147248,-100,4,2,1,30,0,0
147452,-100,4,2,1,70,0,0
147656,-100,4,1,1,40,0,0
147860,-100,4,2,1,70,0,0
148064,-100,4,2,1,30,0,0
148269,-100,4,2,1,70,0,0
148473,-100,4,1,1,40,0,0
148677,-100,4,2,1,70,0,0
148881,-100,4,2,1,30,0,0
149085,-100,4,2,1,70,0,0
149289,-100,4,1,1,40,0,0
149493,-100,4,2,1,70,0,0
149697,-100,4,2,1,30,0,0
149901,-100,4,2,1,70,0,0
150105,-100,4,1,1,40,0,0
150309,-100,4,2,1,70,0,0
150513,-100,4,2,1,30,0,0
150718,-100,4,2,1,70,0,0
150922,-100,4,1,1,40,0,0
151126,-100,4,2,1,70,0,0
151330,-100,4,2,1,30,0,0
151534,-100,4,1,1,40,0,0
151738,-100,4,1,1,40,0,0
151942,-100,4,2,1,70,0,0
152146,-100,4,2,1,30,0,0
152350,-100,4,2,1,70,0,0
152554,-100,4,1,1,40,0,0
152758,-100,4,2,1,70,0,0
152962,-100,4,2,1,30,0,0
153167,-100,4,2,1,70,0,0
153371,-100,4,1,1,40,0,0
153575,-100,4,2,1,70,0,0
153779,-100,4,2,1,30,0,0
153983,-100,4,2,1,70,0,0
154187,-100,4,1,1,40,0,0
154391,-100,4,2,1,70,0,0
154595,-100,4,2,1,30,0,0
154799,-100,4,2,1,70,0,0
155003,-100,4,1,1,40,0,0
155207,-100,4,2,1,70,0,0
155411,-100,4,2,1,30,0,0
155616,-100,4,2,1,70,0,0
155820,-100,4,1,1,40,0,0
156024,-100,4,2,1,70,0,0
156228,-100,4,2,1,30,0,0
156432,-100,4,2,1,70,0,0
156636,-100,4,1,1,40,0,0
156840,-100,4,2,1,70,0,0
157044,-100,4,2,1,30,0,0
157248,-100,4,2,1,70,0,0
157452,-100,4,1,1,40,0,0
157656,-100,4,2,1,70,0,0
157860,-100,4,2,1,30,0,0
158064,-100,4,1,1,40,0,0
158473,-100,4,2,1,70,0,0
158677,-100,4,2,1,30,0,0
158881,-100,4,2,1,70,0,0
159085,-100,4,1,1,40,0,0
159289,-100,4,2,1,70,0,0
159493,-100,4,2,1,30,0,0
159697,-100,4,2,1,70,0,0
159901,-100,4,1,1,40,0,0
160105,-100,4,2,1,70,0,0
160309,-100,4,2,1,30,0,0
160513,-100,4,2,1,70,0,0
160718,-100,4,1,1,40,0,0
160922,-100,4,2,1,70,0,0
161126,-100,4,2,1,30,0,0
161330,-100,4,2,1,70,0,0
161534,-100,4,1,1,40,0,0
161738,-100,4,2,1,70,0,0
161942,-100,4,2,1,30,0,0
162146,-100,4,2,1,70,0,0
162350,-100,4,1,1,40,0,0
162554,-100,4,2,1,70,0,0
162758,-100,4,2,1,30,0,0
162962,-100,4,2,1,70,0,0
163167,-100,4,1,1,40,0,0
163371,-100,4,2,1,70,0,0
163575,-100,4,2,1,30,0,0
163779,-100,4,2,1,70,0,0
163983,-100,4,1,1,40,0,0
164187,-100,4,2,1,70,0,0
164391,-100,4,2,1,30,0,0
164595,-100,4,1,1,40,0,0
164799,-100,4,1,1,40,0,0
165003,-100,4,2,1,70,0,0
165207,-100,4,2,1,30,0,0
165411,-100,4,2,1,70,0,0
165616,-100,4,1,1,40,0,0
165820,-100,4,2,1,70,0,0
166024,-100,4,2,1,30,0,0
166228,-100,4,2,1,70,0,0
166432,-100,4,1,1,40,0,0
166636,-100,4,2,1,70,0,0
166840,-100,4,2,1,30,0,0
167044,-100,4,2,1,70,0,0
167248,-100,4,1,1,40,0,0
167452,-100,4,2,1,70,0,0
167656,-100,4,2,1,30,0,0
167860,-100,4,2,1,30,0,0
168064,-100,4,2,1,30,0,0
168269,-100,4,2,1,30,0,0
168473,-100,4,2,1,30,0,0
168677,-100,4,2,1,70,0,0
168881,-100,4,1,1,40,0,0
169085,-100,4,2,1,70,0,0
169289,-100,4,2,1,30,0,0
169493,-100,4,2,1,30,0,0
169799,-100,4,2,1,20,0,0
171432,-100,4,2,1,70,0,0

[Colours]
Combo1 : 125,0,0
Combo2 : 81,81,81

[HitObjects]
40,40,13065,2,0,B|144:80,1,90
208,168,13473,1,2
120,264,13677,1,0
208,360,13881,2,0,B|312:336,1,90
208,248,14289,1,2
320,192,14493,1,0
424,120,14697,2,0,B|440:64|384:40,1,90
320,144,15105,2,0,B|280:200|328:232,1,90,2|0
432,200,15513,1,0
352,296,15718,1,0
240,240,15922,2,0,B|232:184|176:176,1,90,2|0
96,88,16330,6,0,B|208:88,1,90
96,176,16738,2,0,B|-15:176,1,90,2|0
96,264,17146,2,0,B|208:264,1,90
96,176,17554,1,2
200,104,17758,1,0
296,184,17962,1,0
392,104,18167,1,0
488,184,18371,1,2
392,272,18575,2,0,B|368:336|280:312,1,90
296,184,18983,2,0,B|272:144|216:152,1,90,0|2
176,280,19391,1,0
88,352,19595,6,0,B|24:344|32:256,1,90,0|0
160,288,20003,2,0,B|216:264|192:192,1,90,2|0
112,128,20411,2,0,B|112:232,1,90
232,176,20820,1,2
168,64,21024,1,0
296,64,21228,2,0,B|400:104,1,90
256,48,21636,1,2
312,168,21840,2,0,B|216:128,1,90
352,184,22248,1,0
240,240,22452,1,2
352,296,22656,1,0
240,352,22860,5,0
120,312,23065,2,0,B|56:304|64:224,1,90,0|2
192,216,23473,1,0
264,112,23677,2,0,B|328:120|320:200,1,90
192,216,24085,1,2
104,128,24289,1,0
192,40,24493,2,0,B|304:40,1,90
384,112,24901,2,0,B|264:112,1,90,2|0
296,240,25309,1,0
408,184,25513,2,0,B|464:208|464:272,1,90,0|2
344,304,25922,1,0
264,208,26126,5,4
72,48,26534,1,0
88,176,26738,1,0
168,272,26942,1,0
312,48,27350,2,0,B|416:112,1,90
288,168,27758,1,0
192,88,27962,1,0
176,216,28167,2,0,B|272:288,1,90
144,344,28575,1,0
56,256,28779,1,0
72,128,28983,1,0
152,32,29187,2,0,B|48:32,1,90
312,32,29799,5,0
472,232,30207,1,0
384,320,30411,1,0
296,232,30616,1,0
384,144,30820,1,0
288,64,31024,2,0,B|144:208,2,180
384,144,32044,1,0
296,232,32248,1,0
208,320,32452,1,0
120,232,32656,6,0,B|48:160|120:72,1,180
216,152,33269,1,0
216,280,33473,1,0
392,104,33881,1,0
448,216,34085,1,0
392,328,34289,1,0
184,184,34697,2,0,B|144:160|160:104,1,90
280,136,35105,2,0,B|312:168|304:224,1,90
192,272,35513,2,0,B|144:296|88:256,1,90
80,144,35922,1,0
320,72,36330,5,0
224,152,36534,1,0
272,272,36738,2,0,B|224:312|176:328|80:312,1,180
56,200,37350,1,0
176,240,37554,2,0,B|128:216|104:144|120:56,1,180
232,136,38167,1,0
336,208,38371,2,0,B|352:272|400:320|464:320,1,180
336,352,38983,1,0
264,248,39187,1,4
256,192,50616,12,4,52248
88,192,52656,5,0
216,192,52860,1,0
88,248,53065,1,0
216,248,53269,1,0
344,248,53473,1,0
416,144,53677,1,0
432,272,53881,2,0,B|352:328|256:296,1,180
144,248,54493,1,0
32,192,54697,1,0
256,72,55105,1,0
480,192,55513,1,0
256,312,55922,5,0
344,224,56126,1,0
256,128,56330,1,0
176,224,56534,1,0
152,104,56738,1,0
256,32,56942,1,0
360,104,57146,1,0
432,344,57554,2,0,B|432:232,1,90
432,128,57962,1,0
256,304,58371,1,0
128,304,58575,1,0
80,184,58779,1,0
288,40,59187,5,8
344,152,59391,1,0
288,40,59595,2,0,B|200:80|160:168,1,180,0|8
128,280,60207,1,0
248,256,60411,1,0
408,64,60820,2,0,B|448:96|432:160,1,90,8|0
336,208,61228,2,0,B|323:158|363:126,1,90
440,224,61636,1,8
344,312,61840,1,0
240,240,62044,1,0
64,64,62452,5,8
176,120,62656,1,0
192,248,62860,2,0,B|192:320|144:368|64:352,1,180,0|8
80,224,63473,1,0
200,184,63677,2,0,B|272:208|344:168|344:80,1,180,0|8
256,192,64493,12,4,65309
256,104,65718,5,8
160,192,65922,1,0
256,280,66126,2,0,B|336:280|376:240|392:184,1,180,0|8
336,72,66738,1,0
248,160,66942,2,0,B|224:208|152:200,1,90
152,72,67350,2,0,B|104:72|72:128,1,90,8|0
208,112,67758,1,0
104,184,67962,1,0
128,312,68167,2,0,B|72:304|56:224,1,90,8|0
192,232,68575,1,0
408,104,68983,5,8
296,328,69391,1,0
400,264,69595,1,0
296,192,69799,1,8
192,264,70003,1,0
80,328,70207,2,0,B|16:296|8:240|16:160,1,180,0|8
256,88,71024,1,0
360,160,71228,1,0
240,208,71432,1,8
400,232,71636,1,0
280,280,71840,1,0
48,176,72248,5,8
96,56,72452,1,0
200,128,72656,2,0,B|240:176|312:192|368:176,1,180,0|8
448,80,73269,1,0
448,208,73473,2,0,B|368:288,1,90
272,208,73881,2,0,B|192:280,1,90,8|0
296,352,74289,1,0
328,232,74493,1,0
256,128,74697,1,8
184,232,74901,1,0
112,128,75105,1,0
352,40,75513,5,8
416,152,75718,1,0
304,208,75922,2,0,B|280:256|208:280|136:264,1,180,0|8
256,328,76534,1,0
304,208,76738,2,0,B|328:256|400:280|472:264,1,180,0|8
256,192,77554,12,4,78371
464,336,78779,5,8
336,336,78983,1,0
208,320,79187,2,0,B|272:304|312:272|296:160,1,180,0|8
176,184,79799,1,0
128,64,80003,2,0,B|64:80|24:112|40:224,1,180,0|8
96,312,80616,1,0
40,200,80820,1,0
256,64,81228,1,8
472,200,81636,1,0
216,272,82044,5,8
288,168,82248,1,0
216,272,82452,1,0
464,336,82860,1,8
344,304,83064,1,0
256,208,83269,2,0,B|200:232|136:224|88:160,1,180,0|8
144,288,83881,1,0
272,280,84085,2,0,B|328:304|392:296|440:232,1,180,0|8
392,360,84697,1,0
264,352,84901,6,0,B|264:152,1,180,0|8
392,176,85513,1,0
328,72,85718,1,0
96,176,86126,1,8
144,296,86330,1,0
192,176,86534,2,0,B|240:216|312:216|368:176,1,180,0|8
280,280,87146,1,0
360,352,87350,2,0,B|416:352|448:288,1,90
472,192,87758,1,8
368,120,87962,1,0
368,248,88167,1,0
120,200,88575,5,8
216,280,88779,1,0
224,152,88983,2,0,B|280:192|360:160|376:96,1,180,0|8
264,40,89595,1,0
144,80,89799,2,0,B|144:272,1,180,0|8
256,192,90616,12,4,91432
256,192,103269,12,4,104493
408,88,104901,6,0,B|480:184,1,90,8|0
328,168,105309,2,0,B|400:256,1,90
256,256,105718,1,8
136,232,105922,2,0,B|196:165,1,90
72,152,106330,2,0,B|132:85,1,90,0|8
256,88,106738,1,0
256,216,106942,2,0,B|256:96,1,90
256,248,107350,5,8
344,336,107554,1,0
256,248,107758,1,0
168,336,107962,1,0
72,256,108167,2,0,B|16:240|24:184,1,90,8|0
152,200,108575,2,0,B|200:176|192:120,1,90
104,32,108983,2,0,B|104:128,1,90,8|0
216,56,109391,5,0
320,120,109595,2,0,B|384:128|376:208,1,90,0|8
272,248,110003,1,0
376,320,110207,1,0
480,248,110411,1,0
440,128,110616,1,8
312,128,110820,1,8
152,120,111024,6,0,B|96:128|80:200,1,90
192,240,111432,2,0,B|192:288|128:296,1,90,8|0
176,176,111840,1,0
72,248,112044,1,0
128,360,112248,1,8
248,328,112452,1,0
368,288,112656,2,0,B|368:408,1,90
488,328,113064,2,0,B|488:216,1,90,8|0
400,152,113473,5,0
344,40,113677,2,0,B|288:56|280:112,1,90,0|8
400,152,114085,1,0
344,264,114289,2,0,B|288:248|280:192,1,90
168,152,114697,1,8
296,152,114901,2,0,B|192:152,1,90
304,72,115309,1,0
176,72,115513,2,0,B|304:72,1,90,8|0
392,72,115922,1,0
256,192,116330,12,4,117554
224,112,117962,6,0,B|280:112|312:144,1,90
344,264,118779,1,0
304,312,118983,1,0
248,328,119187,2,0,B|176:328|136:280,2,112.5
240,264,120411,1,0
184,232,120616,1,0
120,216,120820,2,0,B|56:192|48:144,2,90
208,120,122044,1,0
208,120,122248,1,0
208,120,122452,1,0
448,320,123473,5,0
384,328,123677,1,0
320,312,123881,1,0
264,280,124085,2,0,B|208:248|216:192,1,90
215,209,124697,1,0
264,168,124901,1,0
192,64,125309,1,0
136,88,125513,1,0
112,144,125718,1,0
120,248,126738,5,0
168,288,126942,1,0
216,248,127146,1,0
264,288,127350,1,0
392,288,127758,1,0
352,240,127962,1,0
392,288,128167,1,0
472,200,128575,2,0,B|472:136,2,45
256,192,129391,12,4,130616
448,80,131024,5,2
400,200,131228,1,0
296,272,131432,1,0
120,72,131840,1,2
96,192,132044,1,0
176,288,132248,2,0,B|176:224|248:200,1,90
136,304,132656,2,0,B|88:248|128:192,1,90,2|0
104,344,133064,2,0,B|32:328|24:256,1,90
40,168,133473,1,2
152,104,133677,1,0
264,40,133881,6,0,B|312:24|368:40|400:88|384:160|384:160,2,180,0|2|0
264,168,134901,1,0
384,216,135105,1,2
288,296,135309,1,0
160,312,135513,2,0,B|216:304|256:280|280:232|272:160,2,180,0|2|0
80,216,136534,1,0
168,128,136738,1,2
80,40,136942,1,0
168,128,137146,5,0
408,200,137554,1,2
456,320,137758,1,0
328,304,137962,1,0
104,184,138371,1,2
56,64,138575,1,0
184,80,138779,1,0
432,80,139187,5,2
376,192,139391,1,0
432,80,139595,1,0
304,80,139799,1,0
248,192,140003,1,2
312,304,140207,1,0
248,192,140411,1,0
40,344,140820,5,2
152,280,141024,1,0
88,168,141228,2,0,B|120:144|176:128|224:144|264:176|264:176,1,180,0|2
344,264,141840,1,0
424,168,142044,2,0,B|392:144|336:128|288:144|248:176|248:176,1,180,0|2
176,264,142656,1,0
272,344,142860,2,0,B|88:344,1,180,0|2
256,192,143677,12,4,145309
120,296,145718,5,8
224,224,145922,1,0
344,200,146126,2,0,B|312:232|272:136|208:128|160:184,1,180,0|8
80,232,146738,1,0
64,104,146942,2,0,B|96:144|136:128|152:104|176:88|208:88|248:88,1,180,0|8
352,112,147554,1,0
464,192,147758,1,0
256,336,148167,1,8
48,192,148575,1,0
280,96,148983,5,8
408,96,149187,1,0
384,216,149391,1,0
136,168,149799,1,8
104,288,150003,1,0
232,288,150207,1,0
168,48,150616,2,0,B|208:128,2,90,8|0|0
312,256,151432,2,0,B|264:168,2,90,8|0|0
456,48,152248,5,8
472,176,152452,1,0
416,288,152656,2,0,B|384:328|344:344|288:352|232:320,1,180,0|8
344,248,153269,1,0
253,331,153473,2,0,B|208:352|160:352|120:336|88:280|88:280,1,180,0|8
96,160,154085,1,0
200,232,154289,1,0
144,120,154493,1,0
248,192,154697,1,8
192,80,154901,1,0
296,152,155105,1,0
464,336,155513,5,8
368,256,155718,1,0
440,152,155922,2,0,B|424:192|360:208|296:200|288:144|288:144,1,180,0|8
216,256,156534,1,0
140,152,156738,2,0,B|156:192|220:208|284:200|292:144|292:144,1,180,0|8
288,280,157350,1,0
184,344,157554,2,0,B|120:352|72:336|48:288|48:248,1,180,0|8
64,136,158167,1,0
152,48,158371,1,0
368,176,158779,5,8
448,80,158983,1,0
464,208,159187,2,0,B|456:264|400:296|360:288|312:264,1,180,0|8
240,176,159799,1,0
112,272,160003,2,0,B|64:256|48:192,1,90
168,248,160411,2,0,B|136:192|152:152,1,90,8|0
232,256,160820,1,0
352,216,161024,1,0
232,192,161228,1,8
352,152,161432,1,0
232,128,161636,1,0
376,336,162044,6,0,B|184:336,1,180
72,336,162656,1,0
184,272,162860,1,8
176,144,163064,1,0
280,72,163269,2,0,B|344:72|376:88|400:120|400:184,1,180,0|8
216,352,164085,1,0
328,288,164289,1,0
216,224,164493,1,8
328,160,164697,1,0
216,96,164901,1,0
352,312,165309,6,0,B|320:360|256:360|272:352,1,90,8|0
160,304,165718,1,0
408,240,166126,2,0,B|344:240|296:208,1,90,8|0
216,152,166534,1,0
464,72,166942,2,0,B|464:128|400:144,1,90,8|0
312,72,167350,1,0
248,184,167554,2,0,B|264:240|328:248,1,90,0|8
432,280,167962,1,0
312,320,168167,1,0
96,192,168575,5,8
120,56,168779,1,0
192,128,168983,2,0,B|232:176|288:184|328:184|368:152,1,180,0|8
256,192,169799,12,4,171432
