osu file format v9

[General]
AudioFilename: 08-b.o.b.-magic_(ft._rivers_cuomo).mp3
AudioLeadIn: 0
PreviewTime: 26022
Countdown: 0
SampleSet: Normal
StackLeniency: 0.4
Mode: 0
LetterboxInBreaks: 0

[Editor]
Bookmarks: 110386,180386
DistanceSpacing: 1.2
BeatDivisor: 2
GridSize: 8

[Metadata]
Title:Magic
Artist:B.o.B ft. Rivers Cuomo
Creator:Roddie
Version:Easy
Source:
Tags:The Adventures Of Bobby Ray Electropop

[Difficulty]
HPDrainRate:2
CircleSize:3
OverallDifficulty:2
ApproachRate:2
SliderMultiplier:0.7
SliderTickRate:1

[Events]
//Background and Video events
0,0,"BG.jpg"
//Break Periods
2,40826,42158
2,110645,111976
//Storyboard Layer 0 (Background)
//Storyboard Layer 1 (Fail)
//Storyboard Layer 2 (Pass)
//Storyboard Layer 3 (Foreground)
//Storyboard Sound Samples
//Background Colour Transformations
3,100,163,162,255

[TimingPoints]
5900,363.636363636364,4,1,0,60,1,0
29181,-100,4,1,0,60,0,1
40636,-100,4,1,0,60,0,0
75715,-100,4,1,0,60,0,1
75760,-100,4,1,0,60,0,0
98987,-100,4,1,0,60,0,1
110454,-100,4,1,0,60,0,0
145533,-100,4,1,0,60,0,1
145578,-100,4,1,0,60,0,0
168806,-100,4,1,0,60,0,1
180260,-100,4,1,0,60,0,0

[Colours]
Combo1 : 255,255,0
Combo2 : 128,128,192
Combo3 : 255,0,255
Combo4 : 128,64,64

[HitObjects]
128,80,5900,2,0,B|160:176|288:224,1,210,4|8
360,224,7354,2,0,B|360:144,3,70,4|8|0|8
360,72,8809,6,0,B|208:72,1,140
96,192,10263,2,0,B|240:192,1,140
360,184,11536,5,0
280,280,12081,1,8
168,336,12627,2,0,B|56:272|64:152,1,210,0|4
48,56,14263,1,8
136,56,14627,6,0,B|344:56,1,210,0|8
432,56,16081,2,0,B|488:120|440:184,1,140
312,288,17536,6,0,B|208:320|88:288,1,210,0|8
64,216,18990,1,4
152,128,19536,1,4
240,216,20081,1,8
296,280,20445,5,0
416,312,20990,2,0,B|464:224|400:128,1,175
304,72,22445,1,0
216,72,22809,1,0
136,168,23354,6,0,B|112:232|136:312,1,140
304,304,24809,2,0,B|336:232|304:152,1,140,4|0
264,96,25899,1,8
256,192,26263,12,0,28445
248,96,29172,6,0,B|200:144|192:224,2,140,4|0|0
360,160,31172,2,0,B|392:256|320:328,1,175
168,256,32809,2,0,B|152:168|232:120,2,140
320,328,34990,6,0,B|432:296|464:184,1,210,4|8
464,104,36445,2,0,B|160:104,1,280
256,344,38990,5,8
160,264,39536,2,0,B|112:152|232:72,1,210,0|4
432,88,43718,5,0
264,88,44445,1,0
96,88,45172,1,0
96,256,45900,6,0,B|392:256,1,280
368,88,48081,1,0
208,136,48809,1,0
112,272,49536,1,0
280,272,50263,2,0,B|280:360,2,70,0|8|0
88,104,52081,6,0,B|88:24,2,70,8|0|8
256,104,53536,2,0,B|256:24,2,70,8|0|8
384,160,54990,2,0,B|408:288|256:312,1,210,8|0
120,240,56809,2,0,B|88:160|160:96,1,140
256,240,58263,5,0
416,184,58990,1,0
288,80,59718,1,0
344,240,60445,2,0,B|304:168|232:144,1,140
80,96,61900,2,0,B|32:160|64:232,2,140
208,200,64081,5,4
320,72,64809,1,0
400,72,65172,2,0,B|424:192|312:272,1,210,8|0
208,136,66990,2,0,B|56:160,2,140
368,192,69172,5,0
312,352,69900,1,0
160,280,70627,1,0
120,208,70990,2,0,B|64:152|112:80,1,140,8|8
280,56,72445,2,0,B|352:104|320:192,1,140,8|8
176,248,73899,2,0,B|176:104,2,140,8|8|8
176,336,75718,6,0,B|272:352|368:304,1,175,4|0
424,216,77172,2,0,B|416:104|272:96,1,210,4|8
192,96,78627,5,0
88,232,79354,1,0
216,336,80081,2,0,B|280:304|308:231,1,140
416,104,81536,6,0,B|200:104,1,210,0|8
120,104,82990,2,0,B|48:144|56:240,2,140,4|0|0
240,72,84990,2,0,B|320:96|336:224,1,175
192,296,86627,1,0
192,128,87354,6,0,B|344:128,2,140,0|0|4
56,224,89536,1,0
192,320,90263,1,0
312,288,90809,1,0
400,200,91354,6,0,B|392:112|280:104,2,140,8|8|8
256,264,93536,1,8
136,144,94263,1,8
256,264,94990,1,8
336,232,95354,2,0,B|392:168|328:88,1,140
256,192,96445,12,0,98081
368,128,98990,5,4
256,248,99718,1,0
136,128,100445,2,0,B|288:128,1,140
448,128,101899,5,0
360,272,102627,1,0
224,168,103354,2,0,B|144:168|88:248,1,140
240,328,104809,5,4
360,208,105536,1,0
256,72,106263,2,0,B|160:80|112:144,1,140
256,240,107718,6,0,B|256:128,2,105,0|0|8
256,192,109172,12,4,110445
176,120,113536,6,0,B|208:192|144:272,1,140
312,312,114990,2,0,B|400:296|432:224,2,140
256,152,117172,1,0
152,288,117900,1,0
64,144,118627,2,0,B|112:96|192:64,1,140
312,176,120081,6,0,B|240:304|136:304,1,210,0|8
104,144,121900,1,8
136,64,122263,5,0
200,216,122990,1,0
344,120,123718,1,0
480,216,124445,1,0
344,312,125172,5,0
176,312,125899,1,0
72,176,126627,1,0
176,48,127354,1,0
288,176,128081,5,0
416,288,128809,1,0
416,120,129536,1,0
248,112,130263,1,0
256,192,130990,12,0,133172
144,136,133899,5,4
288,224,134627,1,0
384,88,135354,2,0,B|464:120|448:216,1,140
328,312,136809,5,0
200,208,137536,1,0
320,88,138263,2,0,B|240:56|160:72,1,140
56,184,139718,5,0
168,312,140445,1,0
336,312,141172,1,0
448,184,141899,1,0
256,192,142627,12,0,144809
152,96,145536,6,0,B|104:144|96:272,1,175,4|0
216,296,146990,2,0,B|272:312|344:272,2,105,4|4|8
152,240,148445,1,0
104,80,149172,1,0
272,72,149900,2,0,B|376:96|464:192,1,210,0|8
464,264,151354,6,0,B|376:264,1,70,0|8
264,264,152263,2,0,B|160:208,1,105,0|4
56,96,153536,1,0
224,72,154263,6,0,B|272:120|224:192,2,105,0|0|8
160,128,155718,1,0
160,296,156445,1,0
328,296,157172,6,0,B|384:328|432:320,2,105,0|0|8
192,192,158990,1,8
256,344,159718,1,8
320,288,160081,2,0,B|400:208|352:88,1,210,0|8
288,40,161536,1,0
176,104,162081,1,0
72,40,162627,1,8
56,120,162990,6,0,B|64:216|144:280,1,175
256,304,164445,1,4
336,208,164990,1,4
296,88,165536,1,8
256,192,165899,12,0,167900
192,144,168809,5,4
352,88,169536,1,0
408,248,170263,1,0
288,296,170809,1,0
168,248,171354,1,8
104,192,171718,6,0,B|144:120|232:112,2,140
192,280,173718,1,0
304,344,174263,1,8
368,288,174627,6,0,B|424:224|408:152,1,140,4|0
256,96,176081,2,0,B|184:80|112:152,1,140
256,192,177536,12,4,180263
