osu file format v12

[General]
AudioFilename: B.O.B - Airplanes (Feint Remix).mp3
AudioLeadIn: 0
PreviewTime: 41856
Countdown: 0
SampleSet: Soft
StackLeniency: 0.7
Mode: 0
LetterboxInBreaks: 0

[Editor]
Bookmarks: 199271
DistanceSpacing: 1
BeatDivisor: 4
GridSize: 4

[Metadata]
Title:Airplanes (Feint Remix)
TitleUnicode:Airplanes (Feint Remix)
Artist:B.o.B feat. Hayley Williams
ArtistUnicode:B.o.B feat. Hayley Williams
Creator:Snepif
Version:Normal
Source:
Tags:dnb drum and bass mix air planes bob rap hip hop
BeatmapID:237286
BeatmapSetID:83494

[Difficulty]
HPDrainRate:3
CircleSize:3
OverallDifficulty:4
ApproachRate:5
SliderMultiplier:1.1
SliderTickRate:1

[Events]
//Background and Video events
0,0,"BG.jpg",1,1
//Break Periods
2,64977,68970
2,132392,148015
//Storyboard Layer 0 (Background)
//Storyboard Layer 1 (Fail)
//Storyboard Layer 2 (Pass)
//Storyboard Layer 3 (Foreground)
//Storyboard Sound Samples
//Background Colour Transformations
3,100,163,162,255

[TimingPoints]
58,337.078651685393,4,1,0,100,1,0
20282,-133.333333333333,4,2,0,85,0,0
40507,-133.333333333333,4,3,1,85,0,0
41855,-133.333333333333,4,3,0,85,0,0
43204,-100,4,1,0,85,0,1
62080,-100,4,1,0,60,0,1
62754,-100,4,1,0,70,0,1
63428,-100,4,1,0,80,0,1
64777,-100,4,2,0,85,0,0
97389,-100,4,2,0,5,0,0
97473,-100,4,2,0,85,0,0
97726,-100,4,2,0,5,0,0
97810,-100,4,2,0,85,0,0
98063,-100,4,2,0,5,0,0
98147,-100,4,2,0,85,0,0
98400,-100,4,2,0,5,0,0
98484,-100,4,2,0,85,0,0
105226,-100,4,1,0,60,0,0
105900,-100,4,1,0,70,0,0
106574,-100,4,1,0,80,0,0
107249,-100,4,1,0,85,0,0
107923,-100,4,1,0,80,0,1
128147,-100,4,1,0,65,0,1
128822,-100,4,1,0,80,0,1
129496,-100,4,2,0,100,0,0
129833,-100,4,2,0,95,0,0
130001,-100,4,2,0,90,0,0
130170,-100,4,2,0,85,0,0
130338,-100,4,2,0,75,0,0
130507,-100,4,2,0,70,0,0
130675,-100,4,2,0,65,0,0
130844,-100,4,2,0,60,0,0
131013,-100,4,2,0,55,0,0
131181,-100,4,2,0,50,0,0
131350,-100,4,2,0,45,0,0
131518,-100,4,2,0,40,0,0
131855,-100,4,2,0,30,0,0
132192,-100,4,2,0,15,0,0
149720,-100,4,2,0,60,0,0
151237,-166.666666666667,4,2,0,80,0,0
172642,-100,4,2,0,80,0,0
191518,-100,4,2,0,100,0,0
193878,-100,4,2,0,90,0,0
194215,-100,4,1,0,80,0,1
215788,-100,4,2,0,95,0,0
216125,-100,4,2,0,85,0,0
233316,-100,4,1,0,50,0,0
233990,-100,4,1,0,55,0,0
234664,-100,4,1,0,63,0,0
235338,-100,4,1,0,70,0,0
236013,-100,4,1,0,75,0,0
236687,-100,4,1,0,80,0,0
237361,-100,4,1,0,92,0,0
237529,-100,4,2,0,50,0,0
238709,-100,4,2,0,45,0,0
240057,-100,4,2,0,40,0,0
241406,-100,4,2,0,35,0,0
242754,-100,4,2,0,30,0,0

[Colours]
Combo1 : 68,192,219
Combo2 : 57,130,251
Combo3 : 0,0,210
Combo4 : 120,237,225

[HitObjects]
156,116,21293,1,2,0:0:0:0:
120,192,21631,6,0,P|172:200|200:188,1,82.5000031471254,0|2,0:0|0:0,0:0:0:0:
236,168,22136,2,0,L|252:304,1,123.750004720688,0|2,0:0|0:0,0:0:0:0:
332,280,22979,2,0,L|317:157,2,123.750004720688,0|2|0,0:0|0:0|0:0,0:0:0:0:
272,336,24327,6,0,P|256:344|228:348,1,41.2500015735627,2|0,0:0|0:0,0:0:0:0:
152,332,24833,2,0,P|112:252|156:148,1,206.250007867813,2|0,0:0|0:0,0:0:0:0:
212,92,26013,5,2,0:0:0:0:
292,68,26350,1,0,0:0:0:0:
372,92,26687,1,2,0:0:0:0:
412,168,27024,6,0,L|408:252,1,82.5000031471254,0|2,0:0|0:0,0:0:0:0:
328,264,27698,2,0,L|332:176,1,82.5000031471254,0|2,0:0|0:0,0:0:0:0:
252,204,28372,2,0,L|248:288,1,82.5000031471254,0|2,0:0|0:0,0:0:0:0:
168,304,29046,2,0,L|172:216,1,82.5000031471254,0|2,0:0|0:0,0:0:0:0:
176,140,29720,5,0,0:0:0:0:
96,128,30057,1,2,0:0:0:0:
36,184,30395,1,0,0:0:0:0:
36,268,30732,1,2,0:0:0:0:
100,316,31069,2,0,P|180:340|244:284,1,165.000006294251,0|2,0:0|0:0,0:0:0:0:
320,152,32417,6,0,P|348:120|396:116,1,82.5000031471254,0|2,0:0|0:0,0:0:0:0:
420,136,32923,2,0,L|408:272,1,123.750004720688,0|2,0:0|0:0,0:0:0:0:
392,340,33765,2,0,P|332:352|280:316,2,123.750004720688,0|0|2,0:0|0:0|0:0,0:0:0:0:
420,264,35114,6,0,L|432:216,1,41.2500015735627,2|0,0:0|0:0,0:0:0:0:
444,144,35619,2,0,P|376:80|268:104,1,206.250007867813,2|0,0:0|0:0,0:0:0:0:
220,164,36799,5,2,0:0:0:0:
144,196,37136,1,0,0:0:0:0:
64,172,37473,1,2,0:0:0:0:
28,96,37810,6,0,P|68:88|108:100,1,82.5000031471254,0|2,0:0|0:0,0:0:0:0:
168,156,38484,2,0,L|160:244,1,82.5000031471254,0|2,0:0|0:0,0:0:0:0:
196,312,39159,2,0,P|236:324|276:316,1,82.5000031471254,0|2,0:0|0:0,0:0:0:0:
348,276,39833,2,0,L|356:188,1,82.5000031471254,2|2,0:0|0:0,0:0:0:0:
364,112,40507,5,4,3:0:0:0:
412,44,40844,1,2,0:0:0:0:
448,120,41181,2,0,L|444:180,2,41.2500015735627,0|4|0,0:0|3:0|1:0,0:0:0:0:
412,44,41855,5,4,3:0:0:0:
360,316,43204,6,0,P|312:336|256:328,1,110,4|2,0:0|3:0,0:0:0:0:
204,312,43709,2,0,L|184:136,1,165,0|2,0:0|3:0,0:0:0:0:
84,188,44552,2,0,L|102:351,2,165,4|0|0,3:0|0:0|1:0,0:0:0:0:
76,80,45900,6,0,L|144:68,1,55,4|2,3:0|3:0,0:0:0:0:
240,48,46406,2,0,P|280:124|248:216,1,165,0|2,0:0|3:0,0:0:0:0:
200,288,47249,1,4,3:0:0:0:
296,340,47586,1,2,3:0:0:0:
404,312,47923,1,0,0:0:0:0:
432,204,48260,1,2,3:0:0:0:
388,104,48597,6,0,P|336:84|284:96,1,110,4|2,3:0|3:0,0:0:0:0:
224,188,49271,2,0,P|276:208|328:196,1,110,0|2,0:0|3:0,0:0:0:0:
284,96,49945,5,4,3:0:0:0:
176,72,50282,1,2,3:0:0:0:
88,140,50619,1,0,0:0:0:0:
76,248,50956,1,2,3:0:0:0:
168,308,51293,6,0,L|180:192,1,110,4|2,3:0|3:0,0:0:0:0:
288,220,51968,2,0,L|276:336,1,110,0|2,0:0|3:0,0:0:0:0:
384,344,52642,2,0,L|409:116,1,220,4|0,3:0|0:0,0:0:0:0:
328,52,53653,1,2,3:0:0:0:
220,44,53990,6,0,P|228:108|268:144,1,110,4|2,3:0|3:0,0:0:0:0:
292,180,54496,2,0,P|224:248|160:232,1,165,0|2,0:0|3:0,0:0:0:0:
64,196,55338,2,0,L|52:24,2,165,4|0|2,3:0|0:0|3:0,0:0:0:0:
92,304,56687,6,0,L|160:312,1,55,4|2,3:0|3:0,0:0:0:0:
256,316,57192,2,0,P|296:240|260:164,1,165,0|2,0:0|3:0,0:0:0:0:
232,68,58035,6,0,L|356:60,1,110,4|2,3:0|3:0,0:0:0:0:
378,164,58709,2,0,L|254:172,1,110,0|2,0:0|3:0,0:0:0:0:
160,184,59383,5,4,3:0:0:0:
52,172,59720,1,2,3:0:0:0:
116,84,60057,1,0,0:0:0:0:
160,184,60395,1,2,3:0:0:0:
232,268,60732,6,0,P|288:280|336:256,1,110,4|2,3:0|3:0,0:0:0:0:
368,152,61406,2,0,P|312:140|264:164,1,110,0|2,0:0|3:0,0:0:0:0:
232,268,62080,5,4,3:0:0:0:
124,292,62417,1,2,3:0:0:0:
52,208,62754,1,0,0:0:0:0:
76,100,63091,1,2,3:0:0:0:
180,60,63428,2,0,B|248:72|296:94|296:94|344:184|300:316,1,330,2|2,2:0|3:0,0:0:0:0:
208,344,64777,5,4,1:0:0:0:
424,224,70170,6,0,P|376:256|316:240,1,110,2|0,2:0|1:0,0:0:0:0:
248,172,70844,1,0,0:0:0:0:
140,144,71181,1,0,1:0:0:0:
64,224,71518,2,0,L|52:340,1,110,4|0,3:0|1:0,0:0:0:0:
164,336,72192,2,0,L|176:220,1,110,0|0,0:0|1:0,0:0:0:0:
196,120,72866,6,0,P|304:76|380:136,1,220,2|0,0:0|0:0,0:0:0:0:
412,236,73878,1,0,1:0:0:0:
364,336,74215,2,0,P|312:356|256:332,1,110,4|0,3:0|1:0,0:0:0:0:
184,260,74889,2,0,L|192:200,2,55,0|4|0,0:0|3:0|1:0,0:0:0:0:
288,228,75563,6,0,L|308:100,1,110,2|0,0:0|1:0,0:0:0:0:
364,28,76237,2,0,P|388:48|400:72,2,55,0|4|0,0:0|3:0|1:0,0:0:0:0:
256,20,76911,2,0,P|228:40|216:60,2,55,4|0|0,3:0|0:0|1:0,0:0:0:0:
304,120,77586,1,0,0:0:0:0:
288,228,77923,1,0,1:0:0:0:
268,336,78260,6,0,P|156:352|96:268,1,220,2|0,0:0|0:0,0:0:0:0:
92,164,79271,1,0,1:0:0:0:
128,60,79608,2,0,L|244:64,1,110,2|0,0:0|1:0,0:0:0:0:
202,167,80282,2,0,L|86:163,1,110,0|0,0:0|1:0,0:0:0:0:
48,264,80956,6,0,P|158:267|274:271,1,220,2|0,0:0|0:0,0:0:0:0:
380,276,81968,1,0,1:0:0:0:
424,176,82305,1,4,3:0:0:0:
340,104,82642,1,0,1:0:0:0:
248,164,82979,2,0,P|242:198|244:224,2,55,0|4|0,0:0|3:0|1:0,0:0:0:0:
176,80,83653,6,0,P|136:192|160:292,1,220,2|0,0:0|0:0,0:0:0:0:
252,344,84664,1,0,1:0:0:0:
360,328,85001,2,0,L|476:308,1,110,4|0,3:0|1:0,0:0:0:0:
448,200,85675,2,0,L|388:212,2,55,0|4|0,0:0|3:0|1:0,0:0:0:0:
428,92,86350,6,0,P|312:56|240:120,1,220,2|0,0:0|0:0,0:0:0:0:
212,220,87361,1,0,1:0:0:0:
164,320,87698,2,0,L|48:336,1,110,4|0,3:0|1:0,0:0:0:0:
104,235,88372,2,0,L|220:219,1,110,0|0,0:0|1:0,0:0:0:0:
320,240,89046,6,0,P|324:212|316:176,2,55,2|0|0,2:0|0:0|1:0,0:0:0:0:
368,340,89720,1,0,0:0:0:0:
368,340,90057,1,0,1:0:0:0:
444,260,90395,2,0,P|452:208|440:148,1,110,2|0,0:0|1:0,0:0:0:0:
388,56,91069,2,0,L|320:44,2,55,0|4|0,0:0|3:0|1:0,0:0:0:0:
336,152,91743,6,0,L|228:132,1,110,2|0,0:0|1:0,0:0:0:0:
116,132,92417,1,0,0:0:0:0:
76,232,92754,1,0,1:0:0:0:
128,328,93091,2,0,P|160:340|192:340,2,55,4|0|0,3:0|0:0|1:0,0:0:0:0:
180,232,93765,1,0,0:0:0:0:
232,136,94102,6,0,P|200:124|168:124,2,55,0|0|2,1:0|0:0|0:0,0:0:0:0:
300,224,94777,1,0,1:0:0:0:
388,288,95114,2,0,P|408:244|396:168,1,110,0|0,0:0|1:0,0:0:0:0:
316,115,95788,2,0,L|300:229,1,110,2|0,0:0|1:0,0:0:0:0:
196,260,96462,2,0,P|191:199|211:155,1,110,0|0,0:0|1:0,0:0:0:0:
200,48,97136,5,2,0:0:0:0:
92,64,97473,1,0,1:0:0:0:
32,156,97810,1,0,0:0:0:0:
48,264,98147,1,0,1:0:0:0:
136,328,98484,2,0,L|204:340,2,55,4|0|0,3:0|0:0|1:0,0:0:0:0:
148,220,99159,2,0,L|264:240,1,110,0|0,0:0|1:0,0:0:0:0:
340,308,99833,5,2,0:0:0:0:
384,208,100170,1,0,1:0:0:0:
448,300,100507,2,0,L|456:360,2,55,0|4|0,0:0|3:0|1:0,0:0:0:0:
384,208,101181,2,0,P|332:196|272:220,1,110,2|0,0:0|1:0,0:0:0:0:
176,252,101855,2,0,L|156:124,1,110,0|0,0:0|1:0,0:0:0:0:
144,36,102529,5,2,0:0:0:0:
252,32,102866,1,0,1:0:0:0:
336,104,103204,1,0,0:0:0:0:
340,212,103541,2,0,L|328:268,2,55,0|0|4,1:0|0:0|3:0,0:0:0:0:
432,156,104215,1,0,1:0:0:0:
336,104,104552,2,0,P|288:116|244:164,1,110,0|0,0:0|1:0,0:0:0:0:
200,260,105226,6,0,P|88:288|24:196,1,220,2|0,2:0|0:0,0:0:0:0:
32,108,106237,1,0,1:0:0:0:
120,44,106574,1,2,2:0:0:0:
132,152,106911,2,0,L|120:220,2,55,0|0|0,1:0|0:0|0:0,0:0:0:0:
220,88,107586,1,0,1:0:0:0:
316,144,107923,6,0,P|336:204|320:256,1,110,4|2,0:0|3:0,0:0:0:0:
300,296,108428,2,0,L|132:292,1,165,0|2,0:0|3:0,0:0:0:0:
68,204,109271,2,0,B|52:124|52:124|72:32,2,165,4|0|2,3:0|0:0|3:0,0:0:0:0:
176,204,110619,6,0,L|232:205,1,55,4|2,3:0|3:0,0:0:0:0:
340,204,111125,2,0,P|368:280|332:360,1,165,0|2,0:0|3:0,0:0:0:0:
264,272,111968,2,0,P|236:196|328:104,1,220,4|0,3:0|0:0,0:0:0:0:
432,108,112979,1,2,3:0:0:0:
432,216,113316,6,0,L|420:336,1,110,4|2,3:0|3:0,0:0:0:0:
312,332,113990,2,0,L|324:212,1,110,0|2,0:0|3:0,0:0:0:0:
304,112,114664,5,4,3:0:0:0:
212,52,115001,1,2,3:0:0:0:
104,60,115338,1,2,2:0:0:0:
48,152,115675,1,2,3:2:0:0:
48,264,116013,6,0,P|96:292|156:280,1,110,4|2,3:0|3:0,0:0:0:0:
224,204,116687,2,0,P|176:176|116:188,1,110,0|2,0:0|3:0,0:0:0:0:
148,284,117361,2,0,P|264:308|328:236,1,220,4|0,3:0|0:0,0:0:0:0:
336,132,118372,1,2,3:0:0:0:
268,48,118709,6,0,P|324:24|384:36,1,110,4|2,3:0|3:0,0:0:0:0:
420,52,119215,2,0,L|428:220,1,165,0|2,0:0|3:0,0:0:0:0:
400,324,120057,2,0,B|320:344|320:344|224:328,2,165,4|0|2,3:0|0:0|3:0,0:0:0:0:
316,256,121406,6,0,L|248:244,1,55,4|2,3:0|3:0,0:0:0:0:
152,228,121911,2,0,P|124:148|152:64,1,165,0|2,0:0|3:0,0:0:0:0:
248,32,122754,2,0,P|264:88|256:144,1,110,4|2,3:0|3:0,0:0:0:0:
236,248,123428,1,0,0:0:0:0:
320,320,123765,1,2,3:0:0:0:
420,272,124102,6,0,L|432:156,1,110,4|2,3:0|3:0,0:0:0:0:
331,210,124777,2,0,L|320:324,1,110,0|2,0:0|3:0,0:0:0:0:
212,336,125451,5,4,3:0:0:0:
112,292,125788,1,2,3:0:0:0:
80,188,126125,1,2,2:0:0:0:
120,84,126462,1,2,2:0:0:0:
224,48,126799,6,0,P|284:40|332:72,1,110,4|2,3:0|3:0,0:0:0:0:
360,168,127473,2,0,P|300:176|252:144,1,110,0|2,0:0|3:0,0:0:0:0:
148,164,128147,5,4,3:0:0:0:
104,264,128484,1,2,3:0:0:0:
216,252,128822,2,0,P|216:288|208:312,2,55,0|0|2,0:0|0:0|3:0,0:0:0:0:
260,152,129496,5,4,1:0:0:0:
256,192,129580,12,0,132192,0:0:0:0:
256,192,149215,12,4,151069,3:0:0:0:
384,96,151743,6,0,L|387:162,1,65.9999979858399,0|0,1:0|0:0,0:0:0:0:
392,248,152417,2,0,P|372:252|356:252,2,32.99999899292,0|0|0,0:0|1:0|1:0,0:0:0:0:
424,328,153091,2,0,P|444:324|460:324,1,32.99999899292,0|0,1:0|1:0,0:0:0:0:
328,336,153765,5,0,1:0:0:0:
200,320,154271,2,0,L|192:272,1,32.99999899292,0|0,1:0|1:0,0:0:0:0:
176,204,154777,2,0,P|144:188|108:192,1,65.9999979858399,0|0,0:0|0:0,0:0:0:0:
36,224,155451,5,0,1:0:0:0:
44,140,155788,2,0,L|52:84,1,32.99999899292,0|0,1:0|1:0,0:0:0:0:
164,52,156462,6,0,P|236:52|272:96,1,131.99999597168,0|0,1:0|1:0,0:0:0:0:
292,176,157473,1,0,0:0:0:0:
232,236,157810,2,0,P|221:221|212:204,2,32.99999899292,0|0|0,0:0|1:0|1:0,0:0:0:0:
300,288,158484,2,0,P|307:274|317:260,1,32.99999899292,0|0,1:0|1:0,0:0:0:0:
428,196,159159,5,0,1:0:0:0:
372,80,159664,2,0,L|328:76,1,32.99999899292,0|0,1:0|1:0,0:0:0:0:
252,76,160170,2,0,P|220:76|184:88,1,65.9999979858399
116,132,160844,5,0,1:0:0:0:
52,188,161181,2,0,P|43:177|36:159,1,32.99999899292,0|0,1:0|1:0,0:0:0:0:
96,44,161855,6,0,P|168:56|204:120,1,131.99999597168,0|0,1:0|1:0,0:0:0:0:
236,268,163204,2,0,L|280:276,2,32.99999899292,0|0|0,0:0|1:0|1:0,0:0:0:0:
204,188,163878,2,0,L|160:196,1,32.99999899292,0|0,1:0|1:0,0:0:0:0:
44,224,164552,5,0,1:0:0:0:
76,100,165057,2,0,P|78:87|92:64,1,32.99999899292,0|0,1:0|1:0,0:0:0:0:
164,28,165563,2,0,P|196:28|232:52,1,65.9999979858399
256,124,166237,5,0,1:0:0:0:
256,208,166574,2,0,L|256:252,1,32.99999899292,0|0,1:0|1:0,0:0:0:0:
360,320,167249,6,0,B|360:240|360:240|380:192,1,131.99999597168,0|0,1:0|1:0,0:0:0:0:
440,32,168597,2,0,L|396:28,2,32.99999899292,0|0|0,0:0|1:0|1:0,0:0:0:0:
420,116,169271,2,0,L|464:120,1,32.99999899292,0|0,1:0|1:0,0:0:0:0:
328,84,169945,5,0,1:0:0:0:
172,172,172305,5,0,1:0:0:0:
100,92,172642,2,0,P|71:131|67:191,1,110,4|0,1:0|1:0,0:0:0:0:
104,296,173316,1,0,0:0:0:0:
212,324,173653,2,0,L|232:264,2,55,0|0|4,1:0|0:0|3:0,0:0:0:0:
104,296,174327,1,0,1:0:0:0:
68,192,174664,2,0,L|48:132,2,55,0|4|0,0:0|3:0|1:0,0:0:0:0:
176,168,175338,6,0,L|292:184,1,110,4|0,3:0|1:0,0:0:0:0:
336,84,176013,2,0,L|220:68,1,110,0|0,0:0|1:0,0:0:0:0:
176,168,176687,1,4,3:0:0:0:
184,276,177024,1,0,1:0:0:0:
280,332,177361,2,0,P|292:304|296:272,2,55,0|4|0,0:0|3:0|1:0,0:0:0:0:
388,348,178035,6,0,P|404:292|400:236,1,110,4|0,3:0|1:0,0:0:0:0:
408,132,178709,2,0,P|440:136|468:156,2,55,0|4|0,0:0|3:0|1:0,0:0:0:0:
300,148,179383,1,4,3:0:0:0:
208,88,179720,1,0,1:0:0:0:
100,92,180057,2,0,L|92:208,1,110,2|2,0:0|0:0,0:0:0:0:
128,304,180732,6,0,P|184:320|236:304,1,110,2|0,0:0|1:0,0:0:0:0:
284,208,181406,2,0,P|332:194|388:210,1,110,0|0,0:0|1:0,0:0:0:0:
476,276,182080,1,4,3:0:0:0:
488,168,182417,2,0,L|484:100,2,55,0|0|0,1:0|0:0|0:0,0:0:0:0:
389,210,183091,1,0,1:0:0:0:
320,124,183428,6,0,L|324:56,2,55,4|0|0,3:0|0:0|1:0,0:0:0:0:
236,192,184102,2,0,P|172:184|144:152,1,110,0|0,0:0|1:0,0:0:0:0:
64,76,184777,5,4,3:0:0:0:
24,180,185114,1,0,1:0:0:0:
60,284,185451,2,0,P|92:268|116:240,2,55,0|4|0,0:0|3:0|1:0,0:0:0:0:
156,336,186125,6,0,L|272:340,1,110,4|0,3:0|1:0,0:0:0:0:
360,280,186799,2,0,P|368:260|368:216,2,55,0|4|0,0:0|3:0|1:0,0:0:0:0:
264,228,187473,5,4,3:0:0:0:
224,124,187810,1,0,1:0:0:0:
116,108,188147,2,0,P|118:141|126:161,2,55,0|4|0,0:0|3:0|1:0,0:0:0:0:
200,40,188822,6,0,P|260:44|296:76,1,110,4|0,3:0|1:0,0:0:0:0:
336,180,189496,2,0,P|368:173|392:156,2,55,0|4|0,0:0|3:0|1:0,0:0:0:0:
256,256,190170,5,4,3:0:0:0:
176,180,190507,1,0,1:0:0:0:
80,128,190844,2,0,P|68:184|84:240,1,110,2|2,0:0|2:0,0:0:0:0:
160,308,191518,5,4,3:0:0:0:
320,308,193878,5,0,1:0:0:0:
416,252,194215,2,0,P|428:192|408:140,1,110,4|2,0:0|3:0,0:0:0:0:
380,104,194720,2,0,B|304:84|304:84|208:100,1,165,0|2,0:0|3:0,0:0:0:0:
108,112,195563,2,0,L|96:280,2,165,4|0|2,3:0|0:0|3:0,0:0:0:0:
216,120,196911,6,0,L|212:188,1,55,4|2,3:0|3:0,0:0:0:0:
204,284,197417,2,0,P|272:320|348:288,1,165,0|2,0:0|3:0,0:0:0:0:
368,180,198260,2,0,P|280:120|188:184,1,220,4|0,3:0|0:0,0:0:0:0:
132,264,199271,1,2,3:0:0:0:
60,180,199608,6,0,L|48:64,1,110,4|2,3:0|3:0,0:0:0:0:
152,32,200282,2,0,L|163:141,1,110,0|2,0:0|3:0,0:0:0:0:
204,244,200956,5,4,3:0:0:0:
308,276,201293,1,2,3:0:0:0:
408,228,201631,1,0,0:0:0:0:
428,120,201968,1,2,3:0:0:0:
340,52,202305,6,0,P|317:120|328:164,1,110,4|2,3:0|3:0,0:0:0:0:
344,264,202979,2,0,L|220:280,1,110,0|2,0:0|3:0,0:0:0:0:
148,344,203653,2,0,P|125:275|136:232,1,110,4|2,3:0|3:0,0:0:0:0:
148,132,204327,2,0,P|116:132|88:140,2,55,0|0|2,0:0|0:0|3:0,0:0:0:0:
220,48,205001,6,0,P|256:96|256:156,1,110,4|2,3:0|3:0,0:0:0:0:
256,200,205507,2,0,P|304:264|388:248,1,165,0|2,0:0|3:0,0:0:0:0:
448,168,206350,2,0,L|436:340,2,165,4|0|2,3:0|0:0|3:0,0:0:0:0:
384,80,207698,6,0,L|324:68,1,55,4|2,3:0|3:0,0:0:0:0:
220,68,208204,2,0,P|192:148|224:228,1,165,0|2,0:0|3:0,0:0:0:0:
290,303,209046,1,4,3:0:0:0:
328,200,209383,1,2,3:0:0:0:
218,220,209720,2,0,P|200:240|184:272,2,55,0|0|2,0:0|0:0|3:0,0:0:0:0:
272,124,210395,6,0,P|328:104|384:124,1,110,4|2,3:0|3:0,0:0:0:0:
436,208,211069,1,0,0:0:0:0:
404,312,211406,1,2,3:0:0:0:
300,348,211743,6,0,P|253:361|197:341,1,110,4|2,3:0|3:0,0:0:0:0:
144,244,212417,1,0,0:0:0:0:
132,136,212754,1,2,3:0:0:0:
28,100,213091,6,0,L|40:220,1,110,4|2,3:0|3:0,0:0:0:0:
144,244,213765,2,0,P|208:244|244:208,1,110,0|2,0:0|3:0,0:0:0:0:
304,124,214440,5,4,3:0:0:0:
244,32,214777,1,2,3:0:0:0:
164,108,215114,2,0,P|168:144|176:176,2,55,0|0|2,0:0|0:0|3:0,0:0:0:0:
56,104,215788,6,0,P|56:168|76:216,1,110,4|0,1:0|1:0,0:0:0:0:
140,296,216462,1,0,0:0:0:0:
248,308,216799,1,0,1:0:0:0:
304,212,217136,1,4,3:0:0:0:
300,104,217473,1,0,1:0:0:0:
404,68,217810,1,0,0:0:0:0:
468,160,218147,1,0,1:0:0:0:
408,252,218484,6,0,P|368:288|308:296,1,110,4|0,3:0|1:0,0:0:0:0:
212,256,219159,1,0,0:0:0:0:
168,156,219496,1,0,1:0:0:0:
88,80,219833,2,0,P|58:143|64:184,1,110,4|0,3:0|1:0,0:0:0:0:
92,288,220507,2,0,L|212:296,1,110,0|0,0:0|1:0,0:0:0:0:
312,280,221181,6,0,P|316:241|287:178,1,110,4|0,3:0|1:0,0:0:0:0:
192,124,221855,1,0,0:0:0:0:
192,232,222192,1,0,1:0:0:0:
288,180,222529,1,4,3:0:0:0:
396,200,222866,1,0,1:0:0:0:
452,296,223204,6,0,P|396:312|328:288,1,110,2|2,0:0|0:0,0:0:0:0:
396,200,223878,2,0,L|396:80,1,110,2|0,0:0|1:0,0:0:0:0:
292,52,224552,2,0,P|242:40|186:56,1,110,0|0,0:0|1:0,0:0:0:0:
112,136,225226,5,4,3:0:0:0:
112,136,225563,1,0,1:0:0:0:
92,244,225900,1,0,0:0:0:0:
92,244,226237,1,0,1:0:0:0:
168,324,226574,6,0,P|196:276|196:216,1,110,4|0,3:0|1:0,0:0:0:0:
172,116,227249,1,0,0:0:0:0:
264,56,227586,1,0,1:0:0:0:
372,68,227923,1,4,3:0:0:0:
440,156,228260,1,0,1:0:0:0:
432,264,228597,1,0,0:0:0:0:
356,344,228934,1,0,1:0:0:0:
248,344,229271,6,0,P|228:296|232:236,1,110,4|0,3:0|1:0,0:0:0:0:
268,136,229945,2,0,L|156:124,1,110,0|0,0:0|1:0,0:0:0:0:
122,228,230619,2,0,L|234:240,1,110,4|0,3:0|1:0,0:0:0:0:
340,252,231293,2,0,P|360:204|356:144,1,110,0|0,0:0|1:0,0:0:0:0:
312,48,231968,5,4,3:0:0:0:
204,28,232305,1,0,1:0:0:0:
100,60,232642,1,0,0:0:0:0:
56,160,232979,1,0,1:0:0:0:
64,268,233316,1,4,3:0:0:0:
144,344,233653,1,0,1:0:0:0:
252,344,233990,6,0,L|248:224,1,110,2|2,2:0|2:0,0:0:0:0:
344,180,234664,2,0,L|348:300,1,110,2|0,2:0|0:0,0:0:0:0:
444,240,235338,2,0,L|440:120,1,110,0|0,2:0|0:0,0:0:0:0:
384,36,236013,5,4,3:0:0:0:
276,56,236350,1,0,0:0:0:0:
256,164,236687,1,0,2:0:0:0:
240,272,237024,1,0,0:0:0:0:
136,308,237361,5,4,0:0:0:0:
256,192,237529,12,0,242754,0:0:0:0:
