osu file format v12

[General]
AudioFilename: B.O.B - Airplanes (Feint Remix).mp3
AudioLeadIn: 0
PreviewTime: 41856
Countdown: 0
SampleSet: Soft
StackLeniency: 0.5
Mode: 0
LetterboxInBreaks: 0

[Editor]
Bookmarks: 199271
DistanceSpacing: 1
BeatDivisor: 4
GridSize: 4

[Metadata]
Title:Airplanes (Feint Remix)
TitleUnicode:Airplanes (Feint Remix)
Artist:B.o.B feat. Hayley Williams
ArtistUnicode:B.o.B feat. Hayley Williams
Creator:Snepif
Version:Hard
Source:
Tags:dnb drum and bass mix air planes bob rap hip hop
BeatmapID:231093
BeatmapSetID:83494

[Difficulty]
HPDrainRate:5
CircleSize:4
OverallDifficulty:6
ApproachRate:7
SliderMultiplier:1.6
SliderTickRate:1

[Events]
//Background and Video events
0,0,"BG.jpg",1,1
//Break Periods
2,132392,148315
2,170145,171405
//Storyboard Layer 0 (Background)
//Storyboard Layer 1 (Fail)
//Storyboard Layer 2 (Pass)
//Storyboard Layer 3 (Foreground)
//Storyboard Sound Samples
//Background Colour Transformations
3,100,163,162,255

[TimingPoints]
58,337.078651685393,4,1,0,100,1,0
20282,-133.333333333333,4,2,0,85,0,0
27024,-142.857142857143,4,2,0,85,0,0
27277,-142.857142857143,4,2,0,5,0,0
27361,-142.857142857143,4,2,0,85,0,0
27614,-142.857142857143,4,2,0,5,0,0
27698,-142.857142857143,4,2,0,85,0,0
27951,-142.857142857143,4,2,0,5,0,0
28035,-142.857142857143,4,2,0,85,0,0
28288,-142.857142857143,4,2,0,5,0,0
28372,-125,4,2,0,85,0,0
28625,-125,4,2,0,5,0,0
28709,-125,4,2,0,85,0,0
28962,-125,4,2,0,5,0,0
29046,-125,4,2,0,85,0,0
29299,-125,4,2,0,5,0,0
29383,-125,4,2,0,85,0,0
29636,-125,4,2,0,5,0,0
29720,-111.111111111111,4,2,0,85,0,0
29973,-111.111111111111,4,2,0,5,0,0
30057,-111.111111111111,4,2,0,85,0,0
30310,-111.111111111111,4,2,0,5,0,0
30395,-111.111111111111,4,2,0,85,0,0
30647,-111.111111111111,4,2,0,5,0,0
30732,-111.111111111111,4,2,0,85,0,0
30984,-111.111111111111,4,2,0,5,0,0
31069,-133.333333333333,4,2,0,85,0,0
37810,-142.857142857143,4,2,0,85,0,0
38063,-142.857142857143,4,2,0,5,0,0
38147,-142.857142857143,4,2,0,85,0,0
38400,-142.857142857143,4,2,0,5,0,0
38484,-142.857142857143,4,2,0,85,0,0
38737,-142.857142857143,4,2,0,5,0,0
38822,-142.857142857143,4,2,0,85,0,0
39074,-142.857142857143,4,2,0,5,0,0
39159,-125,4,2,0,85,0,0
39411,-125,4,2,0,5,0,0
39496,-125,4,2,0,85,0,0
39749,-125,4,2,0,5,0,0
39833,-125,4,2,0,50,0,0
40170,-125,4,2,0,85,0,0
40507,-111.111111111111,4,2,0,50,0,0
40844,-111.111111111111,4,2,0,85,0,0
43204,-100,4,1,0,85,0,1
62080,-100,4,1,0,60,0,1
62754,-100,4,1,0,70,0,1
63428,-100,4,1,0,80,0,1
64777,-100,4,2,0,85,0,0
97389,-100,4,2,0,5,0,0
97473,-100,4,2,0,85,0,0
97726,-100,4,2,0,5,0,0
97810,-100,4,2,0,85,0,0
98063,-100,4,2,0,5,0,0
98147,-100,4,2,0,85,0,0
98400,-100,4,2,0,5,0,0
98484,-100,4,2,0,85,0,0
105226,-100,4,1,0,60,0,0
105900,-100,4,1,0,70,0,0
106574,-100,4,1,0,80,0,0
107249,-100,4,1,0,85,0,0
107923,-100,4,1,0,80,0,1
128147,-100,4,1,0,65,0,1
128822,-100,4,1,0,80,0,1
129496,-100,4,2,0,100,0,0
129833,-100,4,2,0,95,0,0
130001,-100,4,2,0,90,0,0
130170,-100,4,2,0,85,0,0
130338,-100,4,2,0,75,0,0
130507,-100,4,2,0,70,0,0
130675,-100,4,2,0,65,0,0
130844,-100,4,2,0,60,0,0
131013,-100,4,2,0,55,0,0
131181,-100,4,2,0,50,0,0
131350,-100,4,2,0,45,0,0
131518,-100,4,2,0,40,0,0
131855,-100,4,2,0,30,0,0
132192,-100,4,2,0,15,0,0
149720,-100,4,2,0,60,0,0
151237,-166.666666666667,4,2,0,80,0,0
172642,-100,4,2,0,80,0,0
191518,-100,4,2,0,100,0,0
193878,-100,4,2,0,90,0,0
194215,-100,4,1,0,80,0,1
215788,-100,4,2,0,95,0,0
216125,-100,4,2,0,85,0,0
234664,-100,4,1,0,50,0,0
235338,-100,4,1,0,60,0,0
236013,-100,4,1,0,75,0,0
236687,-100,4,1,0,80,0,0
237361,-100,4,1,0,92,0,0
237529,-100,4,2,0,50,0,0
238709,-100,4,2,0,45,0,0
240057,-100,4,2,0,40,0,0
241406,-100,4,2,0,35,0,0
242754,-100,4,2,0,30,0,0

[Colours]
Combo1 : 68,192,219
Combo2 : 57,130,251
Combo3 : 0,0,210
Combo4 : 120,237,225

[HitObjects]
395,253,20451,2,0,P|388:280|372:308,2,60.0000022888184,2|0|0,0:0|0:0|0:0,0:0:0:0:
408,176,20956,1,0,0:0:0:0:
308,56,21293,1,2,0:0:0:0:
152,60,21631,6,0,L|108:184,1,120.000004577637,0|2,0:0|0:0,0:0:0:0:
108,252,22136,2,0,P|148:292|208:284,1,120.000004577637
264,232,22642,1,2,0:0:0:0:
404,164,22979,6,0,P|432:228|412:276,1,120.000004577637,0|2,0:0|0:0,0:0:0:0:
372,336,23484,2,0,L|244:352,1,120.000004577637
192,304,23990,1,2,0:0:0:0:
40,336,24327,5,0,0:0:0:0:
48,260,24496,2,0,P|72:216|140:200,1,120.000004577637,2|2,0:0|0:0,0:0:0:0:
124,276,25001,1,0,0:0:0:0:
88,124,25338,1,2,0:0:0:0:
232,60,25675,1,0,0:0:0:0:
384,96,26013,6,0,L|404:164,1,60.0000022888184,2|0,0:0|0:0,0:0:0:0:
332,216,26350,2,0,L|312:148,1,60.0000022888184,0|0,0:0|0:0,0:0:0:0:
224,144,26687,2,0,L|244:212,1,60.0000022888184,2|0,0:0|0:0,0:0:0:0:
280,276,27024,6,0,P|328:296|384:272,1,111.999996582031,0|2,0:0|0:0,0:0:0:0:
224,144,27698,2,0,P|176:124|120:148,1,111.999996582031,0|2,0:0|0:0,0:0:0:0:
32,284,28372,5,0,0:0:0:0:
174,197,28709,1,2,0:0:0:0:
244,348,29046,1,2,0:0:0:0:
386,261,29383,1,2,0:0:0:0:
328,84,29720,5,2,0:0:0:0:
174,197,30057,1,2,0:0:0:0:
244,348,30395,1,0,0:0:0:0:
386,261,30732,1,2,0:0:0:0:
328,84,31069,5,0,0:0:0:0:
256,60,31237,2,0,P|224:52|172:56,1,60.0000022888184,2|0,0:0|0:0,0:0:0:0:
120,68,31574,1,0,0:0:0:0:
72,128,31743,2,0,P|68:196|108:236,1,120.000004577637,0|2,0:0|0:0,0:0:0:0:
192,352,32417,6,0,L|312:344,1,120.000004577637,0|2,0:0|0:0,0:0:0:0:
380,308,32923,2,0,P|412:271|408:203,1,120.000004577637
340,240,33428,2,0,L|280:244,1,60.0000022888184,2|0,0:0|0:0,0:0:0:0:
204,248,33765,6,0,B|156:252|156:252|124:240|124:240|84:240,1,120.000004577637,0|2,0:0|0:0,0:0:0:0:
48,172,34271,1,0,0:0:0:0:
172,48,34608,1,0,0:0:0:0:
176,128,34777,1,2,0:0:0:0:
304,180,35114,5,0,0:0:0:0:
316,104,35282,2,0,P|380:104|424:156,1,120.000004577637,2|2,0:0|0:0,0:0:0:0:
456,208,35788,2,0,L|460:336,1,120.000004577637,0|2,0:0|0:0,0:0:0:0:
300,300,36462,2,0,L|303:180,1,120.000004577637,0|2,0:0|0:0,0:0:0:0:
244,128,36968,5,0,0:0:0:0:
172,96,37136,1,0,0:0:0:0:
92,100,37305,1,0,0:0:0:0:
40,156,37473,2,0,P|40:196|48:224,1,60.0000022888184,2|0,0:0|0:0,0:0:0:0:
76,284,37810,6,0,P|140:296|176:272,1,111.999996582031,0|2,0:0|0:0,0:0:0:0:
244,128,38484,2,0,P|308:116|344:140,1,111.999996582031,0|2,0:0|0:0,0:0:0:0:
364,320,39159,1,0,0:0:0:0:
288,188,39496,1,2,0:0:0:0:
120,124,39833,1,2,0:0:0:0:
72,200,40001,2,0,P|64:232|68:264,1,64,4|0,3:0|1:0,0:0:0:0:
264,316,40507,6,0,P|304:252|284:184,1,143.999995605469,4|2,3:0|0:0,0:0:0:0:
228,128,41013,1,0,0:0:0:0:
222,215,41181,2,0,P|257:205|290:187,1,71.9999978027344,0|0,0:0|1:0,0:0:0:0:
336,116,41518,1,0,1:0:0:0:
448,324,41855,5,4,3:0:0:0:
376,84,43204,6,0,P|320:148|348:224,1,160,4|2,1:0|3:0,0:0:0:0:
396,160,43709,1,0,0:0:0:0:
412,240,43878,2,0,P|400:288|376:316,1,80,0|4,0:0|3:0,0:0:0:0:
308,348,44215,2,0,L|216:324,1,80,2|0,3:0|0:0,0:0:0:0:
168,376,44552,6,0,P|149:310|205:246,1,160,4|2,3:0|3:0,0:0:0:0:
212,168,45057,1,0,0:0:0:0:
172,100,45226,2,0,P|136:68|96:64,1,80,0|4,0:0|3:0,0:0:0:0:
212,168,45563,2,0,P|248:136|288:132,1,80,2|0,3:0|0:0,0:0:0:0:
356,120,45900,5,0,0:0:0:0:
278,131,46069,2,0,L|294:299,1,160,0|2,0:0|3:0,0:0:0:0:
352,344,46574,1,0,0:0:0:0:
428,320,46743,1,4,3:0:0:0:
452,244,46911,6,0,L|467:84,2,160,2|4|2,3:0|3:0|3:0,0:0:0:0:
428,320,47754,1,0,0:0:0:0:
372,264,47923,2,0,P|332:264|288:288,1,80,0|4,0:0|3:0,0:0:0:0:
140,264,48260,2,0,P|180:264|215:280,1,80,2|0,3:0|0:0,0:0:0:0:
256,352,48597,6,0,L|256:192,1,160,4|2,3:0|3:0,0:0:0:0:
164,60,49271,2,0,P|128:84|112:120,1,80,0|4,0:0|3:0,0:0:0:0:
96,196,49608,2,0,P|116:276|188:300,1,160,2|4,3:0|3:0,0:0:0:0:
340,268,50282,5,2,3:0:0:0:
432,136,50619,2,0,L|412:220,1,80,0|4,0:0|3:0,0:0:0:0:
336,188,50956,2,0,L|372:32,1,160,2|4,3:0|3:0,0:0:0:0:
236,116,51631,5,2,3:0:0:0:
160,256,51968,2,0,P|152:304|124:336,1,80,0|4,0:0|3:0,0:0:0:0:
56,316,52305,2,0,P|28:232|60:168,1,160,2|4,3:0|3:0,0:0:0:0:
104,108,52810,5,0,0:0:0:0:
180,88,52979,1,2,3:0:0:0:
256,108,53147,1,0,0:0:0:0:
300,176,53316,2,0,L|288:256,2,80,0|4|2,0:0|3:0|3:0,0:0:0:0:
300,176,53990,6,0,P|384:168|416:104,1,160,4|2,3:0|3:0,0:0:0:0:
336,104,54496,2,0,L|416:256,1,160,0|4,0:0|3:0,0:0:0:0:
380,320,55001,1,2,3:0:0:0:
304,340,55170,1,0,0:0:0:0:
228,320,55338,6,0,B|164:320|164:320|136:296|136:296|104:288|72:296,1,160,4|2,3:0|3:0,0:0:0:0:
36,228,55844,2,0,P|124:212|196:236,1,160,0|4,0:0|3:0,0:0:0:0:
268,252,56350,1,2,3:0:0:0:
412,180,56687,1,4,3:0:0:0:
368,112,56855,2,0,P|280:96|208:120,1,160,0|2,0:0|3:0,0:0:0:0:
136,132,57361,2,0,L|88:56,2,80,0|4|2,0:0|3:0|3:0,0:0:0:0:
152,212,57866,1,0,0:0:0:0:
196,280,58035,6,0,P|272:316|332:268,1,160,4|2,3:0|3:0,0:0:0:0:
348,200,58541,1,0,0:0:0:0:
280,160,58709,2,0,L|260:244,1,80,0|4,0:0|3:0,0:0:0:0:
348,356,59046,2,0,L|329:278,1,80,2|0,3:0|0:0,0:0:0:0:
280,160,59383,6,0,P|216:112|144:144,1,160,4|2,3:0|3:0,0:0:0:0:
168,348,60057,2,0,L|188:264,1,80,0|4,0:0|3:0,0:0:0:0:
208,192,60395,1,2,3:0:0:0:
368,56,60732,6,0,P|408:128|376:196,2,160,4|2|0,3:0|3:0|0:0,0:0:0:0:
288,60,61574,1,4,3:0:0:0:
208,68,61743,2,0,L|48:80,1,160,2|4,3:0|3:0,0:0:0:0:
28,156,62249,5,0,0:0:0:0:
28,236,62417,1,2,3:0:0:0:
64,308,62586,1,0,0:0:0:0:
140,332,62754,2,0,P|156:292|180:260,1,80,0|4,0:0|3:0,0:0:0:0:
256,140,63091,2,0,L|256:228,1,80,2|0,3:0|0:0,0:0:0:0:
334,262,63428,5,4,3:0:0:0:
334,262,63513,1,0,0:0:0:0:
334,262,63597,2,0,P|356:292|372:332,1,80,0|0,0:0|3:0,0:0:0:0:
448,308,63934,1,0,0:0:0:0:
484,236,64103,1,0,0:0:0:0:
472,156,64271,1,4,3:0:0:0:
472,156,64440,2,0,P|420:92|348:104,1,160,2|4,3:0|1:0,0:0:0:0:
272,124,64945,5,2,0:0:0:0:
192,116,65114,2,0,P|148:104|112:80,1,80,0|2,1:0|0:0,0:0:0:0:
40,80,65451,2,0,L|16:240,1,160,2|0,0:0|1:0,0:0:0:0:
56,308,65956,1,2,0:0:0:0:
132,284,66125,6,0,L|148:200,2,80,4|2|0,3:0|0:0|1:0,0:0:0:0:
208,312,66631,1,2,0:0:0:0:
288,296,66799,1,2,0:0:0:0:
328,228,66968,2,0,P|324:180|304:148,1,80,4|0,3:0|1:0,0:0:0:0:
436,252,67473,6,0,P|436:168|400:100,1,160,4|0,3:0|1:0,0:0:0:0:
340,52,67979,1,2,0:0:0:0:
264,72,68147,2,0,L|100:44,2,160,2|0|4,0:0|1:0|3:0,0:0:0:0:
248,152,68990,1,2,0:0:0:0:
288,220,69159,1,0,1:0:0:0:
364,244,69327,1,2,0:0:0:0:
440,216,69496,2,0,P|464:184|476:144,2,80,2|4|0,0:0|3:0|1:0,0:0:0:0:
248,152,70170,6,0,P|212:228|252:292,1,160,4|0,3:0|1:0,0:0:0:0:
208,360,70675,1,2,0:0:0:0:
152,304,70844,2,0,P|136:268|136:224,1,80,2|4,0:0|3:0,0:0:0:0:
76,172,71181,2,0,P|60:208|60:252,1,80,0|2,1:0|0:0,0:0:0:0:
136,228,71518,2,0,L|296:204,1,160,4|0,3:0|1:0,0:0:0:0:
340,140,72024,1,2,0:0:0:0:
288,80,72192,2,0,L|129:103,2,160,2|0|4,0:0|1:0|3:0,0:0:0:0:
368,64,73035,5,2,0:0:0:0:
440,96,73204,2,0,P|452:144|448:176,1,80,0|2,1:0|0:0,0:0:0:0:
432,252,73541,2,0,P|388:312|308:304,1,160,2|0,0:0|1:0,0:0:0:0:
356,240,74046,1,2,0:0:0:0:
356,240,74215,2,0,B|332:167|332:167|272:104,1,160,4|0,3:0|1:0,0:0:0:0:
208,64,74720,1,2,0:0:0:0:
128,60,74889,2,0,P|92:80|68:120,1,80,2|4,0:0|3:0,0:0:0:0:
148,136,75226,2,0,P|184:156|205:187,1,80,0|2,1:0|0:0,0:0:0:0:
216,268,75563,6,0,P|160:332|80:316,1,160,4|0,3:0|1:0,0:0:0:0:
136,256,76069,1,2,0:0:0:0:
188,192,76237,2,0,P|236:188|268:204,1,80,2|4,0:0|3:0,0:0:0:0:
308,268,76574,1,0,1:0:0:0:
384,296,76743,1,2,0:0:0:0:
460,272,76911,6,0,L|488:188,2,80,4|2|0,3:0|0:0|1:0,0:0:0:0:
400,216,77417,1,2,0:0:0:0:
356,152,77586,2,0,L|328:68,2,80,2|4|0,0:0|3:0|1:0,0:0:0:0:
384,296,78260,6,0,P|304:332|248:284,1,160,4|0,3:0|1:0,0:0:0:0:
220,220,78765,1,2,0:0:0:0:
204,140,78934,2,0,P|196:84|204:52,1,80,2|4,0:0|3:0,0:0:0:0:
311,61,79271,2,0,P|316:84|308:140,1,80,0|2,1:0|0:0,0:0:0:0:
204,140,79608,6,0,P|120:156|80:228,1,160,4|0,3:0|1:0,0:0:0:0:
88,296,80114,1,2,0:0:0:0:
156,340,80282,2,0,L|248:356,1,80,2|4,0:0|3:0,0:0:0:0:
252,276,80619,2,0,L|160:260,1,80,0|2,1:0|0:0,0:0:0:0:
200,188,80956,6,0,L|364:216,1,160,4|0,3:0|1:0,0:0:0:0:
436,208,81462,1,2,0:0:0:0:
488,148,81631,2,0,P|488:104|472:68,2,80,2|4|0,0:0|3:0|1:0,0:0:0:0:
412,124,82136,1,2,0:0:0:0:
332,108,82305,6,0,P|256:92|184:124,1,160,4|0,3:0|1:0,0:0:0:0:
160,200,82810,1,2,0:0:0:0:
200,268,82979,2,0,P|276:284|348:252,1,160,2|0,0:0|1:0,0:0:0:0:
380,180,83484,1,2,0:0:0:0:
448,224,83653,6,0,P|448:268|436:304,1,80,4|2,3:0|0:0,0:0:0:0:
376,352,83990,1,0,1:0:0:0:
300,372,84159,1,2,0:0:0:0:
220,368,84327,2,0,P|180:356|140:328,1,80,2|4,0:0|3:0,0:0:0:0:
96,272,84664,2,0,P|72:216|72:176,1,80,0|2,1:0|0:0,0:0:0:0:
84,120,85001,5,4,3:0:0:0:
248,64,85338,1,0,1:0:0:0:
216,288,85675,1,2,0:0:0:0:
292,264,85844,2,0,P|316:232|324:188,1,80,4|0,3:0|1:0,0:0:0:0:
248,64,86350,6,0,P|208:144|248:200,1,160,4|0,3:0|1:0,0:0:0:0:
284,132,86855,1,2,0:0:0:0:
324,64,87024,2,0,L|412:64,1,80,2|4,0:0|3:0,0:0:0:0:
436,136,87361,2,0,L|356:136,1,80,0|2,1:0|0:0,0:0:0:0:
364,216,87698,2,0,P|396:280|352:352,2,160,4|0|2,3:0|1:0|0:0,0:0:0:0:
284,200,88541,1,4,3:0:0:0:
208,216,88709,1,0,1:0:0:0:
40,144,89046,6,0,P|60:220|136:240,1,160,4|0,3:0|1:0,0:0:0:0:
208,216,89552,1,2,0:0:0:0:
236,140,89720,2,0,P|240:104|224:60,1,80,2|4,0:0|3:0,0:0:0:0:
148,76,90057,2,0,P|144:112|160:156,1,80,0|2,1:0|0:0,0:0:0:0:
208,216,90395,6,0,P|280:268|352:256,1,160,4|0,3:0|1:0,0:0:0:0:
420,228,90900,1,0,0:0:0:0:
468,164,91069,1,2,0:0:0:0:
420,228,91237,2,0,L|436:320,1,80,4|0,3:0|1:0,0:0:0:0:
280,352,91743,6,0,L|248:184,1,160,4|0,3:0|1:0,0:0:0:0:
176,168,92249,1,2,0:0:0:0:
140,96,92417,2,0,P|96:164|128:232,2,160,2|0|4,0:0|1:0|3:0,0:0:0:0:
216,64,93260,1,2,0:0:0:0:
296,60,93428,2,0,P|336:60|380:76,1,80,0|2,1:0|0:0,0:0:0:0:
440,120,93765,2,0,L|410:277,1,160,2|0,0:0|1:0,0:0:0:0:
356,336,94271,1,2,0:0:0:0:
276,348,94440,5,4,3:0:0:0:
252,156,94777,1,0,1:0:0:0:
440,120,95114,1,2,0:0:0:0:
284,232,95451,2,0,P|232:236|204:220,1,80,0|2,1:0|0:0,0:0:0:0:
132,196,95788,2,0,L|108:360,2,160,4|0|2,3:0|1:0|0:0,0:0:0:0:
176,132,96631,1,4,3:0:0:0:
252,156,96799,1,0,1:0:0:0:
372,264,97136,6,0,P|431:201|429:119,1,160,4|0,3:0|1:0,0:0:0:0:
176,208,97810,2,0,P|166:277|214:349,2,160,0|0|4,0:0|1:0|3:0,0:0:0:0:
204,132,98653,1,2,0:0:0:0:
204,52,98822,2,0,L|44:32,1,160,0|2,1:0|0:0,0:0:0:0:
28,112,99327,1,4,3:0:0:0:
48,188,99496,1,0,1:0:0:0:
164,296,99833,6,0,P|252:288|296:224,1,160,4|0,3:0|1:0,0:0:0:0:
292,156,100338,1,0,0:0:0:0:
244,92,100507,2,0,P|284:76|324:84,2,80,2|4|0,0:0|3:0|1:0,0:0:0:0:
408,296,101181,6,0,L|240:276,1,160,4|0,3:0|1:0,0:0:0:0:
172,264,101687,1,2,0:0:0:0:
180,184,101855,1,2,0:0:0:0:
260,196,102024,2,0,L|348:208,1,80,4|0,3:0|1:0,0:0:0:0:
164,344,102529,6,0,P|96:288|104:220,1,160,4|0,3:0|1:0,0:0:0:0:
132,148,103035,1,0,0:0:0:0:
76,88,103204,2,0,P|56:112|52:168,2,80,2|4|0,0:0|3:0|1:0,0:0:0:0:
152,64,103709,1,2,0:0:0:0:
232,52,103878,6,0,L|316:48,1,80,4|2,3:0|0:0,0:0:0:0:
392,44,104215,1,0,1:0:0:0:
376,124,104383,2,0,L|292:128,2,80,2|0|4,0:0|0:0|3:0,0:0:0:0:
456,120,104889,1,0,1:0:0:0:
184,204,105226,6,0,L|176:164,2,40,4|0|0,3:0|0:0|0:0,0:0:0:0:
212,280,105563,1,0,1:0:0:0:
284,320,105732,1,0,0:0:0:0:
364,316,105900,1,0,0:0:0:0:
428,268,106069,1,4,3:0:0:0:
456,192,106237,1,0,1:0:0:0:
432,116,106406,1,0,0:0:0:0:
376,60,106574,6,0,P|304:60|256:140,1,160,4|0,3:0|1:0,0:0:0:0:
240,204,107080,1,0,0:0:0:0:
320,208,107249,2,0,P|340:152|336:124,1,80,0|4,0:0|3:0,0:0:0:0:
156,80,107586,2,0,P|154:99|174:155,1,80,0|0,1:0|0:0,0:0:0:0:
240,204,107923,6,0,P|164:240|104:200,1,160,4|2,0:0|3:0,0:0:0:0:
108,104,108428,2,0,P|184:68|244:108,1,160,0|4,0:0|3:0,0:0:0:0:
308,152,108934,1,2,3:0:0:0:
388,156,109102,1,0,0:0:0:0:
460,120,109271,2,0,L|476:284,1,160,4|2,3:0|3:0,0:0:0:0:
420,336,109777,2,0,B|360:348|360:348|320:336|320:336|264:344,1,160,0|4,0:0|3:0,0:0:0:0:
188,320,110282,1,2,3:0:0:0:
156,120,110619,5,4,3:0:0:0:
84,152,110788,2,0,P|56:236|88:300,1,160
148,344,111293,1,0,0:0:0:0:
308,340,111631,1,2,3:0:0:0:
404,212,111968,1,0,0:0:0:0:
376,56,112305,6,0,L|372:140,1,80,2|0,3:0|0:0,0:0:0:0:
404,212,112642,1,0,0:0:0:0:
348,268,112810,1,4,3:0:0:0:
272,244,112979,2,0,L|268:164,1,80,2|0,3:0|0:0,0:0:0:0:
252,84,113316,6,0,P|172:52|112:100,1,160,4|2,3:0|3:0,0:0:0:0:
72,244,113990,1,0,0:0:0:0:
112,312,114159,2,0,P|144:268|148:232,1,80,4|2,3:0|3:0,0:0:0:0:
288,164,114664,2,0,L|300:332,1,160,4|2,3:0|3:0,0:0:0:0:
364,192,115338,1,0,0:0:0:0:
288,164,115507,2,0,P|252:148|208:144,1,80,4|2,3:0|3:0,0:0:0:0:
396,272,116013,6,0,P|448:208|428:132,1,160,4|2,3:0|3:0,0:0:0:0:
288,164,116687,1,0,0:0:0:0:
260,236,116855,2,0,P|260:288|276:328,1,80,4|2,3:0|3:0,0:0:0:0:
108,328,117361,6,0,L|72:164,1,160,4|2,3:0|3:0,0:0:0:0:
76,92,117866,1,0,0:0:0:0:
152,60,118035,1,0,0:0:0:0:
228,88,118204,2,0,P|204:124|168:140,1,80,4|2,3:0|3:0,0:0:0:0:
171,139,118709,6,0,P|220:196|308:172,1,160,4|2,3:0|3:0,0:0:0:0:
376,196,119215,2,0,L|341:352,1,160,0|4,0:0|3:0,0:0:0:0:
420,348,119720,1,2,3:0:0:0:
440,272,119889,1,0,0:0:0:0:
456,196,120057,6,0,P|416:124|336:124,1,160,4|0,3:0|3:0,0:0:0:0:
272,156,120563,1,0,0:0:0:0:
204,192,120732,2,0,P|192:152|208:112,1,80,0|4,0:0|3:0,0:0:0:0:
272,156,121069,2,0,P|281:191|268:232,1,80,2|0,3:0|0:0,0:0:0:0:
220,296,121406,5,4,3:0:0:0:
148,328,121574,2,0,P|84:272|96:192,1,160
100,124,122080,2,0,L|16:104,2,80,0|4|2,0:0|3:0|3:0,0:0:0:0:
236,44,122754,1,4,3:0:0:0:
272,200,123091,5,2,3:0:0:0:
348,180,123260,1,0,0:0:0:0:
408,128,123428,2,0,P|424:88|424:48,1,80,0|4,0:0|3:0,0:0:0:0:
348,180,123765,2,0,P|348:216|364:256,1,80,2|0,3:0|0:0,0:0:0:0:
376,336,124102,6,0,P|432:304|424:200,1,160,4|2,3:0|3:0,0:0:0:0:
356,72,124777,1,0,0:0:0:0:
276,60,124945,2,0,L|196:48,1,80,4|2,3:0|3:0,0:0:0:0:
80,156,125451,6,0,P|156:196|224:144,1,160,4|2,3:0|3:0,0:0:0:0:
80,76,126125,1,0,0:0:0:0:
80,156,126293,2,0,P|78:208|84:236,1,80,4|2,3:0|3:0,0:0:0:0:
232,292,126799,6,0,L|400:308,1,160,4|2,3:0|3:0,0:0:0:0:
456,256,127305,1,0,0:0:0:0:
384,224,127473,2,0,L|288:216,2,80,0|4|2,0:0|3:0|3:0,0:0:0:0:
232,292,128147,6,0,P|200:212|232:144,1,160,4|2,3:0|3:0,0:0:0:0:
292,100,128653,1,0,0:0:0:0:
227,148,128822,2,0,P|188:160|140:160,1,80,0|4,0:0|3:0,0:0:0:0:
72,140,129159,1,2,3:0:0:0:
72,60,129327,1,0,0:0:0:0:
148,28,129496,5,4,1:0:0:0:
256,192,129580,12,0,132192,0:0:0:0:
256,192,149215,12,4,151069,3:0:0:0:
76,144,151743,5,0,1:0:0:0:
64,288,152080,1,0,0:0:0:0:
196,232,152417,1,0,0:0:0:0:
216,164,152586,2,0,L|236:104,1,47.9999985351563,0|0,1:0|1:0,0:0:0:0:
344,220,153091,1,0,1:0:0:0:
364,288,153259,1,0,1:0:0:0:
124,164,153765,5,0,1:0:0:0:
316,60,154271,1,0,1:0:0:0:
296,128,154440,1,0,1:0:0:0:
388,240,154777,5,0,0:0:0:0:
440,104,155114,1,0,0:0:0:0:
296,128,155451,1,0,1:0:0:0:
156,152,155788,5,0,1:0:0:0:
84,164,155956,1,0,1:0:0:0:
72,172,156462,5,0,1:0:0:0:
116,308,156799,1,0,0:0:0:0:
256,344,157136,1,0,1:0:0:0:
396,308,157473,1,0,0:0:0:0:
440,172,157810,1,0,0:0:0:0:
424,100,157979,5,0,1:0:0:0:
364,60,158147,1,0,1:0:0:0:
220,44,158484,1,0,1:0:0:0:
156,76,158652,1,0,1:0:0:0:
344,284,159159,6,0,P|292:328|216:312,1,143.999995605469,0|0,1:0|1:0,0:0:0:0:
164,272,159833,1,0,1:0:0:0:
108,140,160170,1,0,0:0:0:0:
20,256,160507,1,0,0:0:0:0:
164,272,160844,5,0,1:0:0:0:
296,216,161181,1,0,1:0:0:0:
324,148,161350,1,0,1:0:0:0:
112,112,161855,5,0,1:0:0:0:
236,36,162192,1,0,0:0:0:0:
372,84,162529,1,0,1:0:0:0:
412,220,162866,1,0,0:0:0:0:
324,332,163204,1,0,0:0:0:0:
256,348,163372,5,0,1:0:0:0:
188,332,163541,1,0,1:0:0:0:
124,204,163878,1,0,1:0:0:0:
192,220,164047,1,0,1:0:0:0:
200,236,164552,6,0,P|272:200|268:132,1,143.999995605469,0|0,1:0|1:0,0:0:0:0:
244,80,165226,1,0,1:0:0:0:
100,72,165563,1,0,0:0:0:0:
40,204,165900,1,0,0:0:0:0:
104,332,166237,1,0,1:0:0:0:
248,348,166574,2,0,P|268:304|268:288,1,47.9999985351563,0|0,1:0|1:0,0:0:0:0:
280,88,167249,5,0,1:0:0:0:
408,152,167586,1,0,0:0:0:0:
288,232,167923,1,0,1:0:0:0:
288,88,168260,1,0,0:0:0:0:
416,152,168597,1,0,0:0:0:0:
460,208,168765,6,0,P|428:224|396:220,1,47.9999985351563,0|0,1:0|1:0,0:0:0:0:
372,96,169271,2,0,P|404:80|436:84,1,47.9999985351563,0|0,1:0|1:0,0:0:0:0:
344,284,169945,5,0,1:0:0:0:
176,72,172305,5,0,1:0:0:0:
112,220,172642,6,0,P|148:240|204:228,1,80,4|2,1:0|0:0,0:0:0:0:
264,212,172979,1,0,1:0:0:0:
304,144,173147,1,2,0:0:0:0:
320,64,173316,2,0,P|400:48|448:116,1,160,2|0,0:0|1:0,0:0:0:0:
440,180,173822,1,2,0:0:0:0:
404,252,173990,6,0,L|412:332,2,80,4|2|0,3:0|0:0|1:0,0:0:0:0:
332,216,174496,1,0,0:0:0:0:
256,192,174664,2,0,L|248:272,2,80,2|4|0,0:0|3:0|1:0,0:0:0:0:
128,48,175338,6,0,P|88:104|116:188,1,160,4|0,3:0|1:0,0:0:0:0:
176,232,175844,1,2,0:0:0:0:
172,312,176013,2,0,P|132:300|104:264,2,80,2|4|0,0:0|3:0|1:0,0:0:0:0:
252,320,176518,1,2,0:0:0:0:
328,292,176687,6,0,L|340:128,1,160,4|0,3:0|1:0,0:0:0:0:
372,60,177192,1,2,0:0:0:0:
420,124,177361,1,2,0:0:0:0:
416,204,177529,2,0,L|410:283,1,80,4|0,3:0|1:0,0:0:0:0:
252,320,178035,6,0,P|168:308|144:232,1,160,4|0,3:0|1:0,0:0:0:0:
152,164,178541,1,2,0:0:0:0:
108,96,178709,1,2,0:0:0:0:
40,140,178878,1,4,3:0:0:0:
36,220,179046,2,0,L|32:300,1,80,0|2,1:0|0:0,0:0:0:0:
100,344,179383,5,4,3:0:0:0:
256,304,179720,1,0,1:0:0:0:
256,144,180057,1,2,0:0:0:0:
192,96,180226,2,0,P|228:68|268:64,2,80,4|0|2,3:0|1:0|0:0,0:0:0:0:
184,176,180732,6,0,P|248:224|320:188,1,160,4|0,3:0|1:0,0:0:0:0:
352,124,181237,1,2,0:0:0:0:
308,56,181406,1,2,0:0:0:0:
352,124,181574,2,0,L|436:116,1,80,4|0,3:0|1:0,0:0:0:0:
432,276,182080,6,0,P|356:300|300:248,1,160,4|0,3:0|1:0,0:0:0:0:
276,176,182586,1,2,0:0:0:0:
216,124,182754,1,2,0:0:0:0:
136,136,182923,2,0,P|116:172|108:216,1,80,4|0,3:0|1:0,0:0:0:0:
208,336,183428,6,0,L|204:248,1,80,4|2,3:0|0:0,0:0:0:0:
212,176,183765,1,0,1:0:0:0:
280,132,183934,1,2,0:0:0:0:
352,164,184102,1,2,0:0:0:0:
356,244,184271,2,0,L|352:323,1,80,4|0,3:0|1:0,0:0:0:0:
428,184,184777,6,0,P|424:136|408:108,1,80,4|2,3:0|0:0,0:0:0:0:
340,68,185114,1,0,1:0:0:0:
260,56,185282,1,2,0:0:0:0:
188,92,185451,1,2,0:0:0:0:
128,144,185619,2,0,P|112:104|116:64,1,80,4|0,3:0|1:0,0:0:0:0:
144,288,186125,6,0,L|228:280,1,80,0|2,0:0|0:0,0:0:0:0:
300,260,186462,1,0,1:0:0:0:
344,192,186631,1,2,0:0:0:0:
313,119,186799,2,0,P|376:120|424:196,1,160,2|0,0:0|1:0,0:0:0:0:
412,276,187305,1,2,0:0:0:0:
364,340,187473,5,4,3:0:0:0:
204,332,187810,1,0,1:0:0:0:
136,292,187979,1,2,0:0:0:0:
96,224,188147,2,0,P|84:176|88:144,1,80,2|4,0:0|3:0,0:0:0:0:
136,292,188484,2,0,P|92:304|56:292,1,80,0|2,1:0|0:0,0:0:0:0:
96,224,188822,6,0,P|172:220|212:300,1,160,4|0,3:0|1:0,0:0:0:0:
272,336,189327,1,2,0:0:0:0:
352,328,189496,1,0,0:0:0:0:
412,276,189664,2,0,L|424:188,1,80,4|0,3:0|1:0,0:0:0:0:
352,52,190170,6,0,L|328:212,1,160,4|0,3:0|1:0,0:0:0:0:
256,244,190675,1,2,0:0:0:0:
244,164,190844,1,2,0:0:0:0:
176,124,191013,2,0,P|124:120|96:136,1,80,4|0,3:0|1:0,0:0:0:0:
68,288,191518,5,4,3:0:0:0:
360,128,193878,5,0,1:0:0:0:
228,36,194215,6,0,P|196:108|216:192,1,160,4|2,1:0|3:0,0:0:0:0:
252,252,194720,1,0,0:0:0:0:
328,284,194889,2,0,P|380:292|420:272,1,80,0|4,0:0|3:0,0:0:0:0:
444,212,195226,2,0,P|392:204|352:224,1,80,2|0,3:0|0:0,0:0:0:0:
328,284,195563,6,0,P|264:332|192:308,1,160,4|2,3:0|3:0,0:0:0:0:
140,248,196069,1,0,0:0:0:0:
96,184,196237,2,0,L|16:192,1,80,0|4,0:0|3:0,0:0:0:0:
32,112,196574,2,0,L|112:104,1,80,2|0,3:0|0:0,0:0:0:0:
192,96,196911,5,4,3:0:0:0:
272,88,197080,2,0,P|312:164|280:236,1,160
228,280,197586,1,0,0:0:0:0:
272,88,197923,1,2,3:0:0:0:
424,212,198260,1,4,3:0:0:0:
300,316,198597,6,0,P|308:272|292:232,1,80,2|0,3:0|0:0,0:0:0:0:
248,176,198934,1,0,0:0:0:0:
176,144,199102,1,4,3:0:0:0:
100,168,199271,2,0,P|88:200|96:244,1,80,2|0,3:0|0:0,0:0:0:0:
140,312,199608,6,0,L|308:316,1,160,4|2,3:0|3:0,0:0:0:0:
420,208,200282,1,0,0:0:0:0:
440,132,200451,2,0,P|384:132|360:152,1,80,4|2,3:0|3:0,0:0:0:0:
220,208,200956,6,0,P|184:128|220:64,1,160,4|2,3:0|3:0,0:0:0:0:
104,188,201631,1,0,0:0:0:0:
36,144,201799,2,0,L|36:60,1,80,4|2,3:0|3:0,0:0:0:0:
68,316,202305,6,0,P|152:316|184:256,1,160,4|2,3:0|3:0,0:0:0:0:
276,124,202979,1,0,0:0:0:0:
352,152,203147,2,0,P|324:192|292:204,1,80,4|2,3:0|3:0,0:0:0:0:
420,308,203653,6,0,L|432:136,1,160,4|2,3:0|3:0,0:0:0:0:
396,76,204159,1,0,0:0:0:0:
324,44,204327,1,0,0:0:0:0:
244,48,204496,2,0,P|212:72|192:116,1,80,4|2,3:0|3:0,0:0:0:0:
192,268,205001,6,0,P|120:312|44:268,1,160,4|2,3:0|3:0,0:0:0:0:
44,204,205507,1,0,0:0:0:0:
40,124,205675,2,0,L|48:40,1,80,0|4,0:0|3:0,0:0:0:0:
124,76,206013,2,0,L|116:155,1,80,2|0,3:0|0:0,0:0:0:0:
192,184,206350,6,0,B|200:104|200:104|232:76|284:72,1,160,4|2,3:0|3:0,0:0:0:0:
352,76,206855,1,0,0:0:0:0:
424,108,207024,2,0,P|464:132|476:176,1,80,0|4,0:0|3:0,0:0:0:0:
400,180,207361,2,0,L|396:264,1,80,2|0,3:0|0:0,0:0:0:0:
356,328,207698,5,4,3:0:0:0:
276,340,207866,2,0,P|188:308|180:240,1,160
172,172,208372,1,0,0:0:0:0:
48,72,208709,1,2,3:0:0:0:
28,232,209046,1,4,3:0:0:0:
188,248,209383,6,0,P|224:228|244:192,1,80,2|0,3:0|0:0,0:0:0:0:
240,116,209720,1,0,0:0:0:0:
288,52,209889,1,4,3:0:0:0:
352,96,210057,2,0,L|444:104,1,80,2|0,3:0|0:0,0:0:0:0:
468,176,210395,6,0,P|492:248|464:336,1,160,4|2,3:0|3:0,0:0:0:0:
316,280,211069,1,0,0:0:0:0:
248,240,211237,2,0,P|208:232|164:240,1,80,4|2,3:0|3:0,0:0:0:0:
44,340,211743,6,0,L|60:168,1,160,4|2,3:0|3:0,0:0:0:0:
164,60,212417,1,0,0:0:0:0:
240,36,212586,2,0,P|240:80|216:120,1,80,4|2,3:0|3:0,0:0:0:0:
188,268,213091,6,0,P|280:280|324:208,1,160,4|2,3:0|3:0,0:0:0:0:
392,92,213765,1,0,0:0:0:0:
440,156,213934,2,0,L|436:248,1,80,4|2,3:0|3:0,0:0:0:0:
75,235,214440,6,0,L|72:156,1,80,4|0,3:0|0:0,0:0:0:0:
152,56,214777,2,0,L|231:52,1,80,2|0,3:0|0:0,0:0:0:0:
320,144,215114,2,0,L|316:223,1,80,0|4,0:0|3:0,0:0:0:0:
244,332,215451,2,0,L|164:328,1,80,2|0,3:0|0:0,0:0:0:0:
76,236,215788,6,0,P|48:164|96:80,1,160,4|0,1:0|1:0,0:0:0:0:
232,40,216462,1,0,0:0:0:0:
312,40,216631,2,0,L|304:120,1,80,4|0,3:0|1:0,0:0:0:0:
296,200,216968,1,0,0:0:0:0:
288,280,217136,6,0,P|368:304|416:252,1,160,4|0,3:0|1:0,0:0:0:0:
420,176,217642,1,0,0:0:0:0:
364,120,217810,1,0,0:0:0:0:
288,96,217979,1,4,3:0:0:0:
208,104,218147,2,0,P|168:132|144:168,1,80,0|0,1:0|0:0,0:0:0:0:
128,232,218484,6,0,P|176:284|264:264,1,160,4|0,3:0|1:0,0:0:0:0:
364,120,219159,1,0,0:0:0:0:
368,200,219327,2,0,L|372:284,2,80,4|0|0,3:0|1:0|0:0,0:0:0:0:
448,188,219833,6,0,L|456:364,2,160,4|0|0,3:0|1:0|0:0,0:0:0:0:
432,108,220675,1,4,3:0:0:0:
368,60,220844,2,0,P|324:44|288:48,1,80,0|0,1:0|0:0,0:0:0:0:
220,80,221181,6,0,P|136:100|80:56,1,160,4|0,3:0|1:0,0:0:0:0:
56,216,221855,1,0,0:0:0:0:
108,280,222024,2,0,P|136:240|136:192,1,80,4|0,3:0|1:0,0:0:0:0:
92,144,222361,1,0,0:0:0:0:
56,216,222529,6,0,L|224:200,1,160,4|0,3:0|1:0,0:0:0:0:
296,200,223035,1,0,0:0:0:0:
288,280,223204,2,0,L|200:288,1,80,2|4,0:0|3:0,0:0:0:0:
296,200,223541,2,0,L|384:208,1,80,2|0,0:0|0:0,0:0:0:0:
456,224,223878,6,0,P|484:144|440:72,1,160,4|0,3:0|1:0,0:0:0:0:
380,44,224383,1,0,0:0:0:0:
300,40,224552,2,0,P|292:84|304:124,2,80,0|4|0,0:0|3:0|1:0,0:0:0:0:
232,184,225226,6,0,P|196:112|204:28,1,160,4|0,3:0|1:0,0:0:0:0:
232,184,225900,1,0,0:0:0:0:
180,244,226069,2,0,L|92:248,1,80,4|0,3:0|1:0,0:0:0:0:
72,324,226406,1,0,0:0:0:0:
148,344,226574,6,0,P|232:336|280:276,1,160,4|0,3:0|1:0,0:0:0:0:
300,204,227080,1,0,0:0:0:0:
364,156,227249,2,0,P|380:204|372:240,1,80,0|4,0:0|3:0,0:0:0:0:
384,312,227586,1,0,1:0:0:0:
460,288,227754,1,0,0:0:0:0:
472,208,227923,6,0,L|476:44,1,160,4|0,3:0|1:0,0:0:0:0:
316,28,228597,1,0,0:0:0:0:
248,72,228765,2,0,P|288:104|332:104,1,80,4|0,3:0|1:0,0:0:0:0:
304,268,229271,6,0,P|240:328|160:316,1,160,4|0,3:0|1:0,0:0:0:0:
104,280,229777,1,0,0:0:0:0:
52,220,229945,2,0,L|32:136,1,80,0|4,0:0|3:0,0:0:0:0:
40,64,230282,1,0,1:0:0:0:
112,100,230451,1,0,0:0:0:0:
172,156,230619,6,0,P|192:76|144:24,2,160,4|0|0,3:0|1:0|0:0,0:0:0:0:
156,236,231462,2,0,P|188:260|232:264,1,80,4|0,3:0|1:0,0:0:0:0:
388,96,231968,6,0,L|384:256,1,160,4|0,3:0|1:0,0:0:0:0:
344,324,232473,1,0,0:0:0:0:
304,252,232642,1,0,0:0:0:0:
384,256,232810,2,0,P|412:280|424:324,1,80,4|0,3:0|1:0,0:0:0:0:
264,324,233316,6,0,P|220:244|252:188,1,160,4|0,3:0|1:0,0:0:0:0:
256,112,233822,1,0,2:0:0:0:
184,76,233990,1,0,0:0:0:0:
104,76,234159,2,0,L|88:156,1,80,4|0,3:0|0:0,0:0:0:0:
144,316,234664,6,0,P|135:291|132:264,7,40
172,264,235338,2,0,P|196:256|216:252,7,40
252,260,236013,6,0,P|260:284|264:312,7,40
280,336,236687,2,0,P|296:332|318:324,7,40
356,308,237361,5,4,0:0:0:0:
256,192,237529,12,0,242754,0:0:0:0:
